osu file format v14

[General]
AudioFilename: mp3.mp3
AudioLeadIn: 0
PreviewTime: 93830
Countdown: 0
SampleSet: Normal
StackLeniency: 0.7
Mode: 0
LetterboxInBreaks: 0
WidescreenStoryboard: 0

[Editor]
DistanceSpacing: 0.8
BeatDivisor: 6
GridSize: 4
TimelineZoom: 2.4

[Metadata]
Title:Tits or get the fuck out!!
TitleUnicode:Tits or get the fuck out!!
Artist:Morimori Atsushi
ArtistUnicode:モリモリあつし
Creator:Regou
Version:Hell Extra!!
Source:東方Project
Tags:zun 上海アリス幻樂団 team shanghai alice 東方神霊廟 ten desires. touhou shinreibyou デザイアドライブ desire drive アレンジ arrange Frey Blizs -N_a_n_a_k_o- FreeSongs -Nanako- Fantastica
BeatmapID:975418
BeatmapSetID:455022

[Difficulty]
HPDrainRate:6
CircleSize:4.2
OverallDifficulty:9.2
ApproachRate:9.5
SliderMultiplier:1.9
SliderTickRate:2

[Events]
//Background and Video events
0,0,"maxresdefault.jpg",0,0
//Break Periods
2,73371,74828
//Storyboard Layer 0 (Background)
//Storyboard Layer 1 (Fail)
//Storyboard Layer 2 (Pass)
//Storyboard Layer 3 (Foreground)
//Storyboard Sound Samples

[TimingPoints]
3353,272.727272727273,4,1,1,100,1,0
3353,-200,4,1,1,100,0,0
20534,-100,4,1,1,100,0,0
28443,-133.333333333333,4,1,1,100,0,0
29534,-100,4,1,1,100,0,0
31171,-100,4,1,5,70,0,0
31443,-100,4,1,1,100,0,0
35534,-83.3333333333333,4,1,5,100,0,0
35807,-100,4,1,1,100,0,0
38262,-200,4,1,2,100,0,0
40443,-100,4,1,2,100,0,0
42625,-200,4,1,2,100,0,0
44807,-100,4,1,2,100,0,0
46443,-100,4,1,10,80,0,0
46989,-200,4,1,2,100,0,0
48898,-100,4,1,1,100,0,0
49171,-100,4,1,2,100,0,0
51284,-100,4,1,2,100,0,0
51898,-100,4,1,99,70,0,0
52034,-100,4,1,99,50,0,0
52171,-100,4,1,2,100,0,0
52989,-100,4,1,99,70,0,0
53125,-100,4,1,99,50,0,0
53262,-83.3333333333333,4,1,10,100,0,0
53534,-100,4,1,2,100,0,0
54080,-100,4,1,1,100,0,0
54216,-100,4,1,2,100,0,0
54625,-100,4,1,1,100,0,0
54762,-100,4,1,2,100,0,0
55171,-100,4,1,1,100,0,0
55443,-100,4,1,3,100,0,0
55580,-100,4,1,2,100,0,0
55716,-100,4,1,1,100,0,0
57080,-90.9090909090909,4,1,1,100,0,0
57353,-83.3333333333333,4,1,1,100,0,0
57625,-76.9230769230769,4,1,1,100,0,0
57898,-100,4,1,2,70,0,0
58171,-100,4,1,2,80,0,0
58443,-100,4,1,2,90,0,0
58716,-100,4,1,2,100,0,0
58989,-100,4,1,1,100,0,0
62262,-100,4,1,1,70,0,0
62534,-100,4,1,1,80,0,0
62807,-100,4,1,1,90,0,0
63080,-100,4,1,1,100,0,0
63353,-133.333333333333,4,1,1,100,0,0
64171,-133.333333333333,4,1,2,100,0,0
64443,-100,4,1,1,100,0,0
66080,-100,4,1,5,70,0,0
66216,-100,4,1,1,100,0,0
66625,-100,4,1,2,70,0,0
66898,-100,4,1,2,80,0,0
67171,-100,4,1,2,90,0,0
67443,-100,4,1,2,100,0,0
67716,-100,4,1,1,100,0,0
69216,-100,4,1,2,70,0,0
69353,-83.3333333333333,4,1,1,100,0,0
69830,-100,4,1,1,100,0,0
70239,-100,4,1,2,70,0,0
70443,-100,4,1,5,80,0,0
70716,-100,4,1,1,100,0,0
70853,-100,4,1,2,70,0,0
70989,-100,4,1,1,100,0,0
71125,-100,4,2,2,70,0,0
71262,-100,4,2,9,80,0,0
71330,-100,4,2,2,80,0,0
71534,-100,4,2,2,90,0,0
71807,-100,4,2,2,100,0,0
72080,-100,4,2,3,70,0,0
72148,-100,4,2,3,100,0,0
72898,-100,4,2,1,100,0,0
77534,-200,4,2,2,60,0,0
78216,-200,4,2,3,60,0,0
81898,-200,4,2,10,40,0,0
84080,-200,4,2,3,70,0,0
84898,-200,4,2,3,80,0,0
85716,-200,4,2,69,85,0,0
85853,-200,4,2,69,70,0,0
86125,-200,4,2,69,60,0,0
86262,-133.333333333333,4,1,1,100,0,0
89534,-133.333333333333,4,1,4,100,0,0
90080,-133.333333333333,4,1,1,100,0,0
91034,-133.333333333333,4,3,2,100,0,0
91171,-133.333333333333,4,1,1,100,0,0
93898,-66.6666666666667,4,1,1,100,0,0
94034,-33.3333333333333,4,1,1,100,0,0
94171,-66.6666666666667,4,1,2,100,0,0
94443,-58.8235294117647,4,1,6,100,0,0
94580,-58.8235294117647,4,1,7,80,0,0
94716,-200,4,1,1,100,0,0
94989,-100,4,1,1,100,0,1
95262,-100,4,1,11,100,0,1
95398,-100,4,1,11,70,0,1
95534,-100,4,1,11,100,0,1
95671,-100,4,1,11,70,0,1
95807,-100,4,1,11,100,0,1
95943,-100,4,1,11,70,0,1
96012,-100,4,1,11,100,0,1
96216,-100,4,1,11,70,0,1
96353,-100,4,1,11,100,0,1
96489,-100,4,1,11,70,0,1
96625,-100,4,1,11,100,0,1
96762,-100,4,1,11,70,0,1
96898,-100,4,1,11,100,0,1
97034,-100,4,1,11,70,0,1
97171,-100,4,1,11,100,0,1
97307,-100,4,1,11,70,0,1
97443,-100,4,1,11,100,0,1
97580,-100,4,1,11,70,0,1
97716,-100,4,1,11,60,0,1
97989,-100,4,1,11,100,0,1
98125,-100,4,1,11,70,0,1
98262,-100,4,1,11,100,0,1
98398,-100,4,1,11,70,0,1
98534,-100,4,1,11,100,0,1
98671,-100,4,1,11,70,0,1
98739,-100,4,1,11,100,0,1
98807,-83.3333333333333,4,2,8,100,0,1
99216,-100,4,1,1,100,0,1
100034,-100,4,1,11,70,0,1
100103,-100,4,1,11,100,0,1
100307,-100,4,1,11,70,0,1
100443,-100,4,1,11,100,0,1
100580,-100,4,1,11,70,0,1
100716,-100,4,1,11,100,0,1
100853,-100,4,1,11,70,0,1
100989,-100,4,1,11,100,0,1
101125,-100,4,1,11,70,0,1
101262,-100,4,1,11,100,0,1
101398,-100,4,1,11,70,0,1
101534,-66.6666666666667,4,1,11,90,0,1
101739,-66.6666666666667,4,1,11,75,0,1
101943,-66.6666666666667,4,1,11,80,0,1
102148,-66.6666666666667,4,1,11,85,0,1
102353,-66.6666666666667,4,1,11,90,0,1
102489,-66.6666666666667,4,1,11,95,0,1
102625,-66.6666666666667,4,1,11,100,0,1
103171,-66.6666666666667,4,1,1,100,0,1
103307,-66.6666666666667,4,1,11,70,0,1
103375,-66.6666666666667,4,1,11,100,0,1
103580,-66.6666666666667,4,1,11,70,0,1
103648,-66.6666666666667,4,1,11,100,0,1
103989,-100,4,1,1,100,0,1
104398,-100,4,1,11,70,0,1
104534,-100,4,1,11,100,0,1
104671,-100,4,1,11,70,0,1
104807,-100,4,1,11,60,0,1
105080,-100,4,1,11,100,0,1
105216,-100,4,1,11,70,0,1
105353,-100,4,1,11,100,0,1
105489,-100,4,1,11,70,0,1
105625,-100,4,1,11,100,0,1
105762,-100,4,1,11,70,0,1
105898,-100,4,1,11,60,0,1
106171,-100,4,1,11,100,0,1
106307,-100,4,1,11,70,0,1
106375,-100,4,1,11,100,0,1
106580,-100,4,1,11,70,0,1
106716,-100,4,1,11,100,0,1
106853,-100,4,1,11,70,0,1
106989,-100,4,1,11,100,0,1
107125,-100,4,1,11,70,0,1
107262,-100,4,1,11,100,0,1
107398,-100,4,1,11,70,0,1
107466,-100,4,1,11,100,0,1
107534,-83.3333333333333,4,2,8,100,0,1
108080,-100,4,1,1,100,0,1
108762,-100,4,1,11,70,0,1
108898,-100,4,1,11,100,0,1
109034,-100,4,1,11,70,0,1
109239,-100,4,1,2,100,0,1
109443,-100,4,1,1,100,0,1
109784,-100,4,1,2,100,0,1
109989,-100,4,1,1,100,0,1
110125,-100,4,1,11,70,0,1
110262,-66.6666666666667,4,1,11,90,0,1
110466,-66.6666666666667,4,1,11,75,0,1
110671,-66.6666666666667,4,1,11,80,0,1
110875,-66.6666666666667,4,1,11,85,0,1
111080,-66.6666666666667,4,1,11,90,0,1
111216,-66.6666666666667,4,1,11,95,0,1
111353,-66.6666666666667,4,1,11,80,0,1
111557,-66.6666666666667,4,1,11,85,0,1
111762,-66.6666666666667,4,1,11,90,0,1
111898,-66.6666666666667,4,1,11,95,0,1
112034,-66.6666666666667,4,1,11,50,0,1
112171,-100,4,1,11,100,0,1
112307,-100,4,1,11,70,0,1
112443,-133.333333333333,4,2,1,80,0,0
113398,-133.333333333333,4,2,11,70,0,0
113534,-133.333333333333,4,2,11,80,0,0
113671,-133.333333333333,4,2,11,70,0,0
114080,-133.333333333333,4,2,11,80,0,0
114216,-133.333333333333,4,2,11,70,0,0
114353,-133.333333333333,4,2,11,80,0,0
114489,-133.333333333333,4,2,11,70,0,0
114625,-133.333333333333,4,2,11,80,0,0
114762,-133.333333333333,4,2,11,70,0,0
115171,-133.333333333333,4,2,11,80,0,0
115307,-133.333333333333,4,2,11,70,0,0
115443,-133.333333333333,4,2,11,80,0,0
115580,-133.333333333333,4,2,11,70,0,0
115716,-133.333333333333,4,2,11,80,0,0
115853,-133.333333333333,4,2,11,70,0,0
115989,-133.333333333333,4,2,11,80,0,0
116125,-133.333333333333,4,2,11,70,0,0
116262,-133.333333333333,4,2,2,80,0,0
116807,-133.333333333333,4,3,2,70,0,0
117353,-133.333333333333,4,3,2,80,0,0
117898,-133.333333333333,4,3,2,90,0,0
118443,-133.333333333333,4,3,2,100,0,0
118989,-100,4,1,11,90,0,0
119193,-90.9090909090909,4,1,1,70,0,0
119398,-83.3333333333333,4,1,11,75,0,0
119603,-76.9230769230769,4,1,11,80,0,0
119807,-66.6666666666667,4,1,11,90,0,0
119943,-66.6666666666667,4,1,11,95,0,0
120080,-66.6666666666667,4,1,11,100,0,0
120625,-66.6666666666667,4,1,1,100,0,0
120762,-66.6666666666667,4,1,11,50,0,0
120830,-66.6666666666667,4,1,11,100,0,0
121034,-66.6666666666667,4,1,11,70,0,0
121171,-133.333333333333,4,1,2,90,0,0
121307,-133.333333333333,4,1,1,90,0,0
124716,-133.333333333333,4,1,2,90,0,0
124989,-100,4,1,1,100,0,0
125398,-100,4,1,11,70,0,0
125534,-100,4,1,1,100,0,1
125671,-100,4,1,11,70,0,1
125807,-100,4,1,11,100,0,1
125943,-100,4,1,11,70,0,1
126012,-100,4,1,11,100,0,1
126216,-100,4,1,11,70,0,1
126353,-100,4,1,11,100,0,1
126489,-100,4,1,11,70,0,1
126625,-100,4,1,1,100,0,1
127034,-100,4,1,11,70,0,1
127171,-100,4,1,11,100,0,1
127307,-100,4,1,11,70,0,1
127443,-100,4,1,11,100,0,1
127580,-100,4,1,11,70,0,1
127716,-66.6666666666667,4,1,1,100,0,1
127784,-66.6666666666667,4,3,2,100,0,1
127921,-66.6666666666667,4,1,11,70,0,1
128125,-66.6666666666667,4,1,11,75,0,1
128330,-66.6666666666667,4,1,11,80,0,1
128534,-66.6666666666667,4,1,11,85,0,1
128671,-66.6666666666667,4,1,1,85,0,1
128807,-66.6666666666667,4,2,1,100,0,1
128875,-66.6666666666667,4,3,2,100,0,1
129012,-66.6666666666667,4,1,11,100,0,1
129216,-66.6666666666667,4,1,11,50,0,1
129353,-58.8235294117647,4,1,1,100,0,1
129625,-58.8235294117647,4,1,3,100,0,1
129898,-100,4,1,1,100,0,0

[Colours]
Combo1 : 0,128,255
Combo2 : 0,255,255
Combo3 : 128,128,255
Combo4 : 166,0,255

[HitObjects]
256,192,16443,12,4,19716,2:0:0:0:
208,192,19989,6,0,L|316:192,1,95,0|0,2:0|2:0,0:0:0:0:
406,209,20807,5,4,0:3:0:0:
512,280,20943,1,2,2:0:0:0:
404,340,21080,2,0,P|352:332|296:332,1,95,8|2,0:0|2:0,0:0:0:0:
309,331,21284,1,0,2:0:0:0:
309,331,21353,5,0,0:0:0:0:
512,188,21489,1,2,2:0:0:0:
316,40,21625,2,0,P|368:48|424:48,1,95,8|2,0:0|2:0,0:0:0:0:
512,8,21898,5,0,0:0:0:0:
304,232,22034,1,2,2:0:0:0:
280,32,22171,5,8,0:0:0:0:
488,256,22307,1,2,2:0:0:0:
504,128,22443,5,6,0:0:0:0:
320,356,22580,1,2,2:0:0:0:
288,132,22716,5,8,0:0:0:0:
472,364,22853,1,0,0:0:0:0:
184,252,22989,6,0,P|184:272|192:348,1,95,6|2,0:0|2:0,0:0:0:0:
0,116,23262,2,0,P|72:176|148:152,1,190,10|0,0:0|0:0,0:0:0:0:
340,52,23671,1,2,2:0:0:0:
76,0,23807,2,0,P|76:20|84:96,1,95,8|2,0:0|2:0,0:0:0:0:
252,192,24080,5,0,0:0:0:0:
20,272,24216,1,2,2:0:0:0:
256,344,24353,2,0,P|304:340|364:328,1,95,8|2,0:0|2:0,0:0:0:0:
184,84,24625,5,4,0:0:0:0:
148,352,24762,1,0,0:0:0:0:
148,352,24830,1,0,0:0:0:0:
148,352,24898,1,8,0:0:0:0:
396,272,25034,1,0,0:0:0:0:
0,192,25171,6,0,P|68:208|108:208,1,95,6|2,0:0|2:0,0:0:0:0:
272,140,25443,1,8,0:0:0:0:
136,8,25580,1,2,2:0:0:0:
136,8,25648,1,0,0:0:0:0:
136,8,25716,6,0,P|132:64|132:112,1,95,0|2,0:0|2:0,0:0:0:0:
316,376,25989,2,0,P|320:320|320:272,1,95,8|2,0:0|2:0,0:0:0:0:
232,176,26262,5,0,0:0:0:0:
40,376,26398,1,2,2:0:0:0:
24,116,26534,5,8,0:0:0:0:
220,312,26671,1,2,2:0:0:0:
244,56,26807,5,4,0:0:0:0:
32,248,26943,1,2,2:0:0:0:
12,8,27080,5,8,0:0:0:0:
232,176,27216,1,0,0:0:0:0:
492,104,27353,6,0,P|508:56|508:8,1,95,4|2,0:0|2:0,0:0:0:0:
256,308,27625,2,0,P|304:364|432:356,1,190,8|0,0:0|0:0,0:0:0:0:
508,256,28034,1,2,2:0:0:0:
352,152,28171,2,0,P|352:224|356:264,1,95,8|0,0:0|2:0,0:0:0:0:
328,52,28443,6,0,P|284:24|216:64,1,106.875004076958,2|0,3:0|2:0,0:0:0:0:
224,56,28716,6,0,P|172:84|112:56,1,106.875004076958,2|0,3:0|2:0,0:0:0:0:
115,57,28989,6,0,L|27:49,1,71.2500027179719,2|0,3:0|2:0,0:0:0:0:
0,216,29262,5,0,0:0:0:0:
66,193,29330,1,0,0:0:0:0:
136,212,29398,1,0,0:0:0:0:
185,262,29466,1,0,0:0:0:0:
199,334,29534,5,6,0:0:0:0:
68,328,29671,1,2,2:0:0:0:
300,288,29807,2,0,P|352:284|412:288,1,95,8|2,0:0|2:0,0:0:0:0:
394,285,30012,1,0,2:0:0:0:
394,285,30080,1,0,0:0:0:0:
300,36,30216,6,0,P|293:82|309:158,1,95,2|8,2:0|0:0,0:0:0:0:
501,259,30489,2,0,P|508:213|492:137,1,95,2|0,2:0|0:0,0:0:0:0:
8,20,30762,6,0,L|12:88,1,47.5,2|0,2:1|2:0,0:0:0:0:
192,4,30898,6,0,L|188:72,1,47.5,8|0,0:0|2:0,0:0:0:0:
16,144,31034,6,0,L|20:212,1,47.5,2|0,2:1|2:0,0:0:0:0:
192,136,31170,6,0,L|188:176,6,23.75,0|0|0|0|0|0|0,1:0|2:0|2:0|2:0|2:0|2:0|2:0,0:0:0:0:
24,260,31443,6,0,L|27:307,1,47.5,2|0,0:3|2:0,0:0:0:0:
192,232,31580,6,0,L|188:280,1,47.5,2|0,0:3|2:0,0:0:0:0:
0,380,31716,6,0,P|49:381|96:368,1,95,6|0,0:0|2:0,0:0:0:0:
276,48,31989,2,0,P|220:3|138:14,1,142.5,10|0,0:0|2:0,0:0:0:0:
104,40,32262,2,0,P|104:103|115:147,1,95,0|2,0:0|2:0,0:0:0:0:
274,377,32534,2,0,P|278:325|266:281,1,95,8|2,0:0|2:0,0:0:0:0:
267,283,32739,1,0,0:0:0:0:
268,284,32807,6,0,P|288:306|360:319,1,95,2|0,0:3|2:0,0:0:0:0:
356,340,33012,6,0,P|383:327|417:263,1,95,2|0,0:3|2:0,0:0:0:0:
426,281,33216,6,0,P|414:248|403:231,1,47.5,2|0,0:3|2:0,0:0:0:0:
375,22,33353,6,0,P|363:55|352:72,1,47.5,2|0,0:3|2:0,0:0:0:0:
268,284,33489,6,0,P|256:251|245:234,1,47.5,2|0,0:3|2:0,0:0:0:0:
217,27,33625,6,0,P|205:60|194:77,1,47.5,2|0,0:3|2:0,0:0:0:0:
118,311,33762,6,0,P|106:278|95:261,1,47.5,2|0,0:3|2:0,0:0:0:0:
49,42,33898,5,6,0:0:0:0:
132,160,34034,1,2,2:0:0:0:
132,160,34103,1,0,0:0:0:0:
132,160,34171,2,0,P|64:176|-12:120,1,142.5,8|0,0:0|2:0,0:0:0:0:
192,24,34443,6,0,P|196:72|204:136,1,95,0|2,0:0|2:0,0:0:0:0:
36,368,34716,2,0,P|32:320|24:256,1,95,8|2,0:0|2:0,0:0:0:0:
0,44,34989,5,6,0:0:0:0:
116,136,35125,1,2,2:0:0:0:
216,16,35262,2,0,P|256:12|324:8,1,95,8|2,0:0|2:0,0:0:0:0:
488,196,35466,1,0,2:0:0:0:
452,176,35534,6,0,P|392:169|275:161,1,170.999994781494,4|0,0:0|2:0,0:0:0:0:
328,260,35807,6,0,L|392:252,1,47.5,8|0,0:0|2:0,0:0:0:0:
400,76,35943,2,0,L|336:84,1,47.5,0|0,0:0|2:0,0:0:0:0:
480,304,36080,5,6,0:0:0:0:
488,24,36216,1,2,2:0:0:0:
340,320,36353,5,8,0:0:0:0:
336,40,36489,1,2,2:0:0:0:
192,328,36625,5,6,0:0:0:0:
180,32,36761,1,2,2:0:0:0:
40,336,36898,5,8,0:0:0:0:
24,40,37034,1,2,2:0:0:0:
0,192,37171,6,0,P|72:228|136:200,1,142.5,0|0,0:0|2:0,0:0:0:0:
208,224,37443,2,0,P|204:180|196:152,1,47.5,8|0,0:2|2:0,0:0:0:0:
24,40,37580,2,0,P|28:84|36:112,1,47.5,0|0,0:0|2:0,0:0:0:0:
56,331,37716,5,0,0:0:0:0:
147,305,37853,1,0,2:0:0:0:
244,315,37989,1,8,0:2:0:0:
328,357,38125,1,0,0:0:0:0:
500,232,38262,6,0,P|416:236|328:156,1,190,4|8,3:3|2:0,0:0:0:0:
11,231,39353,2,0,P|95:235|183:155,1,190,0|8,2:0|2:0,0:0:0:0:
175,172,40171,1,2,2:0:0:0:
252,72,40307,1,0,2:0:0:0:
36,16,40443,6,0,P|40:72|52:112,1,95,4|0,0:3|2:0,0:0:0:0:
28,144,40648,1,0,2:0:0:0:
64,136,40716,1,0,2:0:0:0:
100,140,40784,1,0,2:0:0:0:
136,148,40853,1,0,2:0:0:0:
280,244,40989,1,8,2:0:0:0:
148,372,41125,1,0,2:0:0:0:
148,372,41193,1,0,2:0:0:0:
148,372,41262,2,0,P|144:316|132:276,1,95,0|0,2:0|2:0,0:0:0:0:
416,164,41534,5,2,2:0:0:0:
476,280,41671,1,0,0:0:0:0:
352,368,41807,1,8,2:0:0:0:
320,348,41875,1,0,2:0:0:0:
300,316,41943,1,0,2:0:0:0:
296,276,42012,1,0,2:0:0:0:
308,240,42080,2,0,P|312:184|304:124,1,95,8|0,2:0|2:0,0:0:0:0:
68,0,42353,2,0,P|64:56|72:116,1,95,8|0,2:0|2:0,0:0:0:0:
4,280,42625,6,0,P|76:288|164:208,1,190,4|8,3:3|2:0,0:0:0:0:
508,280,43716,2,0,P|436:288|348:208,1,190,0|8,2:0|2:0,0:0:0:0:
350,215,44534,1,8,2:0:0:0:
288,104,44671,1,2,2:0:0:0:
456,20,44807,5,4,0:3:0:0:
476,52,44875,1,0,2:0:0:0:
484,88,44943,1,0,2:0:0:0:
484,128,45012,1,0,2:0:0:0:
468,164,45080,1,8,2:0:0:0:
448,340,45216,6,0,L|372:344,1,47.5
372,324,45353,1,2,2:0:0:0:
336,324,45421,1,0,2:0:0:0:
300,336,45489,1,0,2:0:0:0:
272,360,45557,1,0,2:0:0:0:
236,368,45625,1,8,2:0:0:0:
200,372,45693,1,0,2:0:0:0:
164,360,45762,1,0,2:0:0:0:
136,336,45830,1,0,2:0:0:0:
132,300,45898,6,0,P|140:240|140:204,1,95,0|0,2:0|0:0,0:0:0:0:
256,40,46171,1,8,2:0:0:0:
8,4,46307,1,0,2:0:0:0:
8,4,46375,1,0,2:0:0:0:
8,4,46443,2,0,P|20:72|128:72,1,190,6|4,2:1|2:1,0:0:0:0:
192,116,46989,6,0,B|132:112|132:112|64:144|64:144|4:136,1,190,4|8,3:3|2:0,0:0:0:0:
319,267,48080,2,0,B|379:271|379:271|447:239|447:239|507:247,1,190,2|8,2:0|2:0,0:0:0:0:
502,247,48898,2,0,P|510:203|506:139,1,95,0|0,0:0|2:0,0:0:0:0:
512,24,49171,5,4,3:3:0:0:
408,124,49307,1,0,2:0:0:0:
372,136,49375,1,0,2:0:0:0:
336,132,49443,1,2,2:0:0:0:
300,116,49512,1,0,2:0:0:0:
276,88,49580,1,0,2:0:0:0:
268,52,49648,1,0,2:0:0:0:
276,16,49716,6,0,L|212:0,2,47.5,8|0|0,2:0|2:0|2:0,0:0:0:0:
0,92,49989,2,0,L|64:108,2,47.5,0|0|0,2:0|2:0|2:0,0:0:0:0:
36,356,50262,5,2,2:0:0:0:
60,332,50330,1,0,2:0:0:0:
92,324,50398,1,0,2:0:0:0:
124,320,50466,1,0,2:0:0:0:
156,324,50534,1,8,2:0:0:0:
268,240,50671,1,0,2:0:0:0:
272,276,50739,1,0,2:0:0:0:
288,312,50807,1,2,2:0:0:0:
460,360,50943,5,0,2:0:0:0:
280,204,51080,1,8,2:0:0:0:
512,144,51216,1,2,2:0:0:0:
304,0,51353,6,0,P|304:28|316:64,1,47.5,8|0,3:3|2:0,0:0:0:0:
180,204,51489,2,0,P|180:176|168:140,1,47.5,0|0,2:0|2:0,0:0:0:0:
416,160,51625,5,8,2:0:0:0:
400,144,51693,1,0,2:0:0:0:
376,136,51762,1,0,2:0:0:0:
352,140,51830,1,0,2:0:0:0:
320,180,51898,6,0,P|320:208|332:244,1,47.5,10|0,2:0|2:0,0:0:0:0:
196,384,52034,2,0,P|196:356|184:320,1,47.5,8|0,1:3|2:0,0:0:0:0:
0,232,52171,5,8,2:0:0:0:
16,248,52239,1,0,2:0:0:0:
40,256,52307,1,0,2:0:0:0:
64,252,52375,1,0,2:0:0:0:
104,232,52443,6,4,P|120:168|64:92,1,142.5,4|4,2:0|2:0,2:0:0:0:
64,108,52716,1,8,2:0:0:0:
196,16,52853,1,0,2:0:0:0:
191,21,52921,1,0,2:0:0:0:
184,24,52989,6,0,L|132:12,1,47.5,10|0,2:0|2:0,0:0:0:0:
0,184,53125,2,0,L|52:172,1,47.5,8|0,1:3|2:0,0:0:0:0:
220,368,53262,2,0,P|164:324|64:336,1,170.999994781494,6|0,2:1|2:0,0:0:0:0:
40,352,53534,6,0,L|98:369,1,47.5,4|0,3:0|2:0,0:0:0:0:
232,261,53671,1,0,2:0:0:0:
243,260,53739,1,0,2:0:0:0:
254,258,53807,1,0,2:0:0:0:
265,254,53875,1,0,2:0:0:0:
276,248,53943,1,0,2:0:0:0:
285,243,54012,1,0,2:0:0:0:
293,233,54080,6,0,L|339:243,1,47.5,8|0,2:0|2:0,0:0:0:0:
512,158,54216,2,0,L|466:168,1,47.5,0|0,2:0|2:0,0:0:0:0:
307,74,54353,2,0,P|363:75|352:-11,1,142.5,0|0,2:0|2:0,0:0:0:0:
371,2,54625,5,4,3:0:0:0:
172,6,54762,1,0,2:0:0:0:
158,41,54830,1,0,2:0:0:0:
155,78,54898,1,8,2:0:0:0:
165,114,54966,1,0,2:0:0:0:
184,146,55034,1,0,2:0:0:0:
196,182,55103,1,0,2:0:0:0:
185,218,55171,6,0,P|108:231|25:249,1,142.5,2|0,3:0|2:0,0:0:0:0:
7,98,55443,1,4,2:3:0:0:
7,98,55580,1,2,2:0:0:0:
36,356,55716,5,4,1:3:0:0:
133,314,55853,1,2,2:0:0:0:
235,351,55989,2,0,P|294:367|345:363,1,95,0|2,0:0|2:0,0:0:0:0:
327,366,56193,1,0,2:0:0:0:
327,366,56262,1,0,0:0:0:0:
472,108,56398,1,2,2:0:0:0:
504,244,56534,2,0,P|445:260|394:256,1,95,8|2,0:0|2:0,0:0:0:0:
264,0,56807,6,0,L|272:112,1,95,6|2,0:0|2:0,0:0:0:0:
176,64,57012,1,0,2:0:0:0:
180,28,57080,6,0,L|192:160,1,104.500003189087,8|2,0:0|2:0,0:0:0:0:
88,88,57284,1,0,2:0:0:0:
92,52,57353,6,0,L|104:180,1,113.999996520996,4|2,0:0|2:0,0:0:0:0:
8,116,57557,1,0,2:0:0:0:
12,76,57625,6,0,L|24:216,1,123.499994346619,8|2,0:0|2:0,0:0:0:0:
0,352,57898,5,4,1:1:0:0:
32,372,57966,1,0,2:0:0:0:
68,380,58034,1,0,2:0:0:0:
108,376,58103,1,0,2:0:0:0:
144,360,58171,1,8,0:2:0:0:
168,332,58239,1,0,2:0:0:0:
200,312,58307,1,0,2:0:0:0:
236,308,58375,1,0,2:0:0:0:
272,324,58443,5,0,0:0:0:0:
260,288,58512,1,0,2:0:0:0:
264,252,58580,1,0,2:0:0:0:
284,220,58648,1,0,2:0:0:0:
316,200,58716,1,8,0:2:0:0:
352,192,58784,1,0,2:0:0:0:
388,200,58853,1,0,2:0:0:0:
416,224,58921,1,0,2:0:0:0:
436,256,58989,6,0,P|440:320|360:372,1,142.5,6|0,0:0|2:0,0:0:0:0:
380,360,59262,2,0,P|324:364|260:372,1,95,8|2,0:0|2:0,0:0:0:0:
504,104,59534,1,2,0:3:0:0:
348,280,59671,1,0,2:0:0:0:
288,64,59807,1,8,0:0:0:0:
288,64,59875,1,2,2:3:0:0:
288,64,59943,1,2,2:3:0:0:
388,160,60080,5,2,1:3:0:0:
124,160,60216,1,2,1:3:0:0:
208,372,60353,6,0,P|216:320|216:268,1,95,6|2,0:0|2:0,0:0:0:0:
32,108,60625,2,0,P|24:160|24:212,1,95,0|2,0:0|2:0,0:0:0:0:
264,152,60898,5,8,0:0:0:0:
112,308,61034,1,2,2:0:0:0:
304,376,61171,6,0,P|352:372|416:368,1,95,4|2,0:0|2:3,0:0:0:0:
436,360,61375,1,2,2:3:0:0:
476,360,61443,1,8,0:0:0:0:
500,56,61580,1,0,2:0:0:0:
472,28,61648,1,0,2:0:0:0:
436,20,61716,1,0,1:0:0:0:
400,28,61784,1,0,2:0:0:0:
368,52,61853,2,0,P|372:100|380:148,1,95,2|8,2:0|0:0,0:0:0:0:
504,220,62125,1,2,2:0:0:0:
304,352,62262,6,0,L|304:364,12,11.875,2|0|0|0|0|0|0|0|0|0|0|0|0,2:1|2:0|2:0|2:0|2:0|2:0|2:0|2:0|2:0|2:0|2:0|2:0|2:0,0:0:0:0:
380,308,62534,6,0,P|384:340|376:376,1,47.5,10|0,2:1|2:0,0:0:0:0:
129,355,62671,2,0,P|128:331|132:308,1,47.5,2|0,2:1|2:0,0:0:0:0:
356,176,62807,6,0,P|360:208|352:244,1,47.5,2|0,0:0|2:0,0:0:0:0:
144,224,62943,2,0,P|142:200|146:176,1,47.5,2|0,2:1|2:0,0:0:0:0:
380,40,63080,6,0,P|384:72|376:108,1,47.5,10|0,0:0|2:0,0:0:0:0:
129,87,63216,2,0,P|127:63|131:39,1,47.5,2|0,2:1|2:0,0:0:0:0:
256,88,63353,6,0,B|260:124|260:124|248:152|248:152|256:200,1,106.875004076958,2|0,3:0|2:0,0:0:0:0:
272,200,63625,6,0,B|268:236|268:236|280:264|280:264|272:312,1,106.875004076958,2|0,3:0|2:0,0:0:0:0:
256,304,63898,6,0,L|260:384,1,71.2500027179719,2|0,3:0|2:0,0:0:0:0:
0,64,64171,5,0,3:0:0:0:
56,20,64239,1,0,3:0:0:0:
128,16,64307,1,2,3:1:0:0:
188,64,64375,1,0,3:0:0:0:
220,139,64443,6,0,P|289:145|356:77,1,142.5,4|0,0:0|2:0,0:0:0:0:
348,65,64716,1,8,0:0:0:0:
479,301,64853,1,2,2:0:0:0:
479,301,64921,1,0,2:0:0:0:
479,301,64989,2,0,P|488:248|488:176,1,95,0|2,0:0|2:0,0:0:0:0:
208,263,65262,2,0,P|199:316|200:380,1,95,8|2,0:0|2:0,0:0:0:0:
47,371,65534,5,0,0:0:0:0:
20,158,65671,2,0,P|55:161|94:176,1,47.5,2|0,2:0|2:0,0:0:0:0:
223,329,65807,5,8,0:0:0:0:
249,111,65943,2,0,P|217:115|199:120,1,47.5,2|0,2:0|2:0,0:0:0:0:
72,276,66080,6,0,P|104:280|114:284,2,23.75,4|0|0,2:1|2:0|2:0,0:0:0:0:
44,60,66216,1,0,2:0:0:0:
227,222,66353,5,8,0:0:0:0:
238,11,66489,1,0,0:0:0:0:
492,293,66625,5,4,1:0:0:0:
468,263,66693,1,0,2:0:0:0:
434,244,66762,1,0,2:0:0:0:
397,235,66830,1,0,2:0:0:0:
359,237,66898,1,8,0:2:0:0:
325,255,66966,1,0,2:0:0:0:
302,285,67034,1,0,2:0:0:0:
291,321,67103,1,0,2:0:0:0:
297,358,67171,5,0,0:0:0:0:
265,336,67239,1,0,2:0:0:0:
228,325,67307,1,0,2:0:0:0:
192,324,67375,1,0,2:0:0:0:
154,338,67443,1,0,0:0:0:0:
118,353,67512,1,0,2:0:0:0:
80,359,67580,1,0,2:0:0:0:
42,352,67648,1,0,2:0:0:0:
14,326,67716,6,0,P|6:262|8:213,1,95,2|0,0:3|2:0,0:0:0:0:
23,223,67921,6,0,P|31:159|29:110,1,95,2|0,0:3|2:0,0:0:0:0:
15,111,68125,6,0,B|8:82|7:41,1,47.5,2|0,0:3|2:0,0:0:0:0:
110,268,68262,6,0,B|117:297|118:338,1,47.5,2|0,0:3|2:0,0:0:0:0:
194,88,68398,6,0,B|187:59|186:18,1,47.5,2|0,0:3|2:0,0:0:0:0:
291,245,68534,6,0,B|298:274|299:315,1,47.5,2|0,0:3|2:0,0:0:0:0:
379,70,68671,6,0,B|372:41|371:0,1,47.5,2|0,0:3|2:0,0:0:0:0:
498,222,68807,6,0,P|505:276|508:330,1,95,6|2,0:0|2:0,0:0:0:0:
355,374,69080,1,8,0:0:0:0:
324,352,69148,1,0,2:0:0:0:
308,317,69216,1,2,3:3:0:0:
315,279,69284,1,0,3:3:0:0:
340,240,69353,5,2,3:3:0:0:
348,232,69421,1,0,2:0:0:0:
356,224,69489,2,0,L|348:160,1,56.9999982604981,2|0,2:0|2:0,0:0:0:0:
296,16,69625,1,8,0:0:0:0:
356,224,69762,1,2,2:0:0:0:
512,80,69898,6,0,P|461:82|404:88,1,95,6|2,0:0|2:0,0:0:0:0:
172,64,70171,1,8,0:0:0:0:
172,64,70239,1,0,3:0:0:0:
172,64,70307,1,0,3:0:0:0:
216,376,70443,2,0,P|276:336|276:208,1,190,4|8,0:1|0:0,0:0:0:0:
84,191,70784,1,0,2:0:0:0:
92,244,70853,1,2,3:0:0:0:
100,296,70921,1,0,3:0:0:0:
108,348,70989,1,4,0:0:0:0:
12,42,71125,5,0,0:0:0:0:
29,75,71193,1,0,0:0:0:0:
59,97,71262,1,12,1:0:0:0:
95,107,71330,1,0,0:0:0:0:
132,108,71398,1,0,0:0:0:0:
168,96,71466,1,0,0:0:0:0:
207,70,71534,5,4,1:0:0:0:
239,34,71603,1,0,0:0:0:0:
284,19,71671,1,0,0:0:0:0:
331,16,71739,1,0,0:0:0:0:
384,24,71807,5,8,1:2:0:0:
437,52,71875,1,0,0:0:0:0:
478,94,71943,1,0,0:0:0:0:
496,152,72012,1,0,0:0:0:0:
488,236,72080,5,4,2:0:0:0:
256,192,72148,12,0,72762,2:0:0:0:
254,193,72898,6,0,L|255:161,6,23.75,0|0|0|0|0|0|0,2:0|2:0|2:0|2:0|2:0|2:0|2:0,0:0:0:0:
254,193,73171,1,2,3:0:0:0:
256,192,75353,12,4,77534,2:1:0:0:
18,366,78216,5,0,0:0:0:0:
26,354,78353,1,2,0:0:0:0:
36,343,78489,1,0,0:0:0:0:
47,331,78625,2,0,P|47:290|41:217,2,95,0|2|0,0:0|0:0|0:0,0:0:0:0:
139,334,79307,5,0,0:0:0:0:
157,348,79375,1,0,0:0:0:0:
176,353,79443,1,2,0:0:0:0:
272,348,79580,1,0,0:0:0:0:
508,44,80398,5,0,0:0:0:0:
500,56,80534,1,2,0:0:0:0:
490,67,80671,1,0,0:0:0:0:
479,79,80807,2,0,P|479:120|485:193,2,95,0|2|0,0:0|0:0|0:0,0:0:0:0:
389,68,81489,5,0,0:0:0:0:
369,62,81557,1,0,0:0:0:0:
350,57,81625,1,2,0:0:0:0:
261,83,81762,1,0,0:0:0:0:
241,77,81830,1,0,0:0:0:0:
223,74,81898,6,0,B|169:145|66:142|8:59|71:3|138:0|165:43|132:120,1,332.5
120,186,82989,6,0,B|130:275|34:243|74:372|74:372|125:371|162:311|142:270,1,332.5
93,94,84080,6,0,P|48:118|28:170,1,95,2|0,0:0|0:0,0:0:0:0:
176,68,84489,6,0,P|128:48|75:67,1,95,2|0,0:0|0:0,0:0:0:0:
260,124,84898,6,0,P|244:75|196:46,1,95,2|0,0:0|0:0,0:0:0:0:
271,209,85307,6,0,P|297:165|289:110,1,95,2|0,0:0|0:0,0:0:0:0:
216,268,85716,5,6,0:1:0:0:
287,335,85853,1,0,0:0:0:0:
292,346,85921,1,0,0:0:0:0:
298,357,85989,1,2,0:0:0:0:
388,341,86125,1,0,0:0:0:0:
480,281,86262,6,0,P|488:233|493:170,1,106.875004076958,4|0,0:0|2:0,0:0:0:0:
493,131,86534,1,8,0:2:0:0:
249,219,86671,2,0,P|321:226|403:239,1,142.500005435944,2|2,2:0|2:0,0:0:0:0:
263,26,87080,2,0,P|268:87|273:119,1,71.2500027179719,8|2,0:0|2:0,0:0:0:0:
286,334,87353,6,0,P|290:352|296:369,1,35.625001358986,2|0,2:1|2:0,0:0:0:0:
181,324,87489,2,0,P|185:342|191:359,1,35.625001358986,2|0,2:1|2:0,0:0:0:0:
90,377,87625,2,0,P|43:373|12:366,1,71.2500027179719,8|2,0:2|2:0,0:0:0:0:
286,334,87898,5,0,2:0:0:0:
96,275,88034,1,0,2:0:0:0:
96,275,88103,1,0,2:0:0:0:
96,275,88171,1,8,0:2:0:0:
301,236,88307,1,2,2:0:0:0:
100,173,88443,6,0,P|79:108|111:35,1,142.500005435944,4|8,2:0|0:2,0:0:0:0:
104,41,88989,2,0,P|142:37|180:29,1,71.2500027179719,2|0,2:0|2:0,0:0:0:0:
130,263,89262,2,0,P|92:259|54:251,1,71.2500027179719,8|0,0:0|2:0,0:0:0:0:
265,216,89534,6,0,P|264:278|247:376,1,142.500005435944,12|0,2:0|0:2,0:0:0:0:
251,357,90080,1,2,2:0:0:0:
344,352,90216,1,2,2:0:0:0:
441,364,90353,2,0,P|445:325|448:281,1,71.2500027179719,8|2,0:2|2:0,0:0:0:0:
493,90,90625,6,0,P|451:94|401:88,1,71.2500027179719,4|0,2:0|2:0,0:0:0:0:
255,6,90898,1,8,0:2:0:0:
264,96,91034,1,0,3:3:0:0:
247,188,91171,2,0,P|248:232|258:319,1,106.875004076958,2|0,2:0|2:0,0:0:0:0:
260,312,91443,2,0,P|299:307|340:296,1,71.2500027179719,8|2,0:2|2:0,0:0:0:0:
112,120,91716,5,4,2:0:0:0:
56,180,91853,2,0,P|56:212|64:232,2,35.625001358986,0|0|8,2:0|2:0|2:0,0:0:0:0:
48,72,92125,2,0,P|16:72|-4:80,2,35.625001358986,0|0|4,2:0|2:0|2:0,0:0:0:0:
160,60,92398,2,0,P|160:28|152:8,2,35.625001358986,0|0|8,2:0|2:0|2:0,0:0:0:0:
172,168,92671,1,0,2:0:0:0:
172,168,92739,1,0,2:0:0:0:
172,168,92807,1,4,2:0:0:0:
256,192,92875,12,0,93625,2:0:0:0:
44,200,93898,6,0,P|80:200|112:184,1,71.2500027179719,2|2,3:0|3:0,0:0:0:0:
204,48,94034,6,0,P|148:8|80:28,1,142.500005435944,2|0,2:1|2:0,0:0:0:0:
56,52,94171,6,0,P|52:92|68:132,1,71.2500027179719,0|2,3:0|3:0,0:0:0:0:
208,260,94307,2,0,P|212:220|196:180,1,71.2500027179719,0|0,3:0|3:0,0:0:0:0:
16,292,94443,6,0,L|104:296,1,80.750001540184,2|0,2:1|2:0,0:0:0:0:
208,376,94580,2,0,L|296:380,1,80.750001540184,10|0,0:1|2:0,0:0:0:0:
424,304,94716,6,0,L|496:308,1,71.25,0|0,2:0|2:0,0:0:0:0:
392,32,94989,6,0,P|352:104|380:176,1,142.5,6|0,0:3|2:0,0:0:0:0:
384,180,95262,2,0,P|432:184|484:192,1,95,10|2,0:3|2:0,0:0:0:0:
184,36,95534,2,0,P|176:96|176:164,1,95,2|2,0:3|2:0,0:0:0:0:
328,348,95807,2,0,P|336:288|336:220,1,95,10|2,0:3|2:0,0:0:0:0:
337,253,96012,1,0,2:0:0:0:
337,253,96080,5,2,0:3:0:0:
152,328,96216,1,2,2:0:0:0:
340,372,96353,2,0,P|396:360|440:344,1,95,10|2,0:3|2:0,0:0:0:0:
132,36,96625,5,2,0:3:0:0:
412,264,96762,1,2,2:0:0:0:
100,264,96898,1,10,0:3:0:0:
380,36,97034,1,2,2:0:0:0:
256,344,97171,6,0,P|252:296|256:244,1,95,2|2,0:3|2:0,0:0:0:0:
508,144,97443,2,0,P|512:192|508:244,1,95,10|2,0:3|2:0,0:0:0:0:
200,164,97716,2,0,P|264:152|328:196,1,142.5,2|0,0:3|2:0,2:0:0:0:
340,216,97989,1,10,0:3:0:0:
176,352,98125,1,2,2:0:0:0:
8,216,98262,6,0,P|0:160|-4:116,1,95,2|2,0:3|2:0,0:0:0:0:
300,8,98534,2,0,P|308:64|312:108,1,95,10|2,0:3|2:0,0:0:0:0:
224,308,98739,1,0,0:0:0:0:
279,291,98807,2,0,B|431:263|359:363|515:323,1,227.999993041992,6|14,2:0|2:0,0:0:0:0:
495,328,99353,6,0,L|503:260,1,47.5,2|0,0:3|2:0,0:0:0:0:
416,160,99489,2,0,L|408:228,1,47.5,2|0,0:3|2:0,0:0:0:0:
480,356,99625,2,0,P|428:304|296:324,1,190,6|2,0:3|0:3,0:0:0:0:
0,176,100034,1,2,2:0:0:0:
0,176,100103,1,0,2:0:0:0:
0,176,100171,1,10,0:3:0:0:
108,196,100307,1,2,2:0:0:0:
48,0,100443,6,0,P|52:56|60:100,1,95,2|2,0:3|2:0,0:0:0:0:
196,380,100716,2,0,P|203:333|206:285,1,95,10|2,0:3|2:0,0:0:0:0:
352,68,100989,5,2,0:3:0:0:
88,308,101125,1,2,2:0:0:0:
424,308,101262,1,10,0:3:0:0:
160,68,101398,1,2,2:0:0:0:
252,372,101534,6,0,P|272:300|216:236,1,142.500005435944,6|0,0:3|2:0,0:0:0:0:
220,20,101739,2,0,P|200:92|256:156,1,142.500005435944,2|0,0:3|2:0,0:0:0:0:
368,368,101943,6,0,P|388:296|332:232,1,142.500005435944,6|0,0:3|2:0,0:0:0:0:
336,16,102148,2,0,P|316:88|372:152,1,142.500005435944,2|0,0:3|2:0,0:0:0:0:
488,360,102353,6,0,P|492:316|472:276,1,71.2500027179719,6|0,0:3|2:0,0:0:0:0:
456,8,102489,2,0,P|452:52|472:92,1,71.2500027179719,2|0,0:3|2:0,0:0:0:0:
496,188,102625,6,0,B|456:176|456:176|408:196|408:196|336:176,1,142.500005435944,6|0,0:3|2:0,0:0:0:0:
280,252,102830,2,0,B|240:264|240:264|192:244|192:244|120:264,1,142.500005435944,2|0,0:3|2:0,0:0:0:0:
80,180,103034,2,0,L|-12:156,1,71.2500027179719,6|0,0:3|2:0,0:0:0:0:
164,36,103171,5,6,2:3:0:0:
176,40,103239,1,2,2:3:0:0:
188,44,103307,2,0,P|192:80|180:120,1,71.2500027179719,2|0,1:2|2:0,0:0:0:0:
280,364,103443,2,0,P|246:349|218:319,1,71.2500027179719,10|0,0:3|2:0,0:0:0:0:
0,332,103580,2,0,P|29:310|69:300,1,71.2500027179719,2|0,0:2|2:0,0:0:0:0:
188,44,103716,6,0,L|196:124,1,71.2500027179719,2|0,3:3|3:0,3:0:0:0:
292,84,103853,2,0,L|300:164,1,71.2500027179719,2|0,3:0|2:0,0:0:0:0:
408,120,103989,6,0,P|468:120|500:44,1,142.5,14|0,0:3|2:0,0:0:0:0:
448,4,104262,2,0,P|396:8|340:20,1,95,2|2,0:3|2:0,0:0:0:0:
416,248,104534,2,0,P|468:244|524:232,1,95,10|2,0:3|2:0,0:0:0:0:
264,184,104807,6,0,B|252:244|252:244|272:296|272:296|256:372,1,190,2|10,0:3|0:3,2:0:0:0:
72,156,105216,1,2,2:0:0:0:
388,332,105353,1,2,0:3:0:0:
236,8,105489,1,2,2:0:0:0:
160,352,105625,1,10,0:3:0:0:
424,116,105762,1,2,2:0:0:0:
8,232,105898,6,0,P|88:252|148:208,1,142.5,2|0,0:3|2:0,2:0:0:0:
164,196,106171,1,10,0:3:0:0:
48,16,106307,1,2,2:0:0:0:
48,16,106375,1,0,2:0:0:0:
48,16,106443,2,0,P|48:64|64:120,1,95,2|2,0:3|2:0,0:0:0:0:
256,252,106716,1,10,0:3:0:0:
240,96,106853,1,2,2:0:0:0:
88,272,106989,6,0,P|88:320|104:376,1,95,2|2,0:3|2:0,0:0:0:0:
412,365,107262,2,0,P|424:319|424:272,1,95,10|2,0:3|2:0,0:0:0:0:
252,36,107466,1,0,0:0:0:0:
240,96,107534,2,0,B|208:224|308:192|256:328,1,227.999993041992,6|14,2:0|2:0,0:0:0:0:
136,56,108080,6,0,L|140:124,1,47.5,2|0,0:3|2:0,0:0:0:0:
36,216,108216,2,0,L|32:148,1,47.5,2|0,0:3|2:0,0:0:0:0:
160,24,108353,2,0,P|212:56|184:184,1,190,14|2,0:3|0:3,0:0:0:0:
196,332,108762,1,2,2:0:0:0:
100,224,108898,2,0,P|52:212|0:204,1,95,10|2,0:3|2:0,0:0:0:0:
308,364,109171,5,2,0:3:0:0:
336,340,109239,1,0,3:0:0:0:
372,328,109307,1,0,3:0:0:0:
412,324,109375,1,0,3:0:0:0:
448,340,109443,2,0,P|456:292|468:236,1,95,10|2,0:3|2:0,2:0:0:0:
368,24,109716,5,2,0:3:0:0:
340,48,109784,1,0,3:0:0:0:
304,60,109853,1,0,3:0:0:0:
264,64,109921,1,0,3:0:0:0:
228,48,109989,2,0,P|220:96|208:152,1,95,10|2,0:3|2:0,2:0:0:0:
44,372,110262,6,0,P|20:304|52:228,1,142.500005435944,6|0,0:3|2:0,0:0:0:0:
60,32,110466,2,0,P|84:100|52:176,1,142.500005435944,2|0,0:3|2:0,0:0:0:0:
144,356,110671,6,0,P|120:288|152:212,1,142.500005435944,6|0,0:3|2:0,0:0:0:0:
160,16,110875,2,0,P|184:84|152:160,1,142.500005435944,2|0,0:3|2:0,0:0:0:0:
244,336,111080,6,0,P|232:304|236:264,1,71.2500027179719,6|0,0:3|2:0,0:0:0:0:
260,0,111216,2,0,P|272:32|268:72,1,71.2500027179719,2|0,0:3|2:0,0:0:0:0:
332,312,111353,6,0,P|408:332|472:288,1,142.500005435944,6|0,0:3|2:0,0:0:0:0:
488,320,111557,2,0,P|520:248|488:176,1,142.500005435944,6|0,0:3|2:0,0:0:0:0:
512,156,111762,1,2,3:0:0:0:
304,24,111898,2,0,P|300:76|320:116,1,71.2500027179719,2|0,3:0|2:0,0:0:0:0:
324,176,112034,1,2,2:0:0:0:
424,44,112171,5,10,0:3:0:0:
80,80,112307,1,2,2:0:0:0:
260,352,112443,6,0,P|296:360|340:372,2,71.2500027179719,4|0|8,0:0|0:0|0:1,0:0:0:0:
20,264,113262,2,0,P|28:308|40:344,1,71.2500027179719,8|2,0:3|0:2,0:0:0:0:
232,48,113534,5,0,0:0:0:0:
152,36,113671,1,2,0:0:0:0:
176,112,113807,2,0,P|236:128|308:84,1,142.500005435944,8|0,0:3|0:0,1:0:0:0:
508,44,114216,1,2,0:0:0:0:
408,32,114353,1,8,0:3:0:0:
396,132,114489,1,2,0:0:0:0:
496,152,114625,6,0,P|496:196|492:240,1,71.2500027179719,0|2,0:0|0:0,0:0:0:0:
496,344,114898,2,0,P|424:336|328:336,1,142.500005435944,8|0,0:3|0:0,1:0:0:0:
152,284,115307,1,2,0:0:0:0:
168,360,115443,2,0,P|216:360|252:352,1,71.2500027179719,8|2,0:3|0:0,2:0:0:0:
72,180,115716,6,0,P|40:184|-12:192,1,71.2500027179719,0|2,0:0|0:0,0:0:0:0:
208,264,115989,1,8,0:3:0:0:
212,184,116125,1,2,0:0:0:0:
188,108,116262,2,0,P|180:64|176:24,1,71.2500027179719
188,20,116466,1,0,0:0:0:0:
204,8,116534,1,8,0:0:0:0:
224,4,116603,1,0,0:0:0:0:
240,8,116671,1,0,0:0:0:0:
260,16,116739,1,0,0:0:0:0:
272,28,116807,5,4,0:2:0:0:
296,16,116875,1,0,0:0:0:0:
324,12,116943,1,0,0:0:0:0:
352,16,117012,1,0,0:0:0:0:
380,24,117080,1,8,0:2:0:0:
404,40,117148,1,0,0:0:0:0:
424,60,117216,1,0,0:0:0:0:
436,88,117284,1,0,0:0:0:0:
444,116,117353,1,0,0:0:0:0:
444,144,117421,1,0,0:0:0:0:
436,172,117489,1,0,0:0:0:0:
420,196,117557,1,0,0:0:0:0:
400,216,117625,1,8,0:2:0:0:
372,228,117693,1,0,0:0:0:0:
344,232,117762,1,0,0:0:0:0:
316,228,117830,1,0,0:0:0:0:
292,216,117898,5,4,0:2:0:0:
264,184,117966,1,0,0:0:0:0:
236,152,118034,1,0,0:0:0:0:
200,132,118103,1,0,0:0:0:0:
160,120,118171,1,8,0:2:0:0:
116,120,118239,1,0,0:0:0:0:
76,136,118307,1,0,0:0:0:0:
44,164,118375,1,0,0:0:0:0:
16,200,118443,1,0,0:0:0:0:
8,244,118512,1,0,0:0:0:0:
12,288,118580,1,0,0:0:0:0:
32,324,118648,1,0,0:0:0:0:
64,352,118716,1,8,0:2:0:0:
104,364,118784,1,0,0:0:0:0:
148,368,118853,1,0,0:0:0:0:
188,352,118921,1,0,0:0:0:0:
216,320,118989,6,0,L|212:212,1,95,6|0,0:3|2:0,0:0:0:0:
240,28,119193,2,0,L|232:144,1,104.500003189087,2|0,0:3|2:0,0:0:0:0:
320,348,119398,6,0,L|312:220,1,113.999996520996,6|0,0:3|2:0,0:0:0:0:
336,16,119603,2,0,L|328:148,1,123.499994346619,2|0,0:3|2:0,0:0:0:0:
420,368,119807,6,0,L|408:256,1,71.2500027179719,6|0,0:3|2:0,0:0:0:0:
432,0,119943,2,0,L|424:112,1,71.2500027179719,2|0,0:3|2:0,0:0:0:0:
420,368,120080,6,0,P|440:300|396:224,1,142.500005435944,6|0,0:3|2:0,0:0:0:0:
320,192,120284,2,0,P|251:208|207:284,1,142.500005435944,2|0,0:3|2:0,0:0:0:0:
304,376,120489,2,0,L|328:296,1,71.2500027179719,2|0,0:3|2:0,0:0:0:0:
308,8,120625,6,0,P|290:47|287:100,1,71.2500027179719,6|0,0:3|2:0,0:0:0:0:
490,138,120762,2,0,P|507:98|510:45,1,71.2500027179719,2|0,0:2|2:0,0:0:0:0:
396,84,120898,2,0,L|352:224,1,142.500005435944,10|2,0:3|2:0,0:0:0:0:
476,376,121171,6,0,P|484:336|484:284,1,71.2500027179719,4|0,0:3|2:0,0:0:0:0:
336,352,121716,6,0,P|328:312|328:260,1,71.2500027179719,4|0,0:0|2:0,0:0:0:0:
164,376,122262,6,0,P|172:336|172:284,1,71.2500027179719,4|0,0:0|2:0,0:0:0:0:
24,352,122807,6,0,P|16:312|16:260,1,71.2500027179719,4|0,0:0|2:0,0:0:0:0:
392,56,123353,6,0,P|368:88|332:120,1,71.2500027179719,4|0,0:0|2:0,0:0:0:0:
136,40,123898,6,0,P|175:44|221:59,1,71.2500027179719,4|0,0:0|2:0,0:0:0:0:
252,264,124443,6,0,P|236:227|226:180,1,71.2500027179719,4|0,0:0|2:0,0:0:0:0:
500,276,124716,5,0,2:0:0:0:
496,292,124784,1,0,2:0:0:0:
492,308,124853,1,0,2:0:0:0:
488,320,124921,1,0,2:0:0:0:
464,352,124989,6,0,P|396:348|320:376,1,142.5,2|0,0:3|2:0,0:0:0:0:
296,376,125262,2,0,L|172:364,1,95,10|2,0:3|2:0,0:0:0:0:
20,168,125534,6,0,P|22:199|24:232,1,47.5,6|0,0:3|2:0,0:0:0:0:
32,372,125671,2,0,P|29:340|28:308,1,47.5,2|0,2:0|2:0,0:0:0:0:
176,144,125807,2,0,P|178:175|180:208,1,47.5,10|0,2:3|2:0,0:0:0:0:
184,348,125943,2,0,L|180:312,2,23.75,2|0|0,2:0|2:0|2:0,0:0:0:0:
336,144,126080,5,2,0:3:0:0:
324,348,126216,1,2,2:0:0:0:
492,168,126353,1,10,0:3:0:0:
484,372,126489,1,2,2:0:0:0:
176,56,126625,6,0,P|256:96|344:56,1,190,6|10,0:3|0:3,0:0:0:0:
24,56,127034,5,2,2:0:0:0:
124,352,127171,1,2,0:3:0:0:
256,4,127307,1,2,2:0:0:0:
388,352,127443,1,10,0:3:0:0:
488,56,127580,1,2,2:0:0:0:
232,332,127716,5,6,0:3:0:0:
164,308,127784,1,0,0:0:0:0:
96,332,127853,1,0,0:0:0:0:
32,304,127921,2,0,P|24:232|16:144,1,142.500005435944,2|0,0:3|2:0,0:0:0:0:
168,0,128125,2,0,P|176:72|184:160,1,142.500005435944,6|0,0:3|2:0,0:0:0:0:
360,340,128330,2,0,P|352:268|344:180,1,142.500005435944,2|0,0:3|2:0,0:0:0:0:
496,36,128534,2,0,P|504:108|512:196,1,142.500005435944,6|2,0:3|2:0,0:0:0:0:
252,364,128807,5,6,0:3:0:0:
260,328,128875,1,0,3:2:0:0:
268,288,128943,1,0,3:2:0:0:
276,248,129012,2,0,B|400:228|356:300|516:276,1,213.750008153916,2|0,2:3|0:0,0:0:0:0:
512,136,129284,1,0,2:0:0:0:
512,136,129353,6,0,P|464:140|428:156,1,80.750001540184,0|0,0:0|2:0,0:0:0:0:
96,272,129489,2,0,P|131:287|184:288,1,80.750001540184,2|0,3:0|2:0,0:0:0:0:
434,152,129625,5,4,2:3:0:0:
8,296,129898,5,4,0:0:0:0:
