osu file format v14

[General]
AudioFilename: mp3.mp3
AudioLeadIn: 0
PreviewTime: 93830
Countdown: 0
SampleSet: Normal
StackLeniency: 0.7
Mode: 2
LetterboxInBreaks: 0
WidescreenStoryboard: 1

[Editor]
Bookmarks: 26603,54216,116534
DistanceSpacing: 0.8
BeatDivisor: 8
GridSize: 16
TimelineZoom: 5.699997

[Metadata]
Title:Tits or get the fuck out!!
TitleUnicode:Tits or get the fuck out!!
Artist:Morimori Atsushi
ArtistUnicode:モリモリあつし
Creator:Playboy
Version:Galaxy
Source:東方Project
Tags:zun 上海アリス幻樂団 alice 東方神霊廟 ten desires. touhou shinreibyou デザイアドライブ desire drive
BeatmapID:1054932
BeatmapSetID:495567

[Difficulty]
HPDrainRate:6
CircleSize:4
OverallDifficulty:9
ApproachRate:9.7
SliderMultiplier:1.8
SliderTickRate:1

[Events]
//Background and Video events
0,0,"Konachan.com - 228040 sample.jpg",0,0
//Break Periods
//Storyboard Layer 0 (Background)
//Storyboard Layer 1 (Fail)
//Storyboard Layer 2 (Pass)
//Storyboard Layer 3 (Foreground)
//Storyboard Sound Samples

[TimingPoints]
3353,272.727272727273,4,1,1,100,1,0
3353,-200,4,1,1,100,0,0
20534,-100,4,1,1,100,0,0
28443,-133.333333333333,4,1,1,100,0,0
29534,-100,4,1,1,100,0,0
31171,-100,4,1,5,70,0,0
31443,-100,4,1,1,100,0,0
32807,-66.6666666666667,4,1,1,100,0,0
35534,-66.6666666666667,4,1,5,100,0,0
35807,-66.6666666666667,4,1,1,100,0,0
36080,-100,4,1,1,100,0,0
37171,-133.333333333333,4,1,1,100,0,0
38262,-200,4,1,2,100,0,0
40443,-100,4,1,2,100,0,0
42625,-200,4,1,2,100,0,0
44807,-100,4,1,2,100,0,0
46443,-76.9230769230769,4,1,2,100,0,0
46989,-200,4,1,2,100,0,0
48898,-100,4,1,1,100,0,0
49171,-100,4,1,2,100,0,0
51284,-100,4,1,2,100,0,0
51898,-100,4,1,99,70,0,0
52034,-100,4,1,99,50,0,0
52171,-100,4,1,2,100,0,0
52989,-100,4,1,99,70,0,0
53125,-100,4,1,99,50,0,0
53262,-83.3333333333333,4,1,2,100,0,0
53534,-100,4,1,2,100,0,0
53671,-50,4,1,2,100,0,0
54080,-100,4,1,1,100,0,0
54216,-100,4,1,2,100,0,0
54353,-50,4,1,2,100,0,0
54625,-100,4,1,1,100,0,0
54762,-50,4,1,2,100,0,0
55171,-66.6666666666667,4,1,1,100,0,0
55443,-100,4,1,3,100,0,0
55580,-100,4,1,2,100,0,0
55716,-100,4,1,1,100,0,0
57898,-100,4,1,2,70,0,0
58171,-100,4,1,2,80,0,0
58443,-100,4,1,2,90,0,0
58716,-100,4,1,2,100,0,0
58989,-100,4,1,1,100,0,0
62262,-100,4,1,1,70,0,0
62534,-100,4,1,1,80,0,0
62807,-100,4,1,1,90,0,0
63080,-100,4,1,1,100,0,0
63353,-133.333333333333,4,1,1,100,0,0
64171,-133.333333333333,4,1,2,100,0,0
64443,-100,4,1,1,100,0,0
66080,-100,4,1,5,70,0,0
66216,-100,4,1,1,100,0,0
66625,-100,4,1,2,70,0,0
66898,-100,4,1,2,80,0,0
67171,-100,4,1,2,90,0,0
67443,-100,4,1,2,100,0,0
67716,-100,4,1,1,100,0,0
69216,-100,4,1,2,70,0,0
69353,-83.3333333333333,4,1,1,100,0,0
69830,-100,4,1,1,100,0,0
70239,-100,4,1,2,70,0,0
70443,-100,4,1,5,80,0,0
70716,-100,4,1,1,100,0,0
70853,-100,4,1,2,70,0,0
70989,-100,4,1,1,100,0,0
71125,-100,4,2,2,70,0,0
71262,-100,4,2,9,80,0,0
71330,-100,4,2,2,80,0,0
71534,-100,4,2,2,90,0,0
71807,-100,4,2,2,100,0,0
72080,-100,4,2,3,70,0,0
72148,-100,4,2,3,100,0,0
72898,-100,4,2,1,100,0,0
77534,-200,4,2,2,60,0,0
78216,-200,4,2,3,60,0,0
81898,-200,4,2,10,40,0,0
84080,-200,4,2,3,70,0,0
84898,-200,4,2,3,80,0,0
85716,-200,4,2,69,85,0,0
85853,-200,4,2,69,70,0,0
86125,-200,4,2,69,60,0,0
86262,-133.333333333333,4,1,1,100,0,0
89534,-133.333333333333,4,1,4,100,0,0
89807,-133.333333333333,4,1,1,100,0,0
91034,-133.333333333333,4,3,2,100,0,0
91171,-133.333333333333,4,1,1,100,0,0
93898,-66.6666666666667,4,1,1,100,0,0
94171,-66.6666666666667,4,1,2,100,0,0
94443,-58.8235294117647,4,1,6,100,0,0
94580,-58.8235294117647,4,1,7,80,0,0
94716,-200,4,1,1,100,0,0
94989,-100,4,1,1,100,0,1
95262,-100,4,1,11,100,0,1
95398,-100,4,1,11,70,0,1
95534,-100,4,1,11,100,0,1
95671,-100,4,1,11,70,0,1
95807,-100,4,1,11,100,0,1
95943,-100,4,1,11,70,0,1
96012,-100,4,1,11,100,0,1
96216,-100,4,1,11,70,0,1
96353,-100,4,1,11,100,0,1
96489,-100,4,1,11,70,0,1
96625,-100,4,1,11,100,0,1
96762,-100,4,1,11,70,0,1
96898,-100,4,1,11,100,0,1
97034,-100,4,1,11,70,0,1
97171,-100,4,1,11,100,0,1
97307,-100,4,1,11,70,0,1
97443,-100,4,1,11,100,0,1
97580,-100,4,1,11,70,0,1
97716,-100,4,1,11,60,0,1
97989,-100,4,1,11,100,0,1
98125,-100,4,1,11,70,0,1
98262,-100,4,1,11,100,0,1
98398,-100,4,1,11,70,0,1
98534,-100,4,1,11,100,0,1
98671,-100,4,1,11,70,0,1
98739,-100,4,1,11,100,0,1
98807,-83.3333333333333,4,2,8,100,0,1
99216,-100,4,1,1,100,0,1
100034,-100,4,1,11,70,0,1
100103,-100,4,1,11,100,0,1
100307,-100,4,1,11,70,0,1
100443,-100,4,1,11,100,0,1
100580,-100,4,1,11,70,0,1
100716,-100,4,1,11,100,0,1
100853,-100,4,1,11,70,0,1
100989,-100,4,1,11,100,0,1
101125,-100,4,1,11,70,0,1
101262,-100,4,1,11,100,0,1
101398,-100,4,1,11,70,0,1
101534,-66.6666666666667,4,1,11,90,0,1
101739,-66.6666666666667,4,1,11,75,0,1
101943,-66.6666666666667,4,1,11,80,0,1
102148,-66.6666666666667,4,1,11,85,0,1
102353,-100,4,1,11,90,0,1
102489,-100,4,1,11,95,0,1
102625,-100,4,1,11,100,0,1
103171,-66.6666666666667,4,1,1,100,0,1
103307,-66.6666666666667,4,1,11,70,0,1
103375,-66.6666666666667,4,1,11,100,0,1
103580,-66.6666666666667,4,1,11,70,0,1
103648,-66.6666666666667,4,1,11,100,0,1
103989,-100,4,1,1,100,0,1
104398,-100,4,1,11,70,0,1
104534,-100,4,1,11,100,0,1
104671,-100,4,1,11,70,0,1
104807,-100,4,1,11,60,0,1
105080,-100,4,1,11,100,0,1
105216,-100,4,1,11,70,0,1
105353,-100,4,1,11,100,0,1
105489,-100,4,1,11,70,0,1
105625,-100,4,1,11,100,0,1
105762,-100,4,1,11,70,0,1
105898,-100,4,1,11,60,0,1
106171,-100,4,1,11,100,0,1
106307,-100,4,1,11,70,0,1
106375,-100,4,1,11,100,0,1
106580,-100,4,1,11,70,0,1
106716,-100,4,1,11,100,0,1
106853,-100,4,1,11,70,0,1
106989,-100,4,1,11,100,0,1
107125,-100,4,1,11,70,0,1
107262,-100,4,1,11,100,0,1
107398,-100,4,1,11,70,0,1
107466,-100,4,1,11,100,0,1
107534,-66.6666666666667,4,2,8,100,0,1
108080,-100,4,1,1,100,0,1
108762,-100,4,1,11,70,0,1
108898,-100,4,1,11,100,0,1
109034,-100,4,1,11,70,0,1
109239,-100,4,1,2,100,0,1
109443,-100,4,1,1,100,0,1
109784,-100,4,1,2,100,0,1
109989,-100,4,1,1,100,0,1
110125,-100,4,1,11,70,0,1
110262,-66.6666666666667,4,1,11,90,0,1
110466,-66.6666666666667,4,1,11,75,0,1
110671,-66.6666666666667,4,1,11,80,0,1
110875,-66.6666666666667,4,1,11,85,0,1
111080,-66.6666666666667,4,1,11,90,0,1
111216,-66.6666666666667,4,1,11,95,0,1
111353,-66.6666666666667,4,1,11,80,0,1
111557,-66.6666666666667,4,1,11,85,0,1
111762,-66.6666666666667,4,1,11,90,0,1
111898,-133.333333333333,4,1,11,95,0,1
112034,-133.333333333333,4,1,11,50,0,1
112171,-133.333333333333,4,1,11,100,0,1
112307,-133.333333333333,4,1,11,70,0,1
112443,-133.333333333333,4,2,1,80,0,0
116807,-133.333333333333,4,3,2,70,0,0
117353,-133.333333333333,4,3,2,80,0,0
117898,-133.333333333333,4,3,2,90,0,0
118443,-133.333333333333,4,3,2,100,0,0
118989,-100,4,1,11,90,0,0
119193,-100,4,1,1,70,0,0
119398,-100,4,1,11,75,0,0
119603,-100,4,1,11,80,0,0
119807,-66.6666666666667,4,1,11,90,0,0
119943,-66.6666666666667,4,1,11,95,0,0
120080,-66.6666666666667,4,1,11,100,0,0
120625,-66.6666666666667,4,1,1,100,0,0
120762,-66.6666666666667,4,1,11,50,0,0
120830,-66.6666666666667,4,1,11,100,0,0
121034,-66.6666666666667,4,1,11,70,0,0
121171,-133.333333333333,4,1,2,90,0,0
121307,-133.333333333333,4,1,1,90,0,0
124716,-133.333333333333,4,1,2,90,0,0
124989,-100,4,1,1,100,0,0
125398,-100,4,1,11,70,0,0
125534,-100,4,1,1,100,0,1
125671,-100,4,1,11,70,0,1
125807,-100,4,1,11,100,0,1
125943,-100,4,1,11,70,0,1
126012,-100,4,1,11,100,0,1
126216,-100,4,1,11,70,0,1
126353,-100,4,1,11,100,0,1
126489,-100,4,1,11,70,0,1
126625,-100,4,1,1,100,0,1
127034,-100,4,1,11,70,0,1
127171,-100,4,1,11,100,0,1
127307,-100,4,1,11,70,0,1
127443,-100,4,1,11,100,0,1
127580,-100,4,1,11,70,0,1
127716,-74.0740740740741,4,1,1,100,0,1
127784,-74.0740740740741,4,3,2,100,0,1
127921,-74.0740740740741,4,1,11,70,0,1
128125,-74.0740740740741,4,1,11,75,0,1
128330,-74.0740740740741,4,1,11,80,0,1
128534,-74.0740740740741,4,1,11,85,0,1
128671,-74.0740740740741,4,1,1,85,0,1
128807,-74.0740740740741,4,2,1,100,0,1
128875,-66.6666666666667,4,3,2,100,0,1
129012,-66.6666666666667,4,1,11,100,0,1
129080,-66.6666666666667,4,1,11,100,0,1
129216,-66.6666666666667,4,1,11,50,0,1
129353,-58.8235294117647,4,1,1,100,0,1
129625,-58.8235294117647,4,1,3,100,0,1
129830,-58.8235294117647,4,1,1,100,0,1
129898,-100,4,1,1,100,0,0
132080,-100,4,1,2,70,0,0
132353,-100,4,1,2,80,0,0
132625,-100,4,1,2,90,0,0
132898,-100,4,1,2,100,0,0
133171,-100,4,1,1,100,0,0
134330,-100,4,3,2,100,0,0
134534,-100,4,1,1,100,0,0
134807,-100,4,1,2,100,0,0
135080,-100,4,1,1,100,0,0
136443,-100,4,1,1,70,0,0
136716,-100,4,1,1,75,0,0
136989,-100,4,1,1,80,0,0
137262,-100,4,1,1,85,0,0
137534,-100,4,1,1,80,0,0
138625,-100,4,1,1,70,0,0
139580,-100,4,1,1,63,0,0
139853,-100,4,1,1,56,0,0
140125,-100,4,1,1,63,0,0
140398,-100,4,1,1,70,0,0
140807,-100,4,1,2,60,0,0
141080,-100,4,1,2,65,0,0
141353,-100,4,1,2,70,0,0
141898,-100,4,1,1,70,0,0
142443,-114.942528735632,4,1,1,70,0,0
142989,-114.942528735632,4,1,1,60,0,0
145171,-114.942528735632,4,1,2,50,0,0
145443,-114.942528735632,4,1,2,55,0,0
145716,-114.942528735632,4,1,2,60,0,0
146262,-114.942528735632,4,1,9,65,0,0
146534,-142.857142857143,4,1,1,60,0,0
146807,-166.666666666667,4,1,1,50,0,0
147080,-200,4,1,1,50,0,0
147284,-133.333333333333,4,1,1,80,0,0

[Colours]
Combo1 : 0,128,255
Combo2 : 0,255,255
Combo3 : 128,128,255
Combo4 : 166,0,255

[HitObjects]
80,296,20807,6,0,L|176:296,1,90
416,144,21080,2,0,L|312:144,1,90
80,144,21353,1,0,0:0:0:0:
336,224,21489,1,0,0:0:0:0:
80,224,21625,1,0,0:0:0:0:
336,144,21762,1,0,0:0:0:0:
32,144,21898,1,0,0:0:0:0:
144,144,22034,1,0,0:0:0:0:
368,144,22171,2,0,L|368:48,1,90
160,240,22443,1,0,0:0:0:0:
96,172,22512,1,0,0:0:0:0:
164,108,22580,1,0,0:0:0:0:
416,112,22716,2,0,L|312:112,1,90
64,304,22989,5,0,0:0:0:0:
144,304,23057,1,0,0:0:0:0:
224,304,23125,1,0,0:0:0:0:
464,124,23262,2,0,L|356:124,1,90
128,176,23534,2,0,L|64:176,2,45
288,176,23807,1,0,0:0:0:0:
83,176,23943,1,0,0:0:0:0:
336,272,24080,6,0,L|240:272,1,90
476,112,24353,2,0,L|380:112,1,90
128,112,24625,1,0,0:0:0:0:
256,112,24762,2,0,L|224:112,4,22.5
128,112,25034,1,0,0:0:0:0:
368,112,25171,6,0,L|272:112,1,90
32,112,25443,1,0,0:0:0:0:
144,112,25580,1,0,0:0:0:0:
384,112,25716,1,0,0:0:0:0:
384,112,25853,1,0,0:0:0:0:
144,112,25989,2,0,L|240:112,1,90
32,224,26262,1,0,0:0:0:0:
96,224,26330,1,0,0:0:0:0:
32,224,26398,1,0,0:0:0:0:
288,96,26534,2,0,L|192:96,1,90
108,96,26807,2,0,L|204:96,1,90
400,240,27080,1,0,0:0:0:0:
400,240,27216,1,0,0:0:0:0:
176,240,27353,6,0,L|80:240,2,90
352,128,27762,1,0,0:0:0:0:
176,240,27898,2,0,L|272:240,2,90
448,240,28307,1,0,0:0:0:0:
128,128,28443,6,0,L|208:128,1,67.5000025749208
368,240,28716,2,0,L|288:240,1,67.5000025749208
80,272,28989,2,0,L|160:272,1,67.5000025749208
352,80,29262,2,0,L|400:80,4,33.7500012874604
128,208,29671,5,0,0:0:0:0:
128,80,29807,1,0,0:0:0:0:
352,160,29943,1,0,0:0:0:0:
128,208,30080,1,0,0:0:0:0:
352,160,30216,1,0,0:0:0:0:
128,208,30353,1,0,0:0:0:0:
352,160,30489,1,0,0:0:0:0:
128,208,30625,2,0,L|32:208,1,90
400,288,30898,2,0,L|304:288,1,90
80,112,31171,5,0,0:0:0:0:
80,112,31239,1,0,0:0:0:0:
80,112,31307,1,0,0:0:0:0:
352,112,31375,1,0,0:0:0:0:
352,112,31443,1,0,0:0:0:0:
128,272,31580,5,0,0:0:0:0:
352,272,31716,2,0,L|448:272,1,90
112,176,31989,2,0,L|112:80,1,90
384,272,32262,2,0,L|384:176,1,90
64,288,32534,2,0,L|64:192,1,90
336,224,32807,2,0,L|400:224,3,33.7500012874604
128,256,32978,2,0,L|64:256,3,33.7500012874604
272,256,33216,1,0,0:0:0:0:
272,256,33284,1,0,0:0:0:0:
272,256,33353,1,0,0:0:0:0:
128,144,33489,1,0,0:0:0:0:
64,144,33557,1,0,0:0:0:0:
128,144,33625,1,0,0:0:0:0:
368,144,33762,1,0,0:0:0:0:
128,272,33898,6,0,P|64:240|16:176,1,135.000005149842
304,144,34171,1,0,0:0:0:0:
96,144,34307,1,0,0:0:0:0:
352,144,34443,2,0,L|496:144,1,135.000005149842
96,288,34716,2,0,L|240:288,1,135.000005149842
432,128,34989,1,0,0:0:0:0:
432,128,35125,1,0,0:0:0:0:
128,208,35262,1,0,0:0:0:0:
128,208,35398,1,0,0:0:0:0:
240,208,35534,5,0,0:0:0:0:
352,208,35671,1,0,0:0:0:0:
464,208,35807,1,0,0:0:0:0:
352,208,35943,1,0,0:0:0:0:
80,208,36080,1,0,0:0:0:0:
80,208,36216,1,0,0:0:0:0:
240,208,36353,2,0,L|336:208,3,90
80,208,36898,1,0,0:0:0:0:
80,208,37034,1,0,0:0:0:0:
256,192,37171,12,0,38262,0:0:0:0:
384,192,38398,5,0,0:0:0:0:
240,192,38534,1,0,0:0:0:0:
384,192,38671,1,0,0:0:0:0:
128,192,38807,5,0,0:0:0:0:
224,192,38943,1,0,0:0:0:0:
48,192,39080,1,0,0:0:0:0:
48,192,39216,1,0,0:0:0:0:
352,192,39353,6,0,L|352:144,1,45
448,192,39625,1,0,0:0:0:0:
192,192,39762,1,0,0:0:0:0:
256,160,39830,1,0,0:0:0:0:
320,128,39898,1,0,0:0:0:0:
256,96,39966,1,0,0:0:0:0:
192,64,40034,1,0,0:0:0:0:
341,67,40171,1,0,0:0:0:0:
96,208,40443,5,0,0:0:0:0:
160,176,40512,1,0,0:0:0:0:
224,144,40580,1,0,0:0:0:0:
160,112,40648,1,0,0:0:0:0:
400,80,40716,5,0,0:0:0:0:
336,112,40784,1,0,0:0:0:0:
272,144,40853,1,0,0:0:0:0:
208,176,40920,1,0,0:0:0:0:
272,208,40988,1,0,0:0:0:0:
112,80,41057,1,0,0:0:0:0:
48,112,41125,1,0,0:0:0:0:
112,144,41193,5,0,0:0:0:0:
176,176,41261,1,0,0:0:0:0:
240,208,41329,1,0,0:0:0:0:
32,80,41397,1,0,0:0:0:0:
96,112,41465,1,0,0:0:0:0:
160,144,41533,1,0,0:0:0:0:
224,176,41602,1,0,0:0:0:0:
464,240,41671,5,0,0:0:0:0:
400,208,41739,1,0,0:0:0:0:
336,176,41807,1,0,0:0:0:0:
48,80,41875,1,0,0:0:0:0:
112,112,41943,1,0,0:0:0:0:
176,144,42011,1,0,0:0:0:0:
368,112,42080,1,0,0:0:0:0:
432,80,42148,1,0,0:0:0:0:
256,64,42216,1,0,0:0:0:0:
320,32,42284,1,0,0:0:0:0:
144,272,42353,1,0,0:0:0:0:
208,240,42421,1,0,0:0:0:0:
272,208,42489,1,0,0:0:0:0:
400,176,42625,5,0,0:0:0:0:
320,176,42762,1,0,0:0:0:0:
240,176,42898,1,0,0:0:0:0:
320,176,43034,1,0,0:0:0:0:
144,176,43171,1,0,0:0:0:0:
256,176,43307,1,0,0:0:0:0:
144,176,43443,1,0,0:0:0:0:
144,176,43580,1,0,0:0:0:0:
384,176,43716,6,0,L|384:224,1,45
208,176,43989,2,0,L|240:176,2,22.5
80,176,44262,1,0,0:0:0:0:
208,176,44398,1,0,0:0:0:0:
336,176,44534,1,0,0:0:0:0:
112,288,44807,5,0,0:0:0:0:
48,256,44875,1,0,0:0:0:0:
112,224,44943,1,0,0:0:0:0:
272,288,45011,1,0,0:0:0:0:
336,256,45079,1,0,0:0:0:0:
400,224,45148,5,0,0:0:0:0:
336,192,45216,1,0,0:0:0:0:
272,160,45284,1,0,0:0:0:0:
336,128,45352,1,0,0:0:0:0:
400,96,45420,1,0,0:0:0:0:
80,288,45489,5,0,0:0:0:0:
144,256,45557,1,0,0:0:0:0:
208,224,45625,1,0,0:0:0:0:
144,192,45693,1,0,0:0:0:0:
80,160,45761,1,0,0:0:0:0:
352,64,45830,5,0,0:0:0:0:
288,32,45898,1,0,0:0:0:0:
80,64,45966,1,0,0:0:0:0:
144,32,46034,1,0,0:0:0:0:
400,64,46102,1,0,0:0:0:0:
336,32,46171,1,0,0:0:0:0:
32,64,46239,1,0,0:0:0:0:
96,32,46307,1,0,0:0:0:0:
448,64,46375,1,0,0:0:0:0:
384,32,46443,1,0,0:0:0:0:
80,112,46512,1,0,0:0:0:0:
16,80,46580,1,0,0:0:0:0:
80,48,46648,1,0,0:0:0:0:
144,80,46716,1,0,0:0:0:0:
208,112,46784,1,0,0:0:0:0:
160,192,46989,5,0,0:0:0:0:
288,192,47125,1,0,0:0:0:0:
144,192,47262,1,0,0:0:0:0:
304,192,47398,1,0,0:0:0:0:
128,192,47534,1,0,0:0:0:0:
320,192,47671,1,0,0:0:0:0:
112,192,47807,1,0,0:0:0:0:
336,192,47943,1,0,0:0:0:0:
208,192,48080,6,0,L|208:144,1,45
336,192,48353,1,0,0:0:0:0:
432,192,48489,1,0,0:0:0:0:
128,192,48625,2,0,L|128:240,1,45
16,192,48898,1,0,0:0:0:0:
128,144,49171,6,0,L|224:144,1,90
416,272,49443,2,0,L|416:176,1,90
80,288,49716,2,0,L|176:288,1,90
416,272,49989,2,0,L|416:176,1,90
128,176,50262,1,0,0:0:0:0:
208,176,50330,1,0,0:0:0:0:
128,176,50398,1,0,0:0:0:0:
416,272,50534,1,0,0:0:0:0:
336,272,50602,1,0,0:0:0:0:
416,272,50670,1,0,0:0:0:0:
80,272,50807,5,0,0:0:0:0:
80,272,50943,1,0,0:0:0:0:
352,112,51080,1,0,0:0:0:0:
432,112,51148,1,0,0:0:0:0:
352,112,51216,1,0,0:0:0:0:
128,128,51353,1,0,0:0:0:0:
128,128,51421,1,0,0:0:0:0:
128,128,51489,1,0,0:0:0:0:
400,208,51557,1,0,0:0:0:0:
400,208,51625,1,0,0:0:0:0:
400,208,51693,1,0,0:0:0:0:
128,272,51762,1,0,0:0:0:0:
128,272,51830,1,0,0:0:0:0:
368,272,51898,2,0,L|368:176,1,90
128,144,52171,6,0,L|80:144,4,45
368,272,52580,2,0,L|272:272,1,90
464,128,52853,1,0,0:0:0:0:
368,128,52921,1,0,0:0:0:0:
464,128,52989,1,0,0:0:0:0:
144,224,53125,2,0,L|144:128,1,90
368,256,53534,5,0,0:0:0:0:
256,256,53671,1,0,0:0:0:0:
144,256,53807,1,0,0:0:0:0:
368,256,53943,1,0,0:0:0:0:
144,256,54080,1,0,0:0:0:0:
256,256,54216,1,0,0:0:0:0:
368,256,54353,1,0,0:0:0:0:
144,256,54489,2,0,L|336:256,1,180
64,96,54762,2,0,L|256:96,1,180
416,192,55034,5,0,0:0:0:0:
416,192,55103,1,0,0:0:0:0:
416,192,55171,1,0,0:0:0:0:
80,192,55443,1,0,0:0:0:0:
272,192,55580,1,0,0:0:0:0:
480,80,55716,6,0,L|480:176,1,90
160,160,55989,2,0,L|160:256,1,90
448,240,56262,2,0,L|352:240,1,90
144,240,56534,1,0,0:0:0:0:
280,240,56671,1,0,0:0:0:0:
144,240,56807,1,0,0:0:0:0:
448,240,56943,1,0,0:0:0:0:
144,240,57080,2,0,L|240:240,1,90
448,128,57353,1,0,0:0:0:0:
448,128,57421,1,0,0:0:0:0:
448,128,57489,1,0,0:0:0:0:
192,128,57625,2,0,L|288:128,1,90
400,256,57898,5,0,0:0:0:0:
288,256,58034,1,0,0:0:0:0:
400,256,58171,1,0,0:0:0:0:
112,256,58307,1,0,0:0:0:0:
224,256,58443,1,0,0:0:0:0:
336,256,58580,1,0,0:0:0:0:
224,256,58716,2,0,L|128:256,1,90
436,158,58989,2,0,L|340:158,1,90
32,160,59262,2,0,L|128:160,1,90
320,240,59534,1,0,0:0:0:0:
320,240,59671,1,0,0:0:0:0:
496,240,59807,1,0,0:0:0:0:
496,240,59943,1,0,0:0:0:0:
176,240,60080,6,0,L|272:240,1,90
480,144,60353,2,0,L|480:48,1,90
240,144,60659,1,0,0:0:0:0:
352,144,60762,1,0,0:0:0:0:
96,144,60898,2,0,L|96:48,1,90
416,160,61171,2,0,L|320:160,3,90
112,160,61716,1,0,0:0:0:0:
112,160,61853,1,0,0:0:0:0:
352,160,61989,1,0,0:0:0:0:
432,160,62057,1,0,0:0:0:0:
352,160,62125,1,0,0:0:0:0:
128,160,62262,6,0,L|80:160,5,45
272,160,62671,2,0,L|320:160,3,45
128,272,62943,2,0,L|32:272,3,90
320,272,63489,1,0,0:0:0:0:
96,272,63625,1,0,0:0:0:0:
400,272,63898,1,0,0:0:0:0:
96,272,64171,2,0,L|96:192,1,67.5000025749208
352,144,64443,5,0,0:0:0:0:
256,144,64580,1,0,0:0:0:0:
32,288,64716,1,0,0:0:0:0:
128,288,64853,1,0,0:0:0:0:
368,288,64989,1,0,0:0:0:0:
128,288,65125,1,0,0:0:0:0:
368,288,65262,1,0,0:0:0:0:
144,288,65398,1,0,0:0:0:0:
368,288,65534,1,0,0:0:0:0:
144,288,65671,2,0,L|48:288,2,90
352,192,66080,6,0,L|416:192,2,45
176,224,66353,1,0,0:0:0:0:
176,224,66489,1,0,0:0:0:0:
400,112,66625,2,0,L|496:112,1,90
144,240,66898,2,0,L|240:240,1,90
480,64,67171,2,0,L|384:64,1,90
160,192,67443,1,0,0:0:0:0:
368,192,67580,1,0,0:0:0:0:
160,192,67716,5,0,0:0:0:0:
432,256,67921,1,0,0:0:0:0:
208,256,68125,1,0,0:0:0:0:
464,256,68262,1,0,0:0:0:0:
144,256,68398,1,0,0:0:0:0:
496,256,68534,1,0,0:0:0:0:
80,256,68671,1,0,0:0:0:0:
80,256,68739,1,0,0:0:0:0:
80,256,68807,1,0,0:0:0:0:
320,144,68943,6,0,L|416:144,1,90
80,160,69216,1,0,0:0:0:0:
80,160,69284,1,0,0:0:0:0:
80,160,69353,1,0,0:0:0:0:
352,256,69489,2,0,L|240:256,1,107.999996704102
48,256,69762,1,0,0:0:0:0:
480,176,69898,5,0,0:0:0:0:
416,144,69966,1,0,0:0:0:0:
352,112,70034,1,0,0:0:0:0:
416,80,70102,1,0,0:0:0:0:
480,48,70170,1,0,0:0:0:0:
160,176,70239,5,0,0:0:0:0:
224,144,70307,1,0,0:0:0:0:
288,112,70375,1,0,0:0:0:0:
224,80,70443,1,0,0:0:0:0:
160,48,70511,1,0,0:0:0:0:
400,112,70580,2,0,L|400:16,1,90
288,32,70853,1,0,0:0:0:0:
80,256,70989,5,0,0:0:0:0:
16,224,71057,1,0,0:0:0:0:
80,192,71125,1,0,0:0:0:0:
336,256,71193,1,0,0:0:0:0:
272,224,71262,1,0,0:0:0:0:
336,192,71330,1,0,0:0:0:0:
128,192,71398,1,0,0:0:0:0:
192,160,71466,1,0,0:0:0:0:
256,128,71534,1,0,0:0:0:0:
192,96,71603,1,0,0:0:0:0:
128,64,71671,1,0,0:0:0:0:
192,32,71739,1,0,0:0:0:0:
256,64,71807,1,0,0:0:0:0:
336,256,71875,1,0,0:0:0:0:
64,256,71943,1,0,0:0:0:0:
368,160,72080,6,0,L|368:64,1,90
80,160,72353,2,0,L|80:64,1,90
400,240,72625,1,0,0:0:0:0:
304,240,72762,1,0,0:0:0:0:
208,240,72898,1,0,0:0:0:0:
400,240,73034,1,0,0:0:0:0:
96,240,73171,1,0,0:0:0:0:
256,192,77534,6,0,B|352:192|352:192|224:192,1,225
80,192,78353,1,0,0:0:0:0:
224,192,78489,1,0,0:0:0:0:
80,192,78625,1,0,0:0:0:0:
352,192,78898,1,0,0:0:0:0:
80,192,79171,1,0,0:0:0:0:
352,192,79307,1,0,0:0:0:0:
288,160,79375,1,0,0:0:0:0:
352,128,79443,1,0,0:0:0:0:
112,128,79580,1,0,0:0:0:0:
96,192,80398,5,0,0:0:0:0:
304,192,80534,1,0,0:0:0:0:
176,192,80671,1,0,0:0:0:0:
416,192,80807,1,0,0:0:0:0:
208,192,81080,1,0,0:0:0:0:
400,192,81353,1,0,0:0:0:0:
160,192,81625,1,0,0:0:0:0:
160,192,81693,1,0,0:0:0:0:
160,192,81762,1,0,0:0:0:0:
160,192,81830,1,0,0:0:0:0:
160,192,81898,1,0,0:0:0:0:
368,192,82034,5,0,0:0:0:0:
224,192,82171,1,0,0:0:0:0:
368,192,82307,1,0,0:0:0:0:
512,192,82443,1,0,0:0:0:0:
224,192,82580,1,0,0:0:0:0:
368,192,82716,1,0,0:0:0:0:
112,192,82853,1,0,0:0:0:0:
341,192,82989,1,0,0:0:0:0:
112,192,83125,1,0,0:0:0:0:
112,192,83262,1,0,0:0:0:0:
304,192,83398,1,0,0:0:0:0:
304,192,83534,1,0,0:0:0:0:
112,192,83671,2,0,L|80:192,2,22.5
400,192,83943,1,0,0:0:0:0:
112,192,84080,6,0,L|160:192,1,45
320,192,84353,1,0,0:0:0:0:
48,304,84489,2,0,L|96:304,1,45
320,192,84762,1,0,0:0:0:0:
128,96,84898,2,0,L|176:96,1,45
448,272,85307,2,0,L|400:272,1,45
32,160,85716,2,0,L|32:112,1,45
160,112,85921,1,0,0:0:0:0:
160,112,85989,1,0,0:0:0:0:
368,112,86125,1,0,0:0:0:0:
112,288,86262,6,0,L|112:208,1,67.5000025749208
368,176,86534,1,0,0:0:0:0:
160,176,86671,1,0,0:0:0:0:
272,176,86807,1,0,0:0:0:0:
48,176,86943,1,0,0:0:0:0:
272,272,87080,2,0,L|336:304,1,67.5000025749208
80,96,87353,2,0,L|144:64,1,67.5000025749208
384,176,87625,1,0,0:0:0:0:
256,176,87762,1,0,0:0:0:0:
384,176,87898,1,0,0:0:0:0:
112,176,88034,1,0,0:0:0:0:
192,176,88103,1,0,0:0:0:0:
112,176,88171,1,0,0:0:0:0:
384,176,88307,1,0,0:0:0:0:
112,304,88443,6,0,L|192:304,1,67.5000025749208
112,128,88716,2,0,L|192:128,1,67.5000025749208
400,304,88989,2,0,L|320:304,1,67.5000025749208
400,128,89262,2,0,L|320:128,1,67.5000025749208
112,192,89534,1,0,0:0:0:0:
336,192,89671,1,0,0:0:0:0:
112,192,89807,1,0,0:0:0:0:
336,192,89943,1,0,0:0:0:0:
112,192,90080,2,0,L|112:112,1,67.5000025749208
336,192,90353,1,0,0:0:0:0:
432,192,90489,1,0,0:0:0:0:
64,224,90625,5,0,0:0:0:0:
160,224,90762,1,0,0:0:0:0:
448,224,90898,1,0,0:0:0:0:
352,224,91034,1,0,0:0:0:0:
112,80,91171,1,0,0:0:0:0:
16,80,91307,1,0,0:0:0:0:
352,272,91443,2,0,L|432:256,1,67.5000025749208
64,272,91716,2,0,L|144:256,1,67.5000025749208
384,96,91989,2,0,L|304:112,1,67.5000025749208
48,272,92262,1,0,0:0:0:0:
176,272,92398,1,0,0:0:0:0:
304,272,92534,1,0,0:0:0:0:
176,272,92671,1,0,0:0:0:0:
48,272,92807,1,0,0:0:0:0:
176,272,92943,1,0,0:0:0:0:
432,272,93080,1,0,0:0:0:0:
320,272,93216,1,0,0:0:0:0:
208,272,93353,1,0,0:0:0:0:
96,272,93489,1,0,0:0:0:0:
208,272,93625,1,0,0:0:0:0:
432,272,93762,1,0,0:0:0:0:
256,160,93830,6,0,L|224:160,2,16.8750006437302
64,208,93966,2,0,L|128:208,3,33.7500012874604
288,272,94171,2,0,L|336:272,4,33.7500012874604
96,208,94443,2,0,L|48:208,4,38.2500007295609
272,304,94716,2,0,B|256:288|256:288|288:288|288:288|272:256,1,90
64,144,95125,6,0,L|64:48,1,90
336,144,95398,2,0,L|336:48,1,90
128,256,95671,1,0,0:0:0:0:
352,256,95807,1,0,0:0:0:0:
128,256,95943,1,0,0:0:0:0:
256,256,96080,1,0,0:0:0:0:
128,256,96216,1,0,0:0:0:0:
352,256,96353,1,0,0:0:0:0:
128,256,96489,2,0,L|224:256,1,90
480,256,96762,2,0,L|384:256,1,90
224,256,97034,1,0,0:0:0:0:
224,256,97171,1,0,0:0:0:0:
48,256,97307,1,0,0:0:0:0:
48,256,97443,1,0,0:0:0:0:
384,256,97580,6,0,L|480:256,3,90
224,256,98125,1,0,0:0:0:0:
384,144,98262,2,0,L|288:144,1,90
384,256,98534,2,0,L|288:256,1,90
80,176,98807,5,0,0:0:0:0:
288,176,98943,1,0,0:0:0:0:
80,176,99080,1,0,0:0:0:0:
288,176,99216,1,0,0:0:0:0:
80,176,99353,2,0,L|176:176,1,90
384,272,99625,2,0,L|480:272,1,90
208,272,99898,1,0,0:0:0:0:
80,272,100034,1,0,0:0:0:0:
208,272,100171,1,0,0:0:0:0:
80,272,100307,1,0,0:0:0:0:
208,272,100443,6,0,L|304:272,1,90
32,272,100716,2,0,L|128:272,1,90
416,272,100989,2,0,L|320:272,1,90
64,272,101262,2,0,L|160:272,1,90
432,272,101534,5,0,0:0:0:0:
368,240,101603,1,0,0:0:0:0:
80,272,101671,1,0,0:0:0:0:
144,240,101739,1,0,0:0:0:0:
448,176,101807,1,0,0:0:0:0:
384,144,101875,1,0,0:0:0:0:
80,192,101943,1,0,0:0:0:0:
144,160,102012,1,0,0:0:0:0:
448,96,102080,1,0,0:0:0:0:
384,64,102148,1,0,0:0:0:0:
96,272,102216,5,0,0:0:0:0:
160,240,102284,1,0,0:0:0:0:
224,208,102353,1,0,0:0:0:0:
288,176,102421,1,0,0:0:0:0:
224,144,102489,1,0,0:0:0:0:
160,112,102557,1,0,0:0:0:0:
320,272,102625,1,0,0:0:0:0:
384,240,102693,1,0,0:0:0:0:
208,272,102762,1,0,0:0:0:0:
272,240,102830,1,0,0:0:0:0:
96,272,102898,1,0,0:0:0:0:
160,240,102966,1,0,0:0:0:0:
224,208,103034,1,0,0:0:0:0:
16,272,103102,1,0,0:0:0:0:
16,272,103171,1,0,0:0:0:0:
16,272,103239,1,0,0:0:0:0:
208,272,103307,1,0,0:0:0:0:
208,272,103375,1,0,0:0:0:0:
208,272,103443,1,0,0:0:0:0:
432,272,103580,1,0,0:0:0:0:
112,192,103716,1,0,0:0:0:0:
112,192,103853,1,0,0:0:0:0:
448,192,103989,6,0,L|352:192,1,90
96,272,104262,2,0,L|192:272,1,90
384,192,104534,1,0,0:0:0:0:
229,193,104671,1,0,0:0:0:0:
384,192,104807,1,0,0:0:0:0:
272,192,104943,1,0,0:0:0:0:
160,192,105080,1,0,0:0:0:0:
48,192,105216,1,0,0:0:0:0:
272,192,105353,2,0,L|272:87,1,90
480,64,105625,2,0,L|384:64,1,90
64,224,105898,5,0,0:0:0:0:
224,224,106034,1,0,0:0:0:0:
48,224,106171,1,0,0:0:0:0:
256,224,106307,1,0,0:0:0:0:
32,224,106443,1,0,0:0:0:0:
272,224,106580,1,0,0:0:0:0:
16,224,106716,1,0,0:0:0:0:
272,224,106853,1,0,0:0:0:0:
480,80,106989,6,0,L|384:80,1,90
160,176,107262,2,0,L|64:176,1,90
368,288,107534,2,0,L|512:288,1,135.000005149842
144,288,107807,1,0,0:0:0:0:
416,288,107943,1,0,0:0:0:0:
144,288,108080,2,0,L|144:192,1,90
448,288,108353,2,0,L|448:192,1,90
304,192,108557,1,0,0:0:0:0:
304,192,108625,1,0,0:0:0:0:
80,272,108762,2,0,L|80:176,1,90
272,192,109034,1,0,0:0:0:0:
480,192,109171,6,0,L|432:192,2,45
224,192,109443,1,0,0:0:0:0:
32,320,109580,2,0,L|80:320,6,45
304,208,110125,1,0,0:0:0:0:
64,192,110262,2,0,L|144:192,1,67.5000025749208
448,192,110398,2,0,L|368:192,1,67.5000025749208
64,192,110534,2,0,L|144:192,1,67.5000025749208
448,192,110670,2,0,L|368:192,1,67.5000025749208
64,192,110807,2,0,L|144:192,1,67.5000025749208
448,192,110943,2,0,L|368:192,1,67.5000025749208
64,192,111080,2,0,L|144:192,1,67.5000025749208
448,192,111216,2,0,L|368:192,1,67.5000025749208
160,288,111353,5,0,0:0:0:0:
352,288,111489,2,0,L|416:288,8,33.7500012874604
160,288,111898,1,0,0:0:0:0:
352,288,112034,1,0,0:0:0:0:
32,288,112171,1,0,0:0:0:0:
240,288,112307,1,0,0:0:0:0:
32,288,112443,2,0,B|416:288|48:288|448:288,5,405.000015449525
112,272,116807,2,0,L|160:272,7,33.7500012874604
448,272,117353,2,0,L|400:272,7,33.7500012874604
32,272,117898,2,0,L|80:272,7,33.7500012874604
272,272,118443,5,0,0:0:0:0:
352,272,118512,1,0,0:0:0:0:
272,272,118580,1,0,0:0:0:0:
352,272,118648,1,0,0:0:0:0:
272,272,118716,1,0,0:0:0:0:
352,272,118784,1,0,0:0:0:0:
272,272,118853,1,0,0:0:0:0:
352,272,118921,1,0,0:0:0:0:
272,272,118989,1,0,0:0:0:0:
64,272,119057,2,0,L|64:224,1,45
416,272,119193,2,0,L|416:224,1,45
64,272,119330,2,0,L|64:224,1,45
416,272,119466,2,0,L|416:224,1,45
64,272,119603,2,0,L|64:224,1,45
384,144,119807,6,0,L|480:144,1,67.5000025749208
144,144,119943,2,0,L|224:144,1,67.5000025749208
448,304,120080,2,0,L|352:304,1,67.5000025749208
176,304,120216,1,0,0:0:0:0:
272,304,120353,1,0,0:0:0:0:
368,304,120489,1,0,0:0:0:0:
272,304,120625,1,0,0:0:0:0:
176,304,120762,1,0,0:0:0:0:
448,304,120898,1,0,0:0:0:0:
272,304,121034,1,0,0:0:0:0:
112,288,121171,6,0,L|112:208,1,67.5000025749208
384,224,121443,1,0,0:0:0:0:
176,224,121716,5,0,0:0:0:0:
320,224,121853,1,0,0:0:0:0:
32,224,121988,1,0,0:0:0:0:
272,224,122262,6,0,L|272:144,1,67.5000025749208
496,224,122534,1,0,0:0:0:0:
112,160,122807,5,0,0:0:0:0:
384,160,122943,1,0,0:0:0:0:
112,160,123080,1,0,0:0:0:0:
384,304,123353,1,0,0:0:0:0:
112,288,123489,1,0,0:0:0:0:
384,304,123625,1,0,0:0:0:0:
112,288,123898,1,0,0:0:0:0:
256,288,124034,1,0,0:0:0:0:
400,288,124171,1,0,0:0:0:0:
112,112,124443,6,0,L|192:112,2,67.5000025749208
384,112,124989,1,0,0:0:0:0:
176,224,125125,1,0,0:0:0:0:
256,224,125193,1,0,0:0:0:0:
336,224,125262,1,0,0:0:0:0:
64,224,125398,1,0,0:0:0:0:
464,192,125534,6,0,L|368:192,1,90
48,192,125807,2,0,L|144:192,1,90
464,192,126080,2,0,L|368:192,1,90
48,192,126353,1,0,0:0:0:0:
144,192,126489,1,0,0:0:0:0:
368,192,126625,1,0,0:0:0:0:
432,160,126693,1,0,0:0:0:0:
368,128,126762,1,0,0:0:0:0:
80,272,126898,1,0,0:0:0:0:
16,240,126966,1,0,0:0:0:0:
80,208,127034,1,0,0:0:0:0:
416,272,127171,5,0,0:0:0:0:
416,272,127307,1,0,0:0:0:0:
176,272,127443,1,0,0:0:0:0:
176,272,127580,1,0,0:0:0:0:
80,144,127716,5,0,0:0:0:0:
80,144,127784,1,0,0:0:0:0:
288,144,127853,1,0,0:0:0:0:
288,144,127921,1,0,0:0:0:0:
16,144,127989,1,0,0:0:0:0:
16,144,128057,1,0,0:0:0:0:
224,144,128125,1,0,0:0:0:0:
224,144,128193,1,0,0:0:0:0:
400,144,128262,1,0,0:0:0:0:
400,144,128330,1,0,0:0:0:0:
144,144,128398,1,0,0:0:0:0:
144,144,128466,1,0,0:0:0:0:
368,144,128534,2,0,L|432:144,1,60.7500002317429
144,144,128671,2,0,L|80:144,1,60.7500002317429
400,256,128807,6,0,L|320:256,1,60.7500002317429
416,256,128943,1,0,0:0:0:0:
128,256,129080,1,0,0:0:0:0:
339,256,129216,1,0,0:0:0:0:
48,256,129353,2,0,L|208:256,1,153.000002918243
432,80,129625,2,0,P|400:160|224:288,1,306.000005836487
432,288,130034,1,0,0:0:0:0:
304,288,130171,1,0,0:0:0:0:
432,288,130307,1,0,0:0:0:0:
304,288,130443,1,0,0:0:0:0:
160,288,130580,1,0,0:0:0:0:
432,288,130716,2,0,L|336:288,1,90
96,288,130989,6,0,L|48:288,2,45
256,288,131262,1,0,0:0:0:0:
96,288,131398,1,0,0:0:0:0:
336,288,131534,2,0,L|432:288,1,90
176,288,131807,1,0,0:0:0:0:
16,288,131943,1,0,0:0:0:0:
240,288,132080,5,0,0:0:0:0:
240,288,132148,1,0,0:0:0:0:
240,288,132216,1,0,0:0:0:0:
432,288,132284,1,0,0:0:0:0:
432,288,132353,1,0,0:0:0:0:
432,288,132421,1,0,0:0:0:0:
80,288,132489,1,0,0:0:0:0:
80,288,132557,1,0,0:0:0:0:
80,288,132625,1,0,0:0:0:0:
336,288,132693,1,0,0:0:0:0:
336,288,132762,1,0,0:0:0:0:
464,288,132898,1,0,0:0:0:0:
464,288,133034,1,0,0:0:0:0:
160,288,133171,6,0,L|64:288,1,90
400,288,133443,2,0,L|304:288,1,90
96,224,133716,1,0,0:0:0:0:
272,224,133853,1,0,0:0:0:0:
176,224,133989,1,0,0:0:0:0:
272,224,134125,1,0,0:0:0:0:
64,224,134262,2,0,L|128:224,4,45
208,224,134671,1,0,0:0:0:0:
416,224,134807,1,0,0:0:0:0:
208,224,134943,6,0,L|112:224,1,90
272,224,135216,1,0,0:0:0:0:
112,224,135353,5,0,0:0:0:0:
208,224,135421,1,0,0:0:0:0:
112,224,135489,1,0,0:0:0:0:
208,224,135557,1,0,0:0:0:0:
112,224,135625,1,0,0:0:0:0:
208,224,135693,1,0,0:0:0:0:
112,224,135762,1,0,0:0:0:0:
336,224,135830,5,0,0:0:0:0:
400,192,135898,1,0,0:0:0:0:
336,160,135966,1,0,0:0:0:0:
112,224,136034,1,0,0:0:0:0:
48,192,136102,1,0,0:0:0:0:
112,160,136171,1,0,0:0:0:0:
176,128,136239,1,0,0:0:0:0:
240,96,136307,1,0,0:0:0:0:
112,224,136443,5,0,0:0:0:0:
48,192,136512,1,0,0:0:0:0:
112,160,136580,1,0,0:0:0:0:
176,128,136648,1,0,0:0:0:0:
32,144,136716,1,0,0:0:0:0:
96,112,136784,1,0,0:0:0:0:
160,80,136853,1,0,0:0:0:0:
368,144,136921,1,0,0:0:0:0:
304,112,136989,1,0,0:0:0:0:
240,80,137057,1,0,0:0:0:0:
176,48,137125,1,0,0:0:0:0:
352,112,137193,1,0,0:0:0:0:
288,80,137262,1,0,0:0:0:0:
496,96,137330,1,0,0:0:0:0:
432,64,137398,1,0,0:0:0:0:
189,224,137534,2,0,L|125:224,1,45
416,224,137807,2,0,L|480:224,1,45
144,224,138080,2,0,L|96:224,1,45
416,224,138353,2,0,L|464:224,4,45
272,224,138762,5,0,0:0:0:0:
160,224,138898,1,0,0:0:0:0:
352,224,139034,1,0,0:0:0:0:
224,224,139171,1,0,0:0:0:0:
96,224,139307,2,0,L|192:224,1,90
32,224,139580,1,0,0:0:0:0:
304,224,139716,5,0,0:0:0:0:
384,224,139784,1,0,0:0:0:0:
304,224,139853,1,0,0:0:0:0:
112,224,139989,1,0,0:0:0:0:
224,224,140125,1,0,0:0:0:0:
336,224,140262,1,0,0:0:0:0:
224,224,140398,1,0,0:0:0:0:
336,224,140534,1,0,0:0:0:0:
112,224,140671,1,0,0:0:0:0:
400,224,140807,6,0,L|336:224,8,45
160,224,141421,1,0,0:0:0:0:
240,224,141489,1,0,0:0:0:0:
320,224,141557,1,0,0:0:0:0:
240,224,141625,1,0,0:0:0:0:
160,224,141693,1,0,0:0:0:0:
240,224,141762,1,0,0:0:0:0:
48,224,141898,5,0,0:0:0:0:
384,224,142103,1,0,0:0:0:0:
224,224,142307,1,0,0:0:0:0:
384,224,142443,1,0,0:0:0:0:
224,224,142580,1,0,0:0:0:0:
64,224,142716,1,0,0:0:0:0:
224,224,142853,1,0,0:0:0:0:
416,224,142989,1,0,0:0:0:0:
416,224,143125,1,0,0:0:0:0:
96,224,143262,2,0,L|176:224,1,78.3000006571198
384,224,143534,1,0,0:0:0:0:
496,224,143671,1,0,0:0:0:0:
208,224,143807,5,0,0:0:0:0:
384,224,143943,1,0,0:0:0:0:
174,224,144080,2,0,L|78:224,1,78.3000006571198
496,224,144353,2,0,L|416:224,1,78.3000006571198
129,224,144625,2,0,L|225:224,1,78.3000006571198
416,224,144898,2,0,L|416:144,1,78.3000006571198
128,192,145171,6,0,L|176:192,4,39.1500003285599
416,192,145478,2,0,L|368:192,3,39.1500003285599
48,192,145716,2,0,L|96:192,6,39.1500003285599
432,192,146262,2,0,L|352:176,1,78.3000006571198
96,192,146534,1,0,0:0:0:0:
224,192,146671,1,0,0:0:0:0:
96,192,146807,1,0,0:0:0:0:
224,192,146943,1,0,0:0:0:0:
352,192,147080,1,0,0:0:0:0:
32,192,147216,1,0,0:0:0:0:
480,192,147353,1,0,0:0:0:0:
