osu file format v14

[General]
AudioFilename: Tits or get the fuck out!!.mp3
AudioLeadIn: 0
PreviewTime: 93830
Countdown: 0
SampleSet: Normal
StackLeniency: 0.7
Mode: 1
LetterboxInBreaks: 0
WidescreenStoryboard: 0

[Editor]
DistanceSpacing: 0.8
BeatDivisor: 1
GridSize: 8
TimelineZoom: 0.5999999

[Metadata]
Title:Tits or get the fuck out!!
TitleUnicode:Tits or get the fuck out!!
Artist:Morimori Atsushi
ArtistUnicode:モリモリあつし
Creator:ManP
Version:SK's Kantan
Source:東方Project
Tags:Backfire KinomiCandy koyomi_222 tasuke912 SKSalt ZUN 上海アリス幻樂団 Team Shanghai Alice 東方神霊廟 Ten Desires. Touhou Shinreibyou デザイアドライブ Desire Drive アレンジ Arrange
BeatmapID:765370
BeatmapSetID:334489

[Difficulty]
HPDrainRate:6
CircleSize:2
OverallDifficulty:3.5
ApproachRate:2
SliderMultiplier:1.19999997615814
SliderTickRate:1

[Events]
//Background and Video events
0,0,"86483634.jpg",0,50
//Break Periods
//Storyboard Layer 0 (Background)
//Storyboard Layer 1 (Fail)
//Storyboard Layer 2 (Pass)
//Storyboard Layer 3 (Foreground)
//Storyboard Sound Samples

[TimingPoints]
3352,272.727272727273,4,1,0,100,1,0
94988,-100,4,1,0,100,0,1
112442,-100,4,1,0,100,0,0
121442,-100,4,1,0,100,0,1
129897,-100,4,1,0,100,0,0

[HitObjects]
88,116,3352,5,4,0:0:0:0:
88,116,4988,1,2,0:0:0:0:
88,116,5533,1,4,0:0:0:0:
224,216,7170,1,0,0:0:0:0:
88,116,7715,5,4,0:0:0:0:
88,116,9352,1,2,0:0:0:0:
88,116,9897,1,4,0:0:0:0:
288,176,10988,1,2,0:0:0:0:
88,116,12079,5,4,0:0:0:0:
88,116,13715,1,2,0:0:0:0:
88,116,14261,1,4,0:0:0:0:
88,116,15897,1,0,0:0:0:0:
88,116,16442,1,4,0:0:0:0:
88,116,18079,1,2,0:0:0:0:
88,116,18624,1,4,0:0:0:0:
288,144,19715,1,2,0:0:0:0:
88,116,20806,5,4,0:0:0:0:
88,116,21897,1,0,0:0:0:0:
88,116,22442,1,2,0:0:0:0:
88,116,22988,1,0,0:0:0:0:
88,116,24079,1,2,0:0:0:0:
88,116,24624,1,0,0:0:0:0:
88,116,25170,1,2,0:0:0:0:
88,116,26261,1,0,0:0:0:0:
88,116,26806,1,2,0:0:0:0:
88,116,27352,1,0,0:0:0:0:
264,128,28442,1,2,0:0:0:0:
88,116,29533,5,4,0:0:0:0:
88,116,30624,1,0,0:0:0:0:
88,116,31170,1,2,0:0:0:0:
88,116,31715,1,0,0:0:0:0:
88,116,32806,1,2,0:0:0:0:
88,116,33352,1,0,0:0:0:0:
88,116,33897,1,4,0:0:0:0:
88,116,34988,1,4,0:0:0:0:
88,116,36079,1,4,0:0:0:0:
88,116,36624,1,6,0:0:0:0:
256,192,37170,12,0,37988,0:0:0:0:
88,116,38261,5,0,0:0:0:0:
88,116,39352,1,0,0:0:0:0:
88,116,40442,1,2,0:0:0:0:
88,116,41533,1,2,0:0:0:0:
88,116,42079,1,2,0:0:0:0:
88,116,42624,1,0,0:0:0:0:
88,116,43715,1,0,0:0:0:0:
88,116,44806,5,2,0:0:0:0:
88,116,45897,1,2,0:0:0:0:
88,116,46442,1,2,0:0:0:0:
312,144,46715,1,2,0:0:0:0:
32,344,46988,1,4,0:0:0:0:
60,96,48079,1,0,0:0:0:0:
60,96,49170,1,0,0:0:0:0:
60,96,50261,1,2,0:0:0:0:
60,96,50806,1,2,0:0:0:0:
256,192,51352,12,0,52170,0:0:0:0:
200,168,52442,5,0,0:0:0:0:
184,136,53261,1,6,0:0:0:0:
360,92,53533,5,4,0:0:0:0:
360,92,54624,1,2,0:0:0:0:
184,176,55170,1,2,0:0:0:0:
184,176,55442,1,2,0:0:0:0:
360,92,55715,1,4,0:0:0:0:
360,92,56806,5,0,0:0:0:0:
80,176,57352,1,2,0:0:0:0:
360,92,57897,1,0,0:0:0:0:
360,92,58988,1,2,0:0:0:0:
208,200,59533,1,2,0:0:0:0:
176,192,60079,1,0,0:0:0:0:
360,92,61170,1,0,0:0:0:0:
360,92,61715,1,2,0:0:0:0:
256,192,62261,12,2,63079,0:0:0:0:
192,176,63352,5,4,0:0:0:0:
144,112,63897,1,6,0:0:0:0:
360,92,64442,1,4,0:0:0:0:
360,92,65533,1,0,0:0:0:0:
360,92,66079,1,2,0:0:0:0:
360,92,66624,1,0,0:0:0:0:
360,92,67715,1,2,0:0:0:0:
360,92,68261,1,0,0:0:0:0:
360,92,68806,1,4,0:0:0:0:
360,92,69897,1,4,0:0:0:0:
360,92,70988,1,4,0:0:0:0:
360,92,71533,1,6,0:0:0:0:
256,192,72079,12,0,73170,0:0:0:0:
256,192,77533,5,4,0:0:0:0:
256,192,79715,1,2,0:0:0:0:
256,192,81897,1,0,0:0:0:0:
256,192,84079,1,2,0:0:0:0:
256,192,86261,1,0,0:0:0:0:
256,192,87352,1,0,0:0:0:0:
256,192,88442,1,2,0:0:0:0:
256,192,89533,1,2,0:0:0:0:
256,192,90624,1,0,0:0:0:0:
288,144,91170,1,0,0:0:0:0:
256,192,91715,1,0,0:0:0:0:
256,192,92806,1,2,0:0:0:0:
392,288,93352,1,0,0:0:0:0:
256,192,93897,12,0,94715,0:0:0:0:
256,192,94988,5,4,0:0:0:0:
248,224,95533,1,2,0:0:0:0:
272,192,96352,1,0,0:0:0:0:
232,120,96624,1,2,0:0:0:0:
256,200,97170,1,0,0:0:0:0:
256,200,97715,1,2,0:0:0:0:
256,200,98261,1,0,0:0:0:0:
224,144,98533,1,0,0:0:0:0:
256,200,98806,1,2,0:0:0:0:
232,208,99352,1,0,0:0:0:0:
208,200,99897,1,2,0:0:0:0:
176,192,100715,1,0,0:0:0:0:
176,192,100988,1,2,0:0:0:0:
336,208,101533,1,0,0:0:0:0:
160,128,102079,1,0,0:0:0:0:
160,128,102624,1,2,0:0:0:0:
160,128,103170,1,0,0:0:0:0:
184,192,103988,1,6,0:0:0:0:
344,192,104806,1,0,0:0:0:0:
240,224,105079,1,0,0:0:0:0:
232,224,105352,1,2,0:0:0:0:
176,192,105897,1,0,0:0:0:0:
176,192,106442,1,2,0:0:0:0:
176,192,106988,1,2,0:0:0:0:
304,224,107261,1,0,0:0:0:0:
176,192,107533,1,2,0:0:0:0:
168,192,108079,1,0,0:0:0:0:
8,192,109170,1,2,0:0:0:0:
184,192,109442,1,2,0:0:0:0:
184,192,109715,1,2,0:0:0:0:
200,192,110261,1,0,0:0:0:0:
200,192,110806,1,0,0:0:0:0:
200,192,111352,1,2,0:0:0:0:
200,192,111897,1,0,0:0:0:0:
224,216,112442,1,4,0:0:0:0:
208,176,116806,6,0,L|272:176,12,59.999998807907
256,192,118988,12,0,120897,0:0:0:0:
252,192,121442,5,4,0:0:0:0:
252,192,121988,1,4,0:0:0:0:
252,192,122533,1,6,0:0:0:0:
252,192,123079,1,4,0:0:0:0:
252,192,123624,1,4,0:0:0:0:
252,192,124170,5,6,0:0:0:0:
252,192,124715,1,4,0:0:0:0:
208,96,125261,1,0,0:0:0:0:
232,160,125533,1,2,0:0:0:0:
252,192,126079,1,0,0:0:0:0:
144,184,126624,1,0,0:0:0:0:
252,192,126897,1,0,0:0:0:0:
252,192,127170,1,2,0:0:0:0:
252,192,127715,1,0,0:0:0:0:
252,192,128261,1,0,0:0:0:0:
252,192,128806,1,2,0:0:0:0:
224,200,129352,1,4,0:0:0:0:
252,192,129624,1,6,0:0:0:0:
160,160,129897,1,4,0:0:0:0:
252,192,130988,1,0,0:0:0:0:
252,192,131533,1,2,0:0:0:0:
252,192,132079,1,0,0:0:0:0:
252,192,133170,1,2,0:0:0:0:
252,192,133715,1,2,0:0:0:0:
252,192,134261,1,0,0:0:0:0:
252,192,135352,1,0,0:0:0:0:
160,208,136442,1,0,0:0:0:0:
176,216,136988,1,2,0:0:0:0:
256,192,137533,12,0,138352,0:0:0:0:
208,176,138624,5,4,0:0:0:0:
252,192,139715,5,0,0:0:0:0:
252,192,140261,1,2,0:0:0:0:
252,192,140806,1,0,0:0:0:0:
252,192,141897,1,2,0:0:0:0:
296,216,142442,1,0,0:0:0:0:
252,192,142988,1,6,0:0:0:0:
288,248,144079,1,6,0:0:0:0:
252,192,145170,1,6,0:0:0:0:
304,200,145715,1,6,0:0:0:0:
252,192,146261,1,0,0:0:0:0:
252,192,146806,1,2,0:0:0:0:
252,192,147352,1,0,0:0:0:0:
