osu file format v14

[General]
AudioFilename: Tits or get the fuck out!!.mp3
AudioLeadIn: 0
PreviewTime: 93830
Countdown: 0
SampleSet: Normal
StackLeniency: 0.7
Mode: 1
LetterboxInBreaks: 0
WidescreenStoryboard: 0

[Editor]
Bookmarks: 20807,56262
DistanceSpacing: 0.4
BeatDivisor: 2
GridSize: 4
TimelineZoom: 1.3

[Metadata]
Title:Tits or get the fuck out!!
TitleUnicode:Tits or get the fuck out!!
Artist:Morimori Atsushi
ArtistUnicode:モリモリあつし
Creator:ManP
Version:Muzukashii
Source:東方Project
Tags:Backfire KinomiCandy koyomi_222 tasuke912 SKSalt ZUN 上海アリス幻樂団 Team Shanghai Alice 東方神霊廟 Ten Desires. Touhou Shinreibyou デザイアドライブ Desire Drive アレンジ Arrange
BeatmapID:746616
BeatmapSetID:334489

[Difficulty]
HPDrainRate:5
CircleSize:2
OverallDifficulty:5
ApproachRate:5
SliderMultiplier:1.4
SliderTickRate:1

[Events]
//Background and Video events
0,0,"86483634.jpg",0,50
//Break Periods
//Storyboard Layer 0 (Background)
//Storyboard Layer 1 (Fail)
//Storyboard Layer 2 (Pass)
//Storyboard Layer 3 (Foreground)
//Storyboard Sound Samples

[TimingPoints]
3352,272.727272727273,4,1,0,100,1,0
94988,-100,4,1,0,100,0,1
112442,-100,4,1,0,100,0,0
121442,-100,4,1,0,100,0,1
129897,-100,4,1,0,100,0,0

[HitObjects]
256,192,3352,5,0,0:0:0:0:
256,192,3897,1,2,0:0:0:0:
256,192,4442,1,0,0:0:0:0:
256,192,4715,1,0,0:0:0:0:
256,192,4988,1,2,0:0:0:0:
256,192,5124,1,0,0:0:0:0:
256,192,5397,1,2,0:0:0:0:
256,192,5533,1,0,0:0:0:0:
256,192,6079,1,2,0:0:0:0:
256,192,6624,1,0,0:0:0:0:
256,192,6897,1,0,0:0:0:0:
256,192,7170,1,0,0:0:0:0:
256,192,7306,1,0,0:0:0:0:
256,192,7579,1,2,0:0:0:0:
256,192,7715,1,0,0:0:0:0:
256,192,8261,1,2,0:0:0:0:
256,192,8806,1,0,0:0:0:0:
256,192,9079,1,0,0:0:0:0:
256,192,9352,1,0,0:0:0:0:
256,192,9488,1,2,0:0:0:0:
256,192,9761,1,2,0:0:0:0:
256,192,9897,1,0,0:0:0:0:
256,192,10442,1,2,0:0:0:0:
256,192,10988,12,2,11806,0:0:0:0:
256,192,12079,5,0,0:0:0:0:
256,192,12624,1,2,0:0:0:0:
256,192,13170,1,0,0:0:0:0:
256,192,13442,1,0,0:0:0:0:
256,192,13715,1,2,0:0:0:0:
256,192,13852,1,0,0:0:0:0:
256,192,14124,1,2,0:0:0:0:
256,192,14261,1,0,0:0:0:0:
256,192,14806,1,2,0:0:0:0:
256,192,15352,1,0,0:0:0:0:
256,192,15624,1,0,0:0:0:0:
256,192,15897,1,0,0:0:0:0:
256,192,16033,1,0,0:0:0:0:
256,192,16306,1,2,0:0:0:0:
256,192,16442,1,0,0:0:0:0:
256,192,16988,1,2,0:0:0:0:
256,192,17533,1,0,0:0:0:0:
256,192,17806,1,0,0:0:0:0:
256,192,18079,1,0,0:0:0:0:
256,192,18215,1,2,0:0:0:0:
256,192,18488,1,2,0:0:0:0:
256,192,18624,1,0,0:0:0:0:
256,192,19170,1,2,0:0:0:0:
256,192,19715,1,4,0:0:0:0:
256,192,19988,1,4,0:0:0:0:
256,192,20261,1,6,0:0:0:0:
256,192,20806,1,0,0:0:0:0:
256,192,21079,1,0,0:0:0:0:
256,192,21352,1,2,0:0:0:0:
256,192,21488,1,0,0:0:0:0:
256,192,21624,1,0,0:0:0:0:
256,192,21897,1,0,0:0:0:0:
256,192,22170,1,0,0:0:0:0:
256,192,22306,1,0,0:0:0:0:
256,192,22442,1,2,0:0:0:0:
256,192,22715,1,2,0:0:0:0:
256,192,22988,1,0,0:0:0:0:
256,192,23261,1,2,0:0:0:0:
256,192,23397,1,0,0:0:0:0:
256,192,23533,1,2,0:0:0:0:
364,220,23806,1,0,0:0:0:0:
256,192,24079,1,2,0:0:0:0:
256,192,24352,1,0,0:0:0:0:
256,192,24624,1,0,0:0:0:0:
256,192,24761,1,0,0:0:0:0:
256,192,24897,1,2,0:0:0:0:
256,192,25033,1,0,0:0:0:0:
256,192,25170,1,0,0:0:0:0:
256,192,25442,1,0,0:0:0:0:
256,192,25715,1,2,0:0:0:0:
256,192,25988,1,0,0:0:0:0:
256,192,26261,1,0,0:0:0:0:
256,192,26397,1,2,0:0:0:0:
256,192,26533,1,0,0:0:0:0:
256,192,26670,1,0,0:0:0:0:
256,192,26806,1,2,0:0:0:0:
256,192,27079,1,0,0:0:0:0:
256,192,27215,1,2,0:0:0:0:
256,192,27352,1,0,0:0:0:0:
256,192,27624,1,0,0:0:0:0:
256,192,27897,1,2,0:0:0:0:
256,192,28170,1,0,0:0:0:0:
256,192,28306,1,2,0:0:0:0:
256,192,28442,1,4,0:0:0:0:
256,192,28715,1,4,0:0:0:0:
256,192,28988,1,6,0:0:0:0:
256,192,29533,1,2,0:0:0:0:
256,192,29806,1,0,0:0:0:0:
256,192,30079,1,2,0:0:0:0:
256,192,30215,1,0,0:0:0:0:
256,192,30352,1,0,0:0:0:0:
256,192,30624,1,0,0:0:0:0:
256,192,30897,1,0,0:0:0:0:
256,192,31033,1,0,0:0:0:0:
256,192,31170,1,2,0:0:0:0:
256,192,31442,1,0,0:0:0:0:
256,192,31579,1,2,0:0:0:0:
256,192,31715,1,0,0:0:0:0:
256,192,31988,1,0,0:0:0:0:
256,192,32261,1,0,0:0:0:0:
256,192,32397,1,2,0:0:0:0:
256,192,32533,1,2,0:0:0:0:
256,192,32670,1,0,0:0:0:0:
256,192,32806,1,0,0:0:0:0:
256,192,33011,1,0,0:0:0:0:
256,192,33352,1,0,0:0:0:0:
256,192,33488,1,0,0:0:0:0:
256,192,33624,1,2,0:0:0:0:
256,192,33761,1,2,0:0:0:0:
256,192,33897,1,0,0:0:0:0:
256,192,34170,1,0,0:0:0:0:
256,192,34442,1,2,0:0:0:0:
256,192,34715,1,0,0:0:0:0:
256,192,34852,1,2,0:0:0:0:
256,192,34988,1,0,0:0:0:0:
256,192,35261,1,0,0:0:0:0:
256,192,35533,1,2,0:0:0:0:
256,192,35806,1,0,0:0:0:0:
256,192,35942,1,2,0:0:0:0:
256,192,36079,1,0,0:0:0:0:
256,192,36352,1,0,0:0:0:0:
256,192,36624,1,2,0:0:0:0:
256,192,36761,1,0,0:0:0:0:
256,192,36897,1,2,0:0:0:0:
256,192,37170,8,0,37988,0:0:0:0:
256,192,38261,5,4,0:0:0:0:
256,192,38806,1,2,0:0:0:0:
256,192,39352,1,0,0:0:0:0:
256,192,39624,1,0,0:0:0:0:
256,192,39897,1,2,0:0:0:0:
256,192,40442,1,0,0:0:0:0:
256,192,40579,1,0,0:0:0:0:
256,192,40715,1,0,0:0:0:0:
256,192,40988,1,2,0:0:0:0:
256,192,41124,1,2,0:0:0:0:
256,192,41261,1,2,0:0:0:0:
256,192,41533,1,2,0:0:0:0:
256,192,41806,1,0,0:0:0:0:
256,192,41942,1,0,0:0:0:0:
256,192,42079,1,2,0:0:0:0:
256,192,42352,1,2,0:0:0:0:
256,192,42624,1,4,0:0:0:0:
256,192,43170,1,2,0:0:0:0:
256,192,43715,1,0,0:0:0:0:
256,192,43988,1,0,0:0:0:0:
256,192,44261,1,2,0:0:0:0:
271,219,44806,1,0,0:0:0:0:
256,192,44942,1,2,0:0:0:0:
256,192,45079,1,0,0:0:0:0:
256,192,45352,1,2,0:0:0:0:
256,192,45488,1,0,0:0:0:0:
256,192,45624,1,2,0:0:0:0:
256,192,45897,1,0,0:0:0:0:
256,192,46170,1,0,0:0:0:0:
256,192,46306,1,0,0:0:0:0:
256,192,46442,1,6,0:0:0:0:
256,192,46715,1,6,0:0:0:0:
256,192,46988,1,4,0:0:0:0:
256,192,47533,1,2,0:0:0:0:
256,192,48079,1,0,0:0:0:0:
252,80,48352,1,0,0:0:0:0:
256,192,48624,1,2,0:0:0:0:
256,192,49170,1,0,0:0:0:0:
256,192,49306,1,0,0:0:0:0:
256,192,49442,1,0,0:0:0:0:
256,192,49715,1,2,0:0:0:0:
256,192,49852,1,2,0:0:0:0:
256,192,49988,1,2,0:0:0:0:
256,192,50261,1,2,0:0:0:0:
256,192,50533,1,0,0:0:0:0:
256,192,50670,1,0,0:0:0:0:
256,192,50806,1,2,0:0:0:0:
256,192,51079,1,2,0:0:0:0:
256,192,51352,1,0,0:0:0:0:
256,192,51488,1,0,0:0:0:0:
256,192,51624,1,0,0:0:0:0:
256,192,51692,1,0,0:0:0:0:
256,192,51761,1,0,0:0:0:0:
256,192,51897,1,2,0:0:0:0:
256,192,52170,1,2,0:0:0:0:
256,192,52306,1,2,0:0:0:0:
256,192,52442,1,0,0:0:0:0:
256,192,52715,1,0,0:0:0:0:
256,192,52988,1,2,0:0:0:0:
256,192,53261,1,6,0:0:0:0:
256,192,53533,1,0,0:0:0:0:
256,192,53806,1,0,0:0:0:0:
256,192,53942,1,0,0:0:0:0:
256,192,54079,1,2,0:0:0:0:
256,192,54624,1,0,0:0:0:0:
256,192,54761,1,2,0:0:0:0:
256,192,54897,1,0,0:0:0:0:
256,192,55033,1,0,0:0:0:0:
256,192,55170,1,2,0:0:0:0:
256,192,55442,1,2,0:0:0:0:
256,192,55579,1,2,0:0:0:0:
256,192,55715,1,0,0:0:0:0:
256,192,55988,1,0,0:0:0:0:
256,192,56261,1,2,0:0:0:0:
256,192,56533,1,0,0:0:0:0:
256,192,56806,1,0,0:0:0:0:
256,192,57079,1,0,0:0:0:0:
256,192,57215,1,0,0:0:0:0:
256,192,57352,1,2,0:0:0:0:
256,192,57624,1,2,0:0:0:0:
256,192,57761,1,0,0:0:0:0:
256,192,57897,1,0,0:0:0:0:
256,192,58170,1,0,0:0:0:0:
256,192,58442,1,2,0:0:0:0:
256,192,58715,1,0,0:0:0:0:
256,192,58852,1,2,0:0:0:0:
256,192,58988,1,2,0:0:0:0:
256,192,59124,1,0,0:0:0:0:
256,192,59397,1,2,0:0:0:0:
256,192,59533,1,0,0:0:0:0:
256,192,59670,1,0,0:0:0:0:
256,192,59806,1,2,0:0:0:0:
256,192,60079,1,0,0:0:0:0:
256,192,60352,1,0,0:0:0:0:
256,192,60624,1,2,0:0:0:0:
256,192,60897,1,0,0:0:0:0:
256,192,61170,1,0,0:0:0:0:
256,192,61306,1,0,0:0:0:0:
256,192,61442,1,2,0:0:0:0:
256,192,61715,1,0,0:0:0:0:
256,192,61988,1,2,0:0:0:0:
256,192,62261,1,2,0:0:0:0:
256,192,62329,1,2,0:0:0:0:
256,192,62397,1,2,0:0:0:0:
256,192,62533,1,0,0:0:0:0:
256,192,62670,1,2,0:0:0:0:
256,192,62806,1,0,0:0:0:0:
256,192,62942,1,2,0:0:0:0:
256,192,63079,1,2,0:0:0:0:
256,192,63352,1,0,0:0:0:0:
256,192,63624,1,4,0:0:0:0:
256,192,63897,1,2,0:0:0:0:
256,192,64442,1,0,0:0:0:0:
256,192,64715,1,0,0:0:0:0:
256,192,64988,1,2,0:0:0:0:
256,192,65124,1,0,0:0:0:0:
256,192,65261,1,0,0:0:0:0:
256,192,65533,1,0,0:0:0:0:
256,192,65806,1,0,0:0:0:0:
256,192,65942,1,0,0:0:0:0:
256,192,66079,1,2,0:0:0:0:
256,192,66352,1,0,0:0:0:0:
256,192,66488,1,2,0:0:0:0:
256,192,66624,1,0,0:0:0:0:
256,192,66897,1,0,0:0:0:0:
256,192,67170,1,0,0:0:0:0:
256,192,67306,1,2,0:0:0:0:
256,192,67442,1,2,0:0:0:0:
256,192,67579,1,0,0:0:0:0:
256,192,67715,1,0,0:0:0:0:
256,192,67920,1,0,0:0:0:0:
256,192,68261,1,0,0:0:0:0:
256,192,68397,1,0,0:0:0:0:
255,192,68533,1,2,0:0:0:0:
256,192,68670,1,2,0:0:0:0:
256,192,68806,1,0,0:0:0:0:
256,192,69079,1,0,0:0:0:0:
255,192,69352,1,2,0:0:0:0:
255,192,69624,1,0,0:0:0:0:
255,192,69761,1,2,0:0:0:0:
256,192,69897,1,0,0:0:0:0:
255,192,70170,1,0,0:0:0:0:
255,192,70442,1,2,0:0:0:0:
255,192,70715,1,0,0:0:0:0:
255,192,70852,1,2,0:0:0:0:
255,192,70988,1,0,0:0:0:0:
255,192,71261,1,0,0:0:0:0:
256,192,71533,1,2,0:0:0:0:
255,192,71670,1,0,0:0:0:0:
255,192,71806,1,2,0:0:0:0:
256,192,72079,12,0,72897,0:0:0:0:
256,192,73170,5,4,0:0:0:0:
256,192,75352,12,0,77261,0:0:0:0:
256,192,77533,5,4,0:0:0:0:
256,192,78215,1,2,0:0:0:0:
256,192,78352,1,2,0:0:0:0:
256,192,78624,1,2,0:0:0:0:
256,192,78897,1,2,0:0:0:0:
256,192,79170,1,0,0:0:0:0:
256,192,79442,1,2,0:0:0:0:
256,192,80397,1,0,0:0:0:0:
256,192,80533,1,0,0:0:0:0:
256,192,80806,1,0,0:0:0:0:
256,192,81079,1,0,0:0:0:0:
256,192,81352,1,2,0:0:0:0:
256,192,81624,1,0,0:0:0:0:
256,192,82170,1,0,0:0:0:0:
256,192,82442,1,2,0:0:0:0:
256,192,82988,1,2,0:0:0:0:
256,192,83261,1,0,0:0:0:0:
256,192,83806,1,2,0:0:0:0:
256,192,84079,1,0,0:0:0:0:
256,192,84488,1,2,0:0:0:0:
256,192,84897,1,2,0:0:0:0:
256,192,85306,1,0,0:0:0:0:
256,192,85715,1,0,0:0:0:0:
256,192,85988,1,2,0:0:0:0:
256,192,86261,1,0,0:0:0:0:
256,192,86533,1,2,0:0:0:0:
256,192,86942,1,0,0:0:0:0:
256,192,87079,1,2,0:0:0:0:
256,192,87215,1,2,0:0:0:0:
256,192,87352,1,0,0:0:0:0:
256,192,87624,1,2,0:0:0:0:
256,192,88033,1,0,0:0:0:0:
256,192,88170,1,2,0:0:0:0:
256,192,88306,1,2,0:0:0:0:
256,192,88442,1,0,0:0:0:0:
256,192,88715,1,0,0:0:0:0:
256,192,89124,1,0,0:0:0:0:
256,192,89261,1,2,0:0:0:0:
256,192,89397,1,0,0:0:0:0:
256,192,89533,1,0,0:0:0:0:
256,192,89806,1,0,0:0:0:0:
256,192,90079,1,2,0:0:0:0:
256,192,90215,1,2,0:0:0:0:
256,192,90352,1,2,0:0:0:0:
256,192,90624,1,2,0:0:0:0:
256,192,90897,1,0,0:0:0:0:
256,192,91170,1,2,0:0:0:0:
256,192,91442,1,0,0:0:0:0:
256,192,91715,1,2,0:0:0:0:
256,192,91852,1,0,0:0:0:0:
256,192,91988,1,2,0:0:0:0:
256,192,92261,1,0,0:0:0:0:
256,192,92533,1,2,0:0:0:0:
256,192,92670,1,2,0:0:0:0:
256,192,92806,1,0,0:0:0:0:
256,192,93079,1,0,0:0:0:0:
256,192,93352,1,2,0:0:0:0:
256,192,93624,1,0,0:0:0:0:
256,192,93761,1,2,0:0:0:0:
256,192,93897,1,0,0:0:0:0:
256,192,93965,1,0,0:0:0:0:
256,192,94033,1,0,0:0:0:0:
256,192,94170,1,2,0:0:0:0:
256,192,94306,1,0,0:0:0:0:
256,192,94442,1,2,0:0:0:0:
208,224,94579,1,2,0:0:0:0:
300,236,94715,1,0,0:0:0:0:
256,192,94988,1,4,0:0:0:0:
256,192,95261,1,2,0:0:0:0:
256,192,95533,1,0,0:0:0:0:
256,192,95806,1,2,0:0:0:0:
256,192,96079,1,0,0:0:0:0:
256,192,96215,1,0,0:0:0:0:
256,192,96352,1,2,0:0:0:0:
256,192,96488,1,2,0:0:0:0:
256,192,96624,1,0,0:0:0:0:
256,192,96897,1,2,0:0:0:0:
256,192,97170,1,0,0:0:0:0:
256,192,97442,1,0,0:0:0:0:
256,192,97715,1,2,0:0:0:0:
256,192,97988,1,0,0:0:0:0:
256,192,98261,1,0,0:0:0:0:
256,192,98397,1,0,0:0:0:0:
256,192,98533,1,2,0:0:0:0:
256,192,98806,1,0,0:0:0:0:
256,192,99079,1,2,0:0:0:0:
256,192,99215,1,0,0:0:0:0:
423,340,99352,1,2,0:0:0:0:
256,192,99624,1,0,0:0:0:0:
256,192,99897,1,2,0:0:0:0:
256,192,100170,1,0,0:0:0:0:
256,192,100306,1,2,0:0:0:0:
256,192,100442,1,0,0:0:0:0:
256,192,100715,1,2,0:0:0:0:
256,192,100988,1,0,0:0:0:0:
256,192,101124,1,0,0:0:0:0:
256,192,101261,1,2,0:0:0:0:
256,192,101533,1,0,0:0:0:0:
256,192,101806,1,2,0:0:0:0:
256,192,101942,1,0,0:0:0:0:
256,192,102079,1,2,0:0:0:0:
256,192,102215,1,0,0:0:0:0:
256,192,102352,1,0,0:0:0:0:
256,192,102488,1,0,0:0:0:0:
256,192,102624,1,2,0:0:0:0:
256,192,102897,1,0,0:0:0:0:
256,192,103170,1,2,0:0:0:0:
256,192,103306,1,0,0:0:0:0:
256,192,103442,1,2,0:0:0:0:
256,192,103988,1,6,0:0:0:0:
256,192,104261,1,0,0:0:0:0:
256,192,104533,1,2,0:0:0:0:
256,192,104806,1,0,0:0:0:0:
236,236,104942,1,0,0:0:0:0:
256,192,105079,1,0,0:0:0:0:
256,192,105215,1,2,0:0:0:0:
256,192,105352,1,2,0:0:0:0:
256,192,105624,1,0,0:0:0:0:
256,192,105897,1,2,0:0:0:0:
256,192,106170,1,2,0:0:0:0:
256,192,106306,1,0,0:0:0:0:
256,192,106442,1,2,0:0:0:0:
256,192,106715,1,0,0:0:0:0:
256,192,106852,1,2,0:0:0:0:
256,192,106988,1,2,0:0:0:0:
256,192,107124,1,0,0:0:0:0:
256,192,107397,1,0,0:0:0:0:
256,192,107533,1,2,0:0:0:0:
256,192,107806,1,0,0:0:0:0:
256,192,107942,1,0,0:0:0:0:
256,192,108079,1,2,0:0:0:0:
256,192,108352,1,0,0:0:0:0:
256,192,108624,1,2,0:0:0:0:
256,192,108897,1,0,0:0:0:0:
256,192,109033,1,2,0:0:0:0:
256,192,109170,1,0,0:0:0:0:
256,192,109306,1,0,0:0:0:0:
256,192,109374,1,0,0:0:0:0:
256,192,109442,1,0,0:0:0:0:
256,192,109579,1,0,0:0:0:0:
256,192,109715,1,2,0:0:0:0:
256,192,109852,1,2,0:0:0:0:
256,192,109988,1,2,0:0:0:0:
256,192,110261,1,0,0:0:0:0:
256,192,110533,1,0,0:0:0:0:
256,192,110670,1,0,0:0:0:0:
256,192,110806,1,2,0:0:0:0:
256,192,111079,1,0,0:0:0:0:
256,192,111352,1,2,0:0:0:0:
256,192,111488,1,0,0:0:0:0:
256,192,111624,1,0,0:0:0:0:
256,192,111761,1,0,0:0:0:0:
256,192,111897,1,2,0:0:0:0:
256,192,112033,1,0,0:0:0:0:
256,192,112170,1,2,0:0:0:0:
256,192,112442,1,2,0:0:0:0:
256,192,112715,1,2,0:0:0:0:
256,192,112852,1,0,0:0:0:0:
256,192,113261,1,2,0:0:0:0:
256,192,113533,1,0,0:0:0:0:
256,192,113806,1,0,0:0:0:0:
256,192,114079,1,2,0:0:0:0:
256,192,114352,1,2,0:0:0:0:
256,192,114624,1,0,0:0:0:0:
256,192,114897,1,2,0:0:0:0:
256,192,115033,1,0,0:0:0:0:
256,192,115442,1,2,0:0:0:0:
256,192,115715,1,0,0:0:0:0:
256,192,115988,1,0,0:0:0:0:
256,192,116261,1,2,0:0:0:0:
256,192,116533,1,0,0:0:0:0:
256,192,116806,1,0,0:0:0:0:
256,192,116942,1,0,0:0:0:0:
256,192,117079,1,2,0:0:0:0:
256,192,117215,1,0,0:0:0:0:
256,192,117488,1,0,0:0:0:0:
256,192,117624,1,2,0:0:0:0:
256,192,117897,1,0,0:0:0:0:
256,192,118033,1,0,0:0:0:0:
256,192,118170,1,2,0:0:0:0:
256,192,118306,1,2,0:0:0:0:
256,192,118579,1,0,0:0:0:0:
256,192,118715,1,2,0:0:0:0:
256,192,118988,1,2,0:0:0:0:
256,192,119125,1,0,0:0:0:0:
256,192,119261,1,0,0:0:0:0:
256,192,119533,1,0,0:0:0:0:
256,192,119670,1,0,0:0:0:0:
256,192,119806,1,2,0:0:0:0:
256,192,119942,1,0,0:0:0:0:
256,192,120079,1,2,0:0:0:0:
256,192,120352,1,0,0:0:0:0:
256,192,120488,1,2,0:0:0:0:
256,192,120624,1,0,0:0:0:0:
256,192,120692,1,0,0:0:0:0:
256,192,120761,1,0,0:0:0:0:
256,192,120897,1,0,0:0:0:0:
256,192,121170,1,0,0:0:0:0:
256,192,121442,1,6,0:0:0:0:
256,192,121715,1,0,0:0:0:0:
256,192,121988,1,6,0:0:0:0:
256,192,122533,1,6,0:0:0:0:
256,192,122806,1,0,0:0:0:0:
256,192,123079,1,6,0:0:0:0:
256,192,123624,1,6,0:0:0:0:
256,192,123897,1,0,0:0:0:0:
256,192,124170,1,6,0:0:0:0:
256,192,124715,1,6,0:0:0:0:
256,192,124988,1,0,0:0:0:0:
256,192,125261,1,6,0:0:0:0:
256,192,125533,1,0,0:0:0:0:
256,192,125670,1,2,0:0:0:0:
256,192,125806,1,0,0:0:0:0:
256,192,126079,1,0,0:0:0:0:
256,192,126352,1,2,0:0:0:0:
256,192,126488,1,2,0:0:0:0:
256,192,126624,1,0,0:0:0:0:
256,192,126897,1,2,0:0:0:0:
256,192,127170,1,0,0:0:0:0:
256,192,127306,1,0,0:0:0:0:
256,192,127442,1,2,0:0:0:0:
256,192,127715,1,0,0:0:0:0:
256,192,127852,1,2,0:0:0:0:
256,192,127988,1,0,0:0:0:0:
256,192,128124,1,2,0:0:0:0:
256,192,128261,1,0,0:0:0:0:
256,192,128397,1,0,0:0:0:0:
256,192,128533,1,2,0:0:0:0:
256,192,128806,1,0,0:0:0:0:
256,192,128874,1,0,0:0:0:0:
256,192,128942,1,0,0:0:0:0:
256,192,129079,1,0,0:0:0:0:
256,192,129352,1,0,0:0:0:0:
256,192,129488,1,0,0:0:0:0:
256,192,129624,1,2,0:0:0:0:
256,192,129897,1,0,0:0:0:0:
256,192,130170,1,2,0:0:0:0:
256,192,130442,1,0,0:0:0:0:
256,192,130715,1,2,0:0:0:0:
256,192,130988,1,0,0:0:0:0:
256,192,131261,1,0,0:0:0:0:
256,192,131397,1,0,0:0:0:0:
256,192,131533,1,2,0:0:0:0:
256,192,131806,1,2,0:0:0:0:
256,192,131942,1,0,0:0:0:0:
256,192,132079,1,0,0:0:0:0:
256,192,132352,1,0,0:0:0:0:
256,192,132624,1,2,0:0:0:0:
256,192,132897,1,0,0:0:0:0:
256,192,133034,1,2,0:0:0:0:
256,192,133170,1,2,0:0:0:0:
256,192,133306,1,0,0:0:0:0:
256,192,133579,1,2,0:0:0:0:
256,192,133715,1,0,0:0:0:0:
256,192,133852,1,0,0:0:0:0:
256,192,133988,1,2,0:0:0:0:
256,192,134261,1,0,0:0:0:0:
256,192,134533,1,0,0:0:0:0:
256,192,134670,1,0,0:0:0:0:
256,192,134806,1,2,0:0:0:0:
256,192,135079,1,0,0:0:0:0:
256,192,135352,1,0,0:0:0:0:
256,192,135488,1,0,0:0:0:0:
256,192,135624,1,2,0:0:0:0:
256,192,135897,1,0,0:0:0:0:
256,192,136170,1,2,0:0:0:0:
256,192,136442,1,2,0:0:0:0:
256,192,136579,1,0,0:0:0:0:
256,192,136715,1,0,0:0:0:0:
256,192,136852,1,0,0:0:0:0:
256,192,136988,1,2,0:0:0:0:
256,192,137124,1,0,0:0:0:0:
256,192,137261,1,2,0:0:0:0:
256,192,137533,1,4,0:0:0:0:
256,192,137806,1,4,0:0:0:0:
256,192,138079,1,6,0:0:0:0:
256,192,138624,1,0,0:0:0:0:
256,192,138897,1,0,0:0:0:0:
256,192,139170,1,2,0:0:0:0:
256,192,139442,1,0,0:0:0:0:
312,200,139579,1,0,0:0:0:0:
256,192,139715,1,2,0:0:0:0:
256,192,139988,1,0,0:0:0:0:
256,192,140261,1,2,0:0:0:0:
256,192,140533,1,0,0:0:0:0:
256,192,140670,1,2,0:0:0:0:
256,192,140806,1,0,0:0:0:0:
256,192,141079,1,0,0:0:0:0:
256,192,141352,1,0,0:0:0:0:
256,192,141488,1,2,0:0:0:0:
256,192,141624,1,2,0:0:0:0:
256,192,141761,1,0,0:0:0:0:
256,192,141897,1,0,0:0:0:0:
256,192,142102,1,0,0:0:0:0:
256,192,142442,1,0,0:0:0:0:
256,192,142579,1,0,0:0:0:0:
256,192,142715,1,2,0:0:0:0:
256,192,142852,1,2,0:0:0:0:
256,192,142988,1,0,0:0:0:0:
256,192,143261,1,0,0:0:0:0:
256,192,143533,1,2,0:0:0:0:
256,192,143806,1,0,0:0:0:0:
256,192,143942,1,2,0:0:0:0:
256,192,144079,1,0,0:0:0:0:
256,192,144352,1,0,0:0:0:0:
256,192,144624,1,2,0:0:0:0:
256,192,144897,1,0,0:0:0:0:
256,192,145033,1,2,0:0:0:0:
256,192,145170,1,0,0:0:0:0:
256,192,145442,1,0,0:0:0:0:
256,192,145715,1,2,0:0:0:0:
256,192,145988,1,2,0:0:0:0:
256,192,146261,1,0,0:0:0:0:
256,192,146533,1,0,0:0:0:0:
256,192,146670,1,0,0:0:0:0:
256,192,146806,1,2,0:0:0:0:
256,192,147079,1,2,0:0:0:0:
256,192,147352,1,0,0:0:0:0:
256,192,147897,1,2,0:0:0:0:
256,192,148170,1,2,0:0:0:0:
256,192,148306,1,2,0:0:0:0:
256,192,148442,1,0,0:0:0:0:
256,192,148715,1,2,0:0:0:0:
256,192,148988,1,0,0:0:0:0:
256,192,149124,1,0,0:0:0:0:
256,192,149261,1,2,0:0:0:0:
256,192,149397,1,2,0:0:0:0:
