osu file format v14

[General]
AudioFilename: Tits or get the fuck out!!.mp3
AudioLeadIn: 0
PreviewTime: 93830
Countdown: 0
SampleSet: Normal
StackLeniency: 0.7
Mode: 1
LetterboxInBreaks: 0
WidescreenStoryboard: 0

[Editor]
DistanceSpacing: 0.8
BeatDivisor: 12
GridSize: 32
TimelineZoom: 2.5

[Metadata]
Title:Tits or get the fuck out!!
TitleUnicode:Tits or get the fuck out!!
Artist:Morimori Atsushi
ArtistUnicode:モリモリあつし
Creator:ManP
Version:Backfire's Ura Oni
Source:東方Project
Tags:Backfire KinomiCandy koyomi_222 tasuke912 SKSalt ZUN 上海アリス幻樂団 Team Shanghai Alice 東方神霊廟 Ten Desires. Touhou Shinreibyou デザイアドライブ Desire Drive アレンジ Arrange
BeatmapID:744165
BeatmapSetID:334489

[Difficulty]
HPDrainRate:6
CircleSize:2
OverallDifficulty:7
ApproachRate:4
SliderMultiplier:1.4
SliderTickRate:1

[Events]
//Background and Video events
0,0,"86483634.jpg",0,50
//Break Periods
//Storyboard Layer 0 (Background)
//Storyboard Layer 1 (Fail)
//Storyboard Layer 2 (Pass)
//Storyboard Layer 3 (Foreground)
//Storyboard Sound Samples

[TimingPoints]
3352,272.727272727273,4,1,0,100,1,0
3352,-133.333333333333,4,1,0,100,0,0
12079,-114.942528735632,4,1,0,100,0,0
19715,-108.695652173913,4,1,0,100,0,0
19988,-105.263157894737,4,1,0,100,0,0
20261,-102.040816326531,4,1,0,100,0,0
20806,-100,4,1,0,100,0,0
55715,-100,4,1,0,100,0,0
75079,-111.111111111111,4,1,0,100,0,0
86261,-100,4,1,0,100,0,0
93829,-95.2380952380952,4,1,0,100,0,0
94988,-90.9090909090909,4,1,0,100,0,1
112442,-100,4,1,0,100,0,0
116670,-95.2380952380951,4,1,0,100,0,0
116806,-90.9090909090909,4,1,0,100,0,0
121442,-90.9090909090909,4,1,0,100,0,1
129897,-100,4,1,0,100,0,0
138761,-111.111111111111,4,1,0,100,0,0

[HitObjects]
256,192,1170,8,0,3216,0:0:0:0:
256,192,3352,5,4,0:0:0:0:
256,192,3624,1,0,0:0:0:0:
256,192,3897,1,8,0:0:0:0:
256,192,4170,1,0,0:0:0:0:
256,192,4306,1,0,0:0:0:0:
256,192,4442,1,8,0:0:0:0:
256,192,4579,1,8,0:0:0:0:
256,192,4715,1,0,0:0:0:0:
256,192,4988,1,8,0:0:0:0:
256,192,5261,1,0,0:0:0:0:
257,191,5397,1,8,0:0:0:0:
256,192,5533,1,4,0:0:0:0:
256,192,5806,1,0,0:0:0:0:
256,192,6079,1,8,0:0:0:0:
257,191,6215,1,0,0:0:0:0:
256,192,6352,1,0,0:0:0:0:
256,192,6488,1,0,0:0:0:0:
256,192,6624,1,8,0:0:0:0:
256,192,6897,1,0,0:0:0:0:
256,192,7170,1,8,0:0:0:0:
256,192,7306,1,0,0:0:0:0:
256,192,7442,1,0,0:0:0:0:
256,192,7579,1,8,0:0:0:0:
256,192,7715,1,4,0:0:0:0:
256,192,7988,1,0,0:0:0:0:
256,192,8261,1,8,0:0:0:0:
256,192,8533,1,0,0:0:0:0:
256,192,8670,1,0,0:0:0:0:
257,191,8806,1,8,0:0:0:0:
256,192,8942,1,0,0:0:0:0:
256,192,9079,1,0,0:0:0:0:
256,192,9352,1,8,0:0:0:0:
256,192,9624,1,8,0:0:0:0:
256,192,9761,1,8,0:0:0:0:
256,192,9897,1,4,0:0:0:0:
256,192,10170,1,0,0:0:0:0:
256,192,10442,1,8,0:0:0:0:
256,192,10715,1,0,0:0:0:0:
256,192,10852,1,0,0:0:0:0:
256,192,10988,1,8,0:0:0:0:
256,192,11124,1,0,0:0:0:0:
256,192,11261,1,8,0:0:0:0:
256,192,11533,1,8,0:0:0:0:
256,192,11670,1,0,0:0:0:0:
256,192,11806,1,8,0:0:0:0:
256,192,11942,1,0,0:0:0:0:
256,192,12079,1,4,0:0:0:0:
256,192,12352,1,0,0:0:0:0:
256,192,12624,1,8,0:0:0:0:
256,192,12761,1,0,0:0:0:0:
256,192,12897,1,0,0:0:0:0:
256,192,13033,1,0,0:0:0:0:
256,192,13170,1,8,0:0:0:0:
256,192,13306,1,0,0:0:0:0:
256,192,13442,1,0,0:0:0:0:
256,192,13715,1,8,0:0:0:0:
256,192,13852,1,0,0:0:0:0:
256,192,13988,1,0,0:0:0:0:
256,192,14124,1,8,0:0:0:0:
256,192,14261,1,4,0:0:0:0:
256,192,14533,1,0,0:0:0:0:
256,192,14806,1,8,0:0:0:0:
256,192,14942,1,0,0:0:0:0:
257,192,15079,1,0,0:0:0:0:
256,192,15215,1,0,0:0:0:0:
256,192,15352,1,8,0:0:0:0:
256,192,15488,1,0,0:0:0:0:
256,192,15624,1,0,0:0:0:0:
256,192,15761,1,0,0:0:0:0:
256,192,15897,1,8,0:0:0:0:
256,192,16170,1,8,0:0:0:0:
256,192,16306,1,8,0:0:0:0:
256,192,16442,1,4,0:0:0:0:
256,192,16715,1,0,0:0:0:0:
256,192,16988,1,8,0:0:0:0:
256,192,17124,1,0,0:0:0:0:
256,192,17261,1,0,0:0:0:0:
256,192,17397,1,8,0:0:0:0:
256,192,17533,1,0,0:0:0:0:
256,192,17670,1,8,0:0:0:0:
256,192,17806,1,0,0:0:0:0:
256,192,18079,1,8,0:0:0:0:
256,192,18215,1,0,0:0:0:0:
256,192,18352,1,0,0:0:0:0:
256,192,18488,1,0,0:0:0:0:
256,192,18624,1,4,0:0:0:0:
256,192,18897,1,0,0:0:0:0:
256,192,19170,1,8,0:0:0:0:
256,192,19306,1,0,0:0:0:0:
256,192,19579,1,8,0:0:0:0:
256,192,19715,1,4,0:0:0:0:
256,192,19988,1,4,0:0:0:0:
256,192,20261,1,12,0:0:0:0:
256,192,20806,1,4,0:0:0:0:
256,192,20942,1,0,0:0:0:0:
256,192,21011,1,0,0:0:0:0:
256,192,21079,1,8,0:0:0:0:
256,192,21215,1,8,0:0:0:0:
256,192,21283,1,8,0:0:0:0:
256,192,21352,1,0,0:0:0:0:
256,192,21488,1,0,0:0:0:0:
256,192,21624,1,8,0:0:0:0:
256,192,21761,1,8,0:0:0:0:
256,192,21897,1,0,0:0:0:0:
256,191,21965,1,0,0:0:0:0:
256,192,22033,1,8,0:0:0:0:
256,192,22102,1,8,0:0:0:0:
256,192,22170,1,0,0:0:0:0:
256,192,22306,1,0,0:0:0:0:
256,192,22442,1,8,0:0:0:0:
256,192,22579,1,8,0:0:0:0:
256,192,22715,1,0,0:0:0:0:
256,192,22852,1,8,0:0:0:0:
256,192,22988,1,0,0:0:0:0:
256,192,23056,1,0,0:0:0:0:
256,192,23124,1,0,0:0:0:0:
256,192,23261,1,8,0:0:0:0:
256,192,23397,1,0,0:0:0:0:
256,192,23533,1,8,0:0:0:0:
256,192,23670,1,8,0:0:0:0:
256,192,23806,1,0,0:0:0:0:
256,192,23874,1,0,0:0:0:0:
256,192,23942,1,0,0:0:0:0:
256,192,24079,1,8,0:0:0:0:
256,192,24215,1,8,0:0:0:0:
256,192,24352,1,0,0:0:0:0:
256,192,24420,1,0,0:0:0:0:
256,192,24488,1,0,0:0:0:0:
256,192,24624,1,8,0:0:0:0:
256,192,24761,1,0,0:0:0:0:
256,192,24897,1,0,0:0:0:0:
257,191,24965,1,8,0:0:0:0:
256,192,25033,1,0,0:0:0:0:
256,192,25170,1,0,0:0:0:0:
257,191,25306,1,8,0:0:0:0:
256,192,25442,1,0,0:0:0:0:
256,192,25579,1,8,0:0:0:0:
256,192,25647,1,8,0:0:0:0:
256,192,25715,1,0,0:0:0:0:
256,192,25852,1,0,0:0:0:0:
256,192,25988,1,8,0:0:0:0:
256,192,26124,1,8,0:0:0:0:
256,192,26261,1,0,0:0:0:0:
256,192,26397,1,0,0:0:0:0:
257,191,26465,1,0,0:0:0:0:
256,192,26533,1,8,0:0:0:0:
256,192,26670,1,0,0:0:0:0:
256,192,26806,1,8,0:0:0:0:
256,192,26942,1,0,0:0:0:0:
257,191,27011,1,0,0:0:0:0:
256,192,27079,1,8,0:0:0:0:
256,192,27215,1,8,0:0:0:0:
256,192,27352,1,0,0:0:0:0:
256,192,27488,1,0,0:0:0:0:
256,192,27556,1,0,0:0:0:0:
256,192,27624,1,8,0:0:0:0:
256,192,27761,1,0,0:0:0:0:
256,192,27897,1,8,0:0:0:0:
256,192,28033,1,8,0:0:0:0:
256,192,28102,1,8,0:0:0:0:
256,192,28170,1,0,0:0:0:0:
256,192,28306,1,8,0:0:0:0:
256,192,28442,1,4,0:0:0:0:
256,192,28715,1,4,0:0:0:0:
256,192,28988,1,12,0:0:0:0:
256,192,29261,1,0,0:0:0:0:
256,192,29329,1,0,0:0:0:0:
256,192,29397,1,0,0:0:0:0:
256,192,29533,1,12,0:0:0:0:
256,191,29670,1,0,0:0:0:0:
256,192,29806,1,8,0:0:0:0:
256,191,29874,1,0,0:0:0:0:
256,192,29942,1,0,0:0:0:0:
256,192,30011,1,0,0:0:0:0:
256,192,30079,1,8,0:0:0:0:
256,192,30215,1,0,0:0:0:0:
256,192,30352,1,8,0:0:0:0:
256,192,30488,1,8,0:0:0:0:
256,192,30624,1,0,0:0:0:0:
256,192,30692,1,0,0:0:0:0:
256,192,30761,1,0,0:0:0:0:
256,192,30897,1,8,0:0:0:0:
256,192,31033,1,0,0:0:0:0:
256,192,31170,1,8,0:0:0:0:
256,192,31238,1,8,0:0:0:0:
256,192,31306,1,0,0:0:0:0:
256,192,31442,1,0,0:0:0:0:
256,192,31579,1,8,0:0:0:0:
256,192,31715,1,0,0:0:0:0:
256,192,31783,1,0,0:0:0:0:
256,192,31852,1,0,0:0:0:0:
256,192,31920,1,0,0:0:0:0:
256,192,31988,1,8,0:0:0:0:
256,192,32124,1,0,0:0:0:0:
256,192,32261,1,8,0:0:0:0:
256,192,32397,1,8,0:0:0:0:
257,191,32465,1,8,0:0:0:0:
256,192,32533,1,0,0:0:0:0:
256,192,32670,1,0,0:0:0:0:
256,192,32806,1,12,0:0:0:0:
256,192,33011,1,4,0:0:0:0:
256,192,33215,1,12,0:0:0:0:
256,192,33352,1,4,0:0:0:0:
256,192,33488,1,4,0:0:0:0:
256,192,33624,1,12,0:0:0:0:
256,192,33761,1,12,0:0:0:0:
256,192,33897,1,4,0:0:0:0:
256,191,34033,1,0,0:0:0:0:
256,192,34170,1,8,0:0:0:0:
256,192,34306,1,0,0:0:0:0:
256,192,34442,1,8,0:0:0:0:
256,192,34511,1,8,0:0:0:0:
256,192,34579,1,0,0:0:0:0:
256,192,34715,1,0,0:0:0:0:
256,192,34783,1,0,0:0:0:0:
256,192,34852,1,8,0:0:0:0:
256,192,34988,1,0,0:0:0:0:
256,191,35124,1,8,0:0:0:0:
256,191,35192,1,8,0:0:0:0:
256,192,35261,1,0,0:0:0:0:
256,192,35397,1,0,0:0:0:0:
256,192,35533,1,8,0:0:0:0:
256,192,35670,1,0,0:0:0:0:
256,192,35738,1,0,0:0:0:0:
256,192,35806,1,8,0:0:0:0:
256,192,35942,1,0,0:0:0:0:
256,192,36079,1,8,0:0:0:0:
256,191,36215,1,8,0:0:0:0:
256,191,36283,1,8,0:0:0:0:
256,192,36352,1,0,0:0:0:0:
256,191,36488,1,0,0:0:0:0:
256,192,36624,1,8,0:0:0:0:
256,191,36761,1,0,0:0:0:0:
256,191,36829,1,0,0:0:0:0:
256,192,36897,1,8,0:0:0:0:
256,191,37033,1,0,0:0:0:0:
256,192,37170,1,8,0:0:0:0:
256,192,37306,1,0,0:0:0:0:
256,192,37374,1,0,0:0:0:0:
256,192,37442,1,8,0:0:0:0:
257,191,37511,5,8,0:0:0:0:
256,192,37579,1,8,0:0:0:0:
256,192,37647,1,0,0:0:0:0:
256,192,37715,1,8,0:0:0:0:
256,192,37852,1,0,0:0:0:0:
256,192,37920,1,0,0:0:0:0:
256,192,37988,1,8,0:0:0:0:
256,192,38124,1,8,0:0:0:0:
256,192,38261,1,4,0:0:0:0:
256,192,38533,1,8,0:0:0:0:
256,192,38738,1,0,0:0:0:0:
256,192,38806,1,8,0:0:0:0:
256,191,38942,1,0,0:0:0:0:
256,192,39079,1,8,0:0:0:0:
256,191,39215,1,8,0:0:0:0:
256,192,39352,1,0,0:0:0:0:
256,192,39624,1,8,0:0:0:0:
256,192,39829,1,0,0:0:0:0:
256,192,39897,1,8,0:0:0:0:
256,191,40033,1,0,0:0:0:0:
256,192,40170,1,8,0:0:0:0:
256,191,40306,1,8,0:0:0:0:
256,192,40442,1,0,0:0:0:0:
256,192,40511,1,0,0:0:0:0:
256,192,40579,1,8,0:0:0:0:
256,192,40647,1,8,0:0:0:0:
256,192,40715,1,0,0:0:0:0:
256,192,40852,1,0,0:0:0:0:
256,192,40988,1,8,0:0:0:0:
256,192,41056,1,8,0:0:0:0:
256,192,41124,1,0,0:0:0:0:
256,192,41192,1,0,0:0:0:0:
256,192,41261,1,8,0:0:0:0:
256,192,41397,1,0,0:0:0:0:
256,192,41533,1,0,0:0:0:0:
256,191,41602,1,0,0:0:0:0:
256,192,41670,1,8,0:0:0:0:
256,191,41738,1,8,0:0:0:0:
256,191,41806,1,0,0:0:0:0:
256,192,41942,1,0,0:0:0:0:
256,192,42011,1,0,0:0:0:0:
256,192,42079,1,8,0:0:0:0:
256,192,42215,1,0,0:0:0:0:
256,192,42352,1,8,0:0:0:0:
256,192,42488,1,8,0:0:0:0:
256,192,42624,1,4,0:0:0:0:
256,192,42897,1,8,0:0:0:0:
256,192,43102,1,0,0:0:0:0:
256,192,43170,1,8,0:0:0:0:
256,192,43306,1,0,0:0:0:0:
256,192,43442,1,8,0:0:0:0:
256,192,43579,1,8,0:0:0:0:
256,192,43715,1,0,0:0:0:0:
256,192,43988,1,8,0:0:0:0:
256,192,44192,1,0,0:0:0:0:
256,192,44261,1,8,0:0:0:0:
256,192,44397,1,0,0:0:0:0:
256,192,44533,1,8,0:0:0:0:
256,192,44670,1,0,0:0:0:0:
256,192,44806,1,0,0:0:0:0:
256,192,44874,1,8,0:0:0:0:
256,192,44942,1,8,0:0:0:0:
256,192,45011,1,8,0:0:0:0:
256,192,45079,1,0,0:0:0:0:
256,192,45215,1,0,0:0:0:0:
256,192,45352,1,8,0:0:0:0:
256,192,45420,1,0,0:0:0:0:
256,192,45488,1,0,0:0:0:0:
256,192,45556,1,0,0:0:0:0:
256,192,45624,1,8,0:0:0:0:
256,192,45761,1,0,0:0:0:0:
256,192,45897,1,0,0:0:0:0:
256,192,45965,1,8,0:0:0:0:
256,192,46033,1,8,0:0:0:0:
257,192,46102,1,8,0:0:0:0:
256,192,46170,1,0,0:0:0:0:
256,192,46306,1,0,0:0:0:0:
256,192,46442,1,12,0:0:0:0:
256,192,46715,1,12,0:0:0:0:
256,192,46988,1,4,0:0:0:0:
256,192,47261,1,8,0:0:0:0:
256,192,47465,1,0,0:0:0:0:
256,192,47533,1,8,0:0:0:0:
257,191,47670,1,0,0:0:0:0:
256,192,47806,1,8,0:0:0:0:
257,191,47942,1,8,0:0:0:0:
256,192,48079,1,0,0:0:0:0:
256,192,48352,1,8,0:0:0:0:
256,192,48556,1,0,0:0:0:0:
256,192,48624,1,8,0:0:0:0:
257,191,48761,1,0,0:0:0:0:
256,192,48897,1,8,0:0:0:0:
257,191,49033,1,0,0:0:0:0:
256,192,49170,1,8,0:0:0:0:
257,191,49238,1,0,0:0:0:0:
257,191,49306,1,0,0:0:0:0:
257,191,49374,1,8,0:0:0:0:
256,192,49442,1,0,0:0:0:0:
256,192,49579,1,0,0:0:0:0:
256,192,49715,1,8,0:0:0:0:
257,191,49783,1,0,0:0:0:0:
257,191,49852,1,0,0:0:0:0:
257,191,49920,1,8,0:0:0:0:
256,192,49988,1,0,0:0:0:0:
258,191,50124,1,0,0:0:0:0:
258,191,50261,1,8,0:0:0:0:
256,192,50329,1,0,0:0:0:0:
256,192,50397,1,0,0:0:0:0:
256,192,50465,1,8,0:0:0:0:
256,192,50533,1,0,0:0:0:0:
258,191,50602,1,0,0:0:0:0:
258,191,50670,1,8,0:0:0:0:
256,192,50738,1,0,0:0:0:0:
256,192,50806,1,8,0:0:0:0:
256,192,50897,1,0,0:0:0:0:
256,192,50988,1,0,0:0:0:0:
257,191,51079,1,8,0:0:0:0:
256,192,51170,1,0,0:0:0:0:
256,191,51261,1,0,0:0:0:0:
256,192,51352,1,8,0:0:0:0:
256,192,51420,1,0,0:0:0:0:
256,192,51488,1,8,0:0:0:0:
256,191,51556,1,0,0:0:0:0:
256,192,51624,1,8,0:0:0:0:
256,192,51692,1,8,0:0:0:0:
256,192,51761,1,8,0:0:0:0:
256,192,51829,1,8,0:0:0:0:
256,192,51897,1,0,0:0:0:0:
256,192,52033,1,0,0:0:0:0:
256,192,52170,1,8,0:0:0:0:
256,192,52238,1,0,0:0:0:0:
256,192,52306,1,8,0:0:0:0:
256,192,52374,1,8,0:0:0:0:
256,192,52442,1,0,0:0:0:0:
256,192,52579,1,0,0:0:0:0:
256,192,52715,1,8,0:0:0:0:
256,191,52852,1,0,0:0:0:0:
256,192,52920,1,0,0:0:0:0:
256,192,52988,1,8,0:0:0:0:
256,192,53124,1,0,0:0:0:0:
256,192,53261,1,12,0:0:0:0:
256,192,53533,1,4,0:0:0:0:
256,191,53670,1,0,0:0:0:0:
256,191,53738,1,0,0:0:0:0:
256,191,53806,1,8,0:0:0:0:
256,191,53874,1,0,0:0:0:0:
256,191,53942,1,8,0:0:0:0:
256,192,54011,1,8,0:0:0:0:
256,192,54079,1,0,0:0:0:0:
256,191,54215,1,0,0:0:0:0:
256,192,54283,1,0,0:0:0:0:
256,192,54352,1,8,0:0:0:0:
256,191,54488,1,0,0:0:0:0:
256,192,54624,1,8,0:0:0:0:
256,192,54692,1,8,0:0:0:0:
256,192,54761,1,0,0:0:0:0:
256,192,54829,1,0,0:0:0:0:
256,192,54897,1,8,0:0:0:0:
256,191,54965,1,8,0:0:0:0:
256,191,55033,1,0,0:0:0:0:
256,192,55170,1,8,0:0:0:0:
257,191,55306,1,0,0:0:0:0:
256,192,55442,1,12,0:0:0:0:
256,192,55715,1,4,0:0:0:0:
256,192,55852,1,0,0:0:0:0:
256,192,55988,1,8,0:0:0:0:
256,192,56124,1,0,0:0:0:0:
256,192,56192,1,0,0:0:0:0:
256,192,56261,1,8,0:0:0:0:
256,192,56397,1,8,0:0:0:0:
256,192,56533,1,0,0:0:0:0:
256,192,56670,1,8,0:0:0:0:
256,192,56806,1,0,0:0:0:0:
256,192,56874,1,0,0:0:0:0:
256,192,56942,1,8,0:0:0:0:
256,192,57011,1,8,0:0:0:0:
256,192,57079,1,0,0:0:0:0:
256,192,57215,1,0,0:0:0:0:
256,192,57352,1,8,0:0:0:0:
256,192,57488,1,0,0:0:0:0:
256,192,57556,1,0,0:0:0:0:
256,192,57624,1,8,0:0:0:0:
256,192,57761,1,8,0:0:0:0:
256,192,57897,1,8,0:0:0:0:
256,192,57965,1,0,0:0:0:0:
256,192,58033,1,0,0:0:0:0:
256,192,58102,1,0,0:0:0:0:
256,192,58170,1,8,0:0:0:0:
257,192,58238,1,0,0:0:0:0:
256,192,58306,1,8,0:0:0:0:
257,192,58374,1,0,0:0:0:0:
256,192,58442,1,8,0:0:0:0:
256,192,58511,1,8,0:0:0:0:
256,192,58579,1,0,0:0:0:0:
256,192,58647,1,0,0:0:0:0:
256,192,58715,1,8,0:0:0:0:
256,192,58783,1,0,0:0:0:0:
256,192,58852,1,0,0:0:0:0:
256,192,58920,1,0,0:0:0:0:
256,192,58988,1,8,0:0:0:0:
256,192,59124,1,0,0:0:0:0:
256,192,59192,1,0,0:0:0:0:
256,192,59261,1,8,0:0:0:0:
256,192,59397,1,8,0:0:0:0:
256,192,59533,1,0,0:0:0:0:
256,192,59670,1,8,0:0:0:0:
256,192,59738,1,8,0:0:0:0:
256,192,59806,1,0,0:0:0:0:
256,192,59942,1,8,0:0:0:0:
256,192,60079,1,4,0:0:0:0:
256,192,60215,1,0,0:0:0:0:
256,192,60352,1,8,0:0:0:0:
256,192,60488,1,0,0:0:0:0:
256,192,60556,1,0,0:0:0:0:
256,192,60624,1,8,0:0:0:0:
256,192,60761,1,0,0:0:0:0:
256,192,60897,1,8,0:0:0:0:
256,192,61033,1,8,0:0:0:0:
256,192,61102,1,8,0:0:0:0:
256,192,61170,1,0,0:0:0:0:
256,192,61306,1,0,0:0:0:0:
256,192,61442,1,8,0:0:0:0:
256,192,61579,1,0,0:0:0:0:
256,192,61647,1,0,0:0:0:0:
256,192,61715,1,8,0:0:0:0:
256,192,61852,1,0,0:0:0:0:
256,192,61988,1,8,0:0:0:0:
256,192,62124,1,8,0:0:0:0:
256,192,62261,1,8,0:0:0:0:
256,192,62329,1,8,0:0:0:0:
256,192,62397,1,8,0:0:0:0:
256,192,62465,1,8,0:0:0:0:
256,192,62533,1,0,0:0:0:0:
256,192,62670,1,8,0:0:0:0:
256,192,62806,1,8,0:0:0:0:
256,192,62874,1,0,0:0:0:0:
256,192,62942,1,8,0:0:0:0:
256,192,63011,1,0,0:0:0:0:
256,192,63079,1,8,0:0:0:0:
256,192,63147,1,0,0:0:0:0:
256,192,63215,1,8,0:0:0:0:
256,192,63352,1,4,0:0:0:0:
256,192,63624,1,4,0:0:0:0:
256,192,63897,1,12,0:0:0:0:
256,192,64170,1,0,0:0:0:0:
256,192,64238,1,0,0:0:0:0:
256,192,64306,1,8,0:0:0:0:
256,192,64442,1,4,0:0:0:0:
256,192,64579,1,0,0:0:0:0:
256,192,64715,1,8,0:0:0:0:
256,192,64852,1,0,0:0:0:0:
256,192,64988,1,8,0:0:0:0:
256,192,65056,1,8,0:0:0:0:
256,192,65124,1,0,0:0:0:0:
256,192,65261,1,0,0:0:0:0:
256,192,65397,1,8,0:0:0:0:
256,192,65533,1,0,0:0:0:0:
256,192,65602,1,0,0:0:0:0:
256,192,65670,1,8,0:0:0:0:
256,192,65806,1,0,0:0:0:0:
256,192,65942,1,8,0:0:0:0:
256,192,66079,1,8,0:0:0:0:
256,192,66147,1,8,0:0:0:0:
256,192,66215,1,0,0:0:0:0:
256,192,66283,1,0,0:0:0:0:
256,192,66352,1,8,0:0:0:0:
256,192,66488,1,8,0:0:0:0:
256,192,66624,1,0,0:0:0:0:
256,192,66692,1,0,0:0:0:0:
256,192,66761,1,8,0:0:0:0:
320,192,66829,1,0,0:0:0:0:
256,192,66897,1,8,0:0:0:0:
288,192,66965,1,8,0:0:0:0:
256,192,67033,1,0,0:0:0:0:
288,192,67102,1,0,0:0:0:0:
256,192,67170,1,8,0:0:0:0:
256,192,67238,1,0,0:0:0:0:
256,192,67306,1,0,0:0:0:0:
256,192,67374,1,8,0:0:0:0:
256,192,67442,1,0,0:0:0:0:
256,192,67511,1,0,0:0:0:0:
256,192,67579,1,8,0:0:0:0:
256,192,67715,1,12,0:0:0:0:
256,192,67920,1,4,0:0:0:0:
256,192,68124,1,12,0:0:0:0:
256,192,68261,1,4,0:0:0:0:
256,192,68397,1,4,0:0:0:0:
256,192,68533,1,12,0:0:0:0:
256,192,68670,1,12,0:0:0:0:
256,192,68806,1,4,0:0:0:0:
256,192,68942,1,0,0:0:0:0:
256,192,69011,1,0,0:0:0:0:
256,192,69079,1,8,0:0:0:0:
256,192,69147,1,0,0:0:0:0:
256,192,69215,1,8,0:0:0:0:
256,192,69283,1,8,0:0:0:0:
256,192,69352,1,0,0:0:0:0:
256,192,69488,1,0,0:0:0:0:
256,192,69556,1,0,0:0:0:0:
256,192,69624,1,8,0:0:0:0:
256,192,69761,1,0,0:0:0:0:
256,192,69897,1,8,0:0:0:0:
256,191,69965,1,0,0:0:0:0:
256,191,70033,1,8,0:0:0:0:
257,192,70102,1,8,0:0:0:0:
256,192,70170,1,0,0:0:0:0:
256,192,70238,1,0,0:0:0:0:
256,192,70306,1,8,0:0:0:0:
256,191,70374,1,0,0:0:0:0:
256,192,70442,1,8,0:0:0:0:
256,192,70579,1,0,0:0:0:0:
256,191,70647,1,0,0:0:0:0:
256,192,70715,1,8,0:0:0:0:
256,192,70852,1,8,0:0:0:0:
256,192,70988,1,0,0:0:0:0:
256,192,71056,1,0,0:0:0:0:
256,192,71124,1,8,0:0:0:0:
256,192,71192,1,0,0:0:0:0:
256,192,71261,1,8,0:0:0:0:
256,192,71329,1,8,0:0:0:0:
256,192,71397,1,0,0:0:0:0:
256,192,71465,1,8,0:0:0:0:
256,192,71533,1,0,0:0:0:0:
256,192,71602,1,8,0:0:0:0:
256,192,71670,1,8,0:0:0:0:
256,192,71738,1,0,0:0:0:0:
256,192,71806,1,8,0:0:0:0:
256,192,71874,1,0,0:0:0:0:
256,192,71942,1,8,0:0:0:0:
256,192,72011,1,8,0:0:0:0:
256,192,72079,1,0,0:0:0:0:
256,192,72352,1,0,0:0:0:0:
256,192,72624,1,0,0:0:0:0:
256,192,72897,1,0,0:0:0:0:
256,192,73170,1,8,0:0:0:0:
256,192,75352,8,0,77397,0:0:0:0:
256,192,77533,5,0,0:0:0:0:
256,192,78215,1,0,0:0:0:0:
256,192,78352,1,0,0:0:0:0:
256,192,78488,1,0,0:0:0:0:
256,192,78624,1,8,0:0:0:0:
256,192,78897,1,0,0:0:0:0:
256,192,79170,1,8,0:0:0:0:
256,192,79306,1,0,0:0:0:0:
256,192,79374,1,0,0:0:0:0:
256,192,79442,1,0,0:0:0:0:
256,192,79579,1,0,0:0:0:0:
256,192,80397,1,0,0:0:0:0:
256,192,80533,1,0,0:0:0:0:
256,192,80670,1,0,0:0:0:0:
256,192,80806,1,8,0:0:0:0:
256,192,81079,1,0,0:0:0:0:
256,192,81352,1,8,0:0:0:0:
256,192,81488,1,0,0:0:0:0:
256,192,81556,1,0,0:0:0:0:
256,192,81624,1,0,0:0:0:0:
256,192,81761,1,0,0:0:0:0:
256,192,81829,1,0,0:0:0:0:
256,192,81897,1,8,0:0:0:0:
256,192,82033,1,0,0:0:0:0:
256,192,82170,1,8,0:0:0:0:
256,192,82306,1,0,0:0:0:0:
256,192,82442,1,8,0:0:0:0:
256,191,82579,1,8,0:0:0:0:
256,192,82715,1,0,0:0:0:0:
256,192,82852,1,8,0:0:0:0:
256,192,82988,1,0,0:0:0:0:
256,192,83124,1,8,0:0:0:0:
256,192,83261,1,0,0:0:0:0:
256,192,83397,1,8,0:0:0:0:
256,192,83533,1,8,0:0:0:0:
256,192,83670,1,0,0:0:0:0:
256,192,83738,1,0,0:0:0:0:
256,192,83806,1,8,0:0:0:0:
256,192,83942,1,0,0:0:0:0:
256,192,84079,1,8,0:0:0:0:
256,192,84352,1,0,0:0:0:0:
256,192,84488,1,8,0:0:0:0:
256,192,84761,1,0,0:0:0:0:
256,192,84897,1,8,0:0:0:0:
256,192,85170,1,0,0:0:0:0:
256,192,85306,1,8,0:0:0:0:
256,192,85579,1,0,0:0:0:0:
256,192,85715,1,8,0:0:0:0:
256,192,85852,1,0,0:0:0:0:
256,192,85920,1,0,0:0:0:0:
256,192,85988,1,8,0:0:0:0:
256,192,86124,1,0,0:0:0:0:
256,192,86261,1,12,0:0:0:0:
256,192,86533,1,8,0:0:0:0:
256,192,86670,1,0,0:0:0:0:
256,192,86942,1,0,0:0:0:0:
256,192,87079,1,8,0:0:0:0:
256,192,87215,1,0,0:0:0:0:
256,192,87352,1,0,0:0:0:0:
256,192,87624,1,8,0:0:0:0:
256,192,87761,1,0,0:0:0:0:
256,192,88033,1,0,0:0:0:0:
256,192,88102,1,0,0:0:0:0:
256,192,88170,1,8,0:0:0:0:
256,192,88306,1,8,0:0:0:0:
256,192,88442,1,0,0:0:0:0:
256,192,88715,1,8,0:0:0:0:
256,192,88852,1,0,0:0:0:0:
256,192,89124,1,0,0:0:0:0:
256,192,89261,1,8,0:0:0:0:
256,192,89533,1,0,0:0:0:0:
256,192,89806,1,8,0:0:0:0:
256,192,89942,1,0,0:0:0:0:
256,192,90079,1,0,0:0:0:0:
256,192,90215,1,0,0:0:0:0:
256,192,90352,1,8,0:0:0:0:
256,192,90624,1,8,0:0:0:0:
256,192,90761,1,0,0:0:0:0:
256,192,90897,1,0,0:0:0:0:
256,192,91033,1,8,0:0:0:0:
256,192,91170,1,0,0:0:0:0:
256,192,91306,1,0,0:0:0:0:
256,192,91442,1,8,0:0:0:0:
256,192,91579,1,0,0:0:0:0:
256,192,91715,1,8,0:0:0:0:
256,192,91852,1,0,0:0:0:0:
256,192,91988,1,0,0:0:0:0:
256,192,92124,1,8,0:0:0:0:
256,192,92261,1,0,0:0:0:0:
256,192,92397,1,0,0:0:0:0:
256,192,92465,1,0,0:0:0:0:
256,192,92533,1,8,0:0:0:0:
256,192,92670,1,0,0:0:0:0:
256,192,92806,1,8,0:0:0:0:
256,192,93079,1,0,0:0:0:0:
256,192,93352,1,0,0:0:0:0:
256,192,93624,1,8,0:0:0:0:
256,192,93761,1,8,0:0:0:0:
256,192,93897,1,0,0:0:0:0:
256,192,93965,1,8,0:0:0:0:
256,192,94033,1,0,0:0:0:0:
256,192,94170,1,8,0:0:0:0:
256,192,94238,1,0,0:0:0:0:
256,192,94306,1,8,0:0:0:0:
256,192,94374,1,0,0:0:0:0:
256,192,94442,1,8,0:0:0:0:
256,192,94579,1,0,0:0:0:0:
256,191,94715,1,12,0:0:0:0:
256,192,94988,1,4,0:0:0:0:
256,192,95124,1,0,0:0:0:0:
256,192,95192,1,0,0:0:0:0:
256,192,95261,1,8,0:0:0:0:
256,192,95397,1,0,0:0:0:0:
256,192,95533,1,8,0:0:0:0:
256,192,95602,1,0,0:0:0:0:
256,192,95670,1,8,0:0:0:0:
256,192,95738,1,8,0:0:0:0:
256,192,95806,1,0,0:0:0:0:
256,192,95942,1,8,0:0:0:0:
256,192,96079,1,0,0:0:0:0:
256,192,96215,1,0,0:0:0:0:
256,192,96283,1,0,0:0:0:0:
256,192,96352,1,8,0:0:0:0:
256,192,96488,1,0,0:0:0:0:
256,192,96624,1,8,0:0:0:0:
320,160,96692,1,0,0:0:0:0:
256,192,96761,1,8,0:0:0:0:
320,160,96829,1,0,0:0:0:0:
256,192,96897,1,0,0:0:0:0:
256,192,97033,1,8,0:0:0:0:
256,192,97170,1,0,0:0:0:0:
256,192,97238,1,0,0:0:0:0:
256,192,97306,1,8,0:0:0:0:
256,192,97374,1,8,0:0:0:0:
256,192,97442,1,0,0:0:0:0:
256,192,97579,1,8,0:0:0:0:
256,192,97715,1,0,0:0:0:0:
256,192,97783,1,0,0:0:0:0:
256,192,97852,1,8,0:0:0:0:
256,192,97920,1,0,0:0:0:0:
256,192,97988,1,8,0:0:0:0:
256,192,98124,1,0,0:0:0:0:
256,192,98261,1,8,0:0:0:0:
384,192,98329,1,0,0:0:0:0:
256,192,98397,1,8,0:0:0:0:
256,192,98465,1,8,0:0:0:0:
256,192,98533,1,0,0:0:0:0:
352,160,98602,1,8,0:0:0:0:
256,192,98670,1,0,0:0:0:0:
256,192,98738,1,0,0:0:0:0:
256,192,98806,1,8,0:0:0:0:
256,191,98942,1,8,0:0:0:0:
256,192,99079,1,0,0:0:0:0:
256,192,99215,1,8,0:0:0:0:
256,192,99352,1,4,0:0:0:0:
256,192,99488,1,0,0:0:0:0:
256,192,99556,1,0,0:0:0:0:
256,192,99624,1,8,0:0:0:0:
256,192,99761,1,8,0:0:0:0:
256,192,99829,1,8,0:0:0:0:
256,192,99897,1,0,0:0:0:0:
256,192,100033,1,0,0:0:0:0:
256,192,100170,1,8,0:0:0:0:
256,192,100306,1,8,0:0:0:0:
256,192,100442,1,0,0:0:0:0:
288,128,100511,1,8,0:0:0:0:
256,192,100579,1,0,0:0:0:0:
256,192,100647,1,0,0:0:0:0:
256,192,100715,1,8,0:0:0:0:
256,192,100852,1,0,0:0:0:0:
256,192,100988,1,8,0:0:0:0:
256,192,101124,1,8,0:0:0:0:
256,192,101261,1,0,0:0:0:0:
256,192,101397,1,8,0:0:0:0:
256,192,101533,1,0,0:0:0:0:
258,191,101579,1,0,0:0:0:0:
257,191,101624,1,0,0:0:0:0:
256,192,101670,1,8,0:0:0:0:
256,192,101806,1,0,0:0:0:0:
256,192,101942,1,8,0:0:0:0:
256,192,102079,1,0,0:0:0:0:
258,191,102124,1,0,0:0:0:0:
258,191,102170,1,0,0:0:0:0:
256,192,102215,1,8,0:0:0:0:
256,192,102352,1,0,0:0:0:0:
256,192,102488,1,8,0:0:0:0:
256,192,102624,1,8,0:0:0:0:
256,192,102692,1,0,0:0:0:0:
256,192,102761,1,0,0:0:0:0:
256,192,102829,1,8,0:0:0:0:
256,192,102897,1,0,0:0:0:0:
352,160,102965,1,0,0:0:0:0:
256,192,103033,1,8,0:0:0:0:
256,192,103170,1,0,0:0:0:0:
257,191,103215,1,0,0:0:0:0:
257,191,103261,1,0,0:0:0:0:
256,192,103306,1,8,0:0:0:0:
256,192,103442,1,0,0:0:0:0:
256,192,103579,1,0,0:0:0:0:
256,192,103715,1,8,0:0:0:0:
256,192,103852,1,8,0:0:0:0:
256,192,103988,1,4,0:0:0:0:
256,192,104124,1,0,0:0:0:0:
257,191,104261,1,8,0:0:0:0:
256,192,104397,1,0,0:0:0:0:
256,192,104465,1,0,0:0:0:0:
256,192,104533,1,8,0:0:0:0:
256,192,104670,1,8,0:0:0:0:
256,192,104806,1,0,0:0:0:0:
256,192,104874,1,0,0:0:0:0:
256,192,104942,1,8,0:0:0:0:
256,192,105011,1,0,0:0:0:0:
256,192,105079,1,8,0:0:0:0:
256,192,105147,1,8,0:0:0:0:
256,192,105215,1,0,0:0:0:0:
256,192,105352,1,8,0:0:0:0:
256,192,105488,1,0,0:0:0:0:
256,192,105624,1,8,0:0:0:0:
257,191,105692,1,8,0:0:0:0:
256,192,105761,1,0,0:0:0:0:
256,192,105897,1,0,0:0:0:0:
256,192,106033,1,8,0:0:0:0:
256,192,106170,1,0,0:0:0:0:
256,192,106238,1,0,0:0:0:0:
256,192,106306,1,8,0:0:0:0:
288,160,106374,1,0,0:0:0:0:
256,192,106442,1,8,0:0:0:0:
256,192,106579,1,0,0:0:0:0:
256,192,106715,1,8,0:0:0:0:
256,192,106783,1,8,0:0:0:0:
256,192,106852,1,0,0:0:0:0:
320,160,106920,1,8,0:0:0:0:
256,192,106988,1,0,0:0:0:0:
256,192,107056,1,0,0:0:0:0:
256,192,107124,1,8,0:0:0:0:
256,192,107192,1,8,0:0:0:0:
256,192,107261,1,0,0:0:0:0:
256,192,107397,1,0,0:0:0:0:
256,192,107465,1,0,0:0:0:0:
256,192,107533,1,8,0:0:0:0:
256,192,107670,1,8,0:0:0:0:
256,192,107806,1,0,0:0:0:0:
256,192,107942,1,8,0:0:0:0:
256,192,108079,1,4,0:0:0:0:
256,192,108215,1,0,0:0:0:0:
256,192,108352,1,8,0:0:0:0:
320,192,108420,1,0,0:0:0:0:
256,192,108488,1,8,0:0:0:0:
256,192,108624,1,0,0:0:0:0:
256,192,108761,1,8,0:0:0:0:
256,192,108829,1,8,0:0:0:0:
256,192,108897,1,0,0:0:0:0:
256,192,109033,1,0,0:0:0:0:
256,192,109170,1,0,0:0:0:0:
256,192,109238,1,8,0:0:0:0:
256,192,109306,1,0,0:0:0:0:
256,192,109374,1,0,0:0:0:0:
256,192,109442,1,8,0:0:0:0:
320,160,109511,1,0,0:0:0:0:
256,192,109579,1,8,0:0:0:0:
256,192,109715,1,8,0:0:0:0:
256,192,109783,1,0,0:0:0:0:
256,192,109852,1,0,0:0:0:0:
256,192,109920,1,8,0:0:0:0:
256,192,109988,1,0,0:0:0:0:
256,192,110124,1,0,0:0:0:0:
256,192,110261,1,8,0:0:0:0:
257,191,110306,1,8,0:0:0:0:
258,191,110352,1,8,0:0:0:0:
256,192,110397,1,0,0:0:0:0:
256,192,110533,1,8,0:0:0:0:
256,192,110670,1,0,0:0:0:0:
256,192,110806,1,8,0:0:0:0:
258,191,110852,1,8,0:0:0:0:
258,191,110897,1,8,0:0:0:0:
256,192,110942,1,0,0:0:0:0:
256,128,111079,1,8,0:0:0:0:
256,192,111215,1,0,0:0:0:0:
256,192,111352,1,8,0:0:0:0:
256,192,111420,1,0,0:0:0:0:
256,192,111488,1,0,0:0:0:0:
256,192,111556,1,8,0:0:0:0:
256,192,111624,1,0,0:0:0:0:
256,192,111761,1,0,0:0:0:0:
256,192,111829,1,0,0:0:0:0:
256,192,111897,1,8,0:0:0:0:
256,192,112033,1,0,0:0:0:0:
256,192,112170,1,8,0:0:0:0:
256,192,112442,1,0,0:0:0:0:
256,192,112852,1,8,0:0:0:0:
256,192,113261,1,0,0:0:0:0:
256,192,113533,1,8,0:0:0:0:
256,192,113806,1,0,0:0:0:0:
257,192,114079,1,8,0:0:0:0:
256,192,114352,1,8,0:0:0:0:
256,192,114624,1,0,0:0:0:0:
256,192,115033,1,8,0:0:0:0:
256,192,115442,1,0,0:0:0:0:
256,192,115715,1,8,0:0:0:0:
256,192,115988,1,8,0:0:0:0:
256,192,116261,1,0,0:0:0:0:
256,192,116533,1,8,0:0:0:0:
256,192,116670,1,0,0:0:0:0:
256,192,116806,1,8,0:0:0:0:
256,192,116874,1,8,0:0:0:0:
256,192,116942,1,0,0:0:0:0:
256,191,117011,1,0,0:0:0:0:
256,192,117079,1,8,0:0:0:0:
256,191,117147,1,8,0:0:0:0:
256,191,117215,1,0,0:0:0:0:
256,191,117283,1,0,0:0:0:0:
256,192,117352,1,8,0:0:0:0:
256,192,117420,1,8,0:0:0:0:
256,192,117488,1,0,0:0:0:0:
256,192,117556,1,0,0:0:0:0:
256,192,117624,1,8,0:0:0:0:
257,191,117692,1,0,0:0:0:0:
256,192,117761,1,8,0:0:0:0:
257,191,117829,1,0,0:0:0:0:
256,192,117897,1,8,0:0:0:0:
256,192,117965,1,0,0:0:0:0:
256,192,118033,1,8,0:0:0:0:
256,192,118102,1,8,0:0:0:0:
256,192,118170,1,0,0:0:0:0:
257,191,118238,1,0,0:0:0:0:
256,192,118306,1,8,0:0:0:0:
256,192,118374,1,0,0:0:0:0:
256,192,118442,1,8,0:0:0:0:
257,191,118511,1,8,0:0:0:0:
256,192,118579,1,0,0:0:0:0:
257,191,118647,1,0,0:0:0:0:
256,192,118715,1,8,0:0:0:0:
257,191,118783,1,0,0:0:0:0:
256,192,118852,1,8,0:0:0:0:
257,191,118920,1,0,0:0:0:0:
256,192,118988,1,0,0:0:0:0:
256,192,119124,1,8,0:0:0:0:
256,192,119192,1,0,0:0:0:0:
256,192,119329,1,0,0:0:0:0:
256,192,119397,1,8,0:0:0:0:
256,192,119533,1,0,0:0:0:0:
256,192,119670,1,8,0:0:0:0:
256,191,119738,1,0,0:0:0:0:
256,192,119874,1,0,0:0:0:0:
256,192,119942,1,8,0:0:0:0:
256,192,120079,1,0,0:0:0:0:
256,192,120215,1,8,0:0:0:0:
256,192,120283,1,8,0:0:0:0:
256,192,120352,1,0,0:0:0:0:
256,192,120488,1,0,0:0:0:0:
256,192,120624,1,8,0:0:0:0:
256,192,120761,1,0,0:0:0:0:
256,192,120897,1,8,0:0:0:0:
257,192,121033,1,0,0:0:0:0:
256,192,121170,1,8,0:0:0:0:
256,192,121306,1,8,0:0:0:0:
256,192,121442,1,4,0:0:0:0:
256,192,121715,1,0,0:0:0:0:
256,192,121852,1,0,0:0:0:0:
256,192,121988,1,12,0:0:0:0:
256,192,122261,1,8,0:0:0:0:
256,192,122397,1,8,0:0:0:0:
256,192,122533,1,4,0:0:0:0:
256,192,122806,1,0,0:0:0:0:
256,192,122942,1,0,0:0:0:0:
256,192,123079,1,12,0:0:0:0:
256,192,123352,1,8,0:0:0:0:
256,192,123488,1,8,0:0:0:0:
256,192,123624,1,4,0:0:0:0:
256,192,123897,1,0,0:0:0:0:
256,192,124033,1,0,0:0:0:0:
256,192,124170,1,12,0:0:0:0:
256,192,124442,1,8,0:0:0:0:
256,192,124579,1,8,0:0:0:0:
256,192,124715,1,4,0:0:0:0:
256,192,124988,1,4,0:0:0:0:
256,192,125124,1,8,0:0:0:0:
256,192,125261,1,4,0:0:0:0:
256,192,125397,1,8,0:0:0:0:
256,192,125533,1,0,0:0:0:0:
256,192,125602,1,0,0:0:0:0:
256,192,125670,1,8,0:0:0:0:
320,160,125738,1,0,0:0:0:0:
256,192,125806,1,8,0:0:0:0:
256,192,125942,1,0,0:0:0:0:
256,192,126079,1,0,0:0:0:0:
256,192,126147,1,0,0:0:0:0:
256,192,126215,1,8,0:0:0:0:
256,192,126352,1,8,0:0:0:0:
256,192,126488,1,0,0:0:0:0:
256,192,126624,1,0,0:0:0:0:
256,192,126692,1,0,0:0:0:0:
256,192,126761,1,8,0:0:0:0:
256,190,126829,1,8,0:0:0:0:
256,192,126897,1,0,0:0:0:0:
256,192,127033,1,0,0:0:0:0:
256,192,127170,1,8,0:0:0:0:
256,191,127238,1,8,0:0:0:0:
256,192,127306,1,0,0:0:0:0:
256,191,127374,1,0,0:0:0:0:
256,192,127442,1,8,0:0:0:0:
256,192,127579,1,0,0:0:0:0:
256,192,127715,1,8,0:0:0:0:
256,192,127783,1,0,0:0:0:0:
256,192,127852,1,0,0:0:0:0:
257,192,127920,1,8,0:0:0:0:
256,192,127988,1,0,0:0:0:0:
256,192,128056,1,0,0:0:0:0:
256,192,128124,1,8,0:0:0:0:
256,191,128192,1,0,0:0:0:0:
256,192,128261,1,8,0:0:0:0:
256,192,128329,1,0,0:0:0:0:
256,192,128397,1,0,0:0:0:0:
257,191,128465,1,8,0:0:0:0:
256,192,128533,1,0,0:0:0:0:
256,192,128602,1,0,0:0:0:0:
256,192,128670,1,8,0:0:0:0:
257,191,128738,1,0,0:0:0:0:
256,192,128806,1,8,0:0:0:0:
256,192,128942,1,0,0:0:0:0:
256,192,129011,1,8,0:0:0:0:
256,192,129147,1,8,0:0:0:0:
256,192,129215,1,0,0:0:0:0:
256,192,129352,1,8,0:0:0:0:
256,192,129488,1,0,0:0:0:0:
256,192,129624,1,12,0:0:0:0:
256,192,129897,1,4,0:0:0:0:
256,191,130033,1,0,0:0:0:0:
256,192,130170,1,8,0:0:0:0:
256,192,130306,1,0,0:0:0:0:
256,192,130374,1,0,0:0:0:0:
256,192,130442,1,8,0:0:0:0:
256,192,130579,1,8,0:0:0:0:
256,192,130715,1,0,0:0:0:0:
256,192,130852,1,8,0:0:0:0:
256,192,130988,1,0,0:0:0:0:
256,192,131056,1,0,0:0:0:0:
256,192,131124,1,8,0:0:0:0:
256,192,131192,1,8,0:0:0:0:
256,192,131261,1,0,0:0:0:0:
256,192,131397,1,0,0:0:0:0:
256,192,131533,1,8,0:0:0:0:
256,191,131670,1,0,0:0:0:0:
256,191,131738,1,0,0:0:0:0:
256,192,131806,1,8,0:0:0:0:
256,192,131942,1,8,0:0:0:0:
256,192,132079,1,0,0:0:0:0:
256,192,132147,1,0,0:0:0:0:
256,192,132215,1,8,0:0:0:0:
256,192,132283,1,8,0:0:0:0:
256,192,132352,1,0,0:0:0:0:
320,160,132420,1,8,0:0:0:0:
256,192,132488,1,0,0:0:0:0:
320,160,132556,1,0,0:0:0:0:
256,192,132624,1,8,0:0:0:0:
320,160,132692,1,0,0:0:0:0:
256,192,132761,1,8,0:0:0:0:
256,192,132829,1,8,0:0:0:0:
256,192,132897,1,0,0:0:0:0:
256,192,132965,1,8,0:0:0:0:
256,192,133033,1,0,0:0:0:0:
256,192,133102,1,0,0:0:0:0:
256,192,133170,1,8,0:0:0:0:
256,192,133306,1,8,0:0:0:0:
256,192,133374,1,8,0:0:0:0:
256,192,133442,1,0,0:0:0:0:
256,192,133579,1,0,0:0:0:0:
256,192,133715,1,8,0:0:0:0:
256,192,133852,1,0,0:0:0:0:
256,192,133920,1,0,0:0:0:0:
256,192,133988,1,8,0:0:0:0:
256,192,134124,1,8,0:0:0:0:
256,192,134261,1,0,0:0:0:0:
256,192,134329,1,0,0:0:0:0:
256,192,134397,1,8,0:0:0:0:
256,192,134533,1,8,0:0:0:0:
256,192,134670,1,0,0:0:0:0:
256,192,134806,1,8,0:0:0:0:
256,192,134874,1,8,0:0:0:0:
256,192,134942,1,0,0:0:0:0:
256,192,135079,1,0,0:0:0:0:
256,192,135215,1,8,0:0:0:0:
256,192,135352,1,0,0:0:0:0:
256,192,135420,1,0,0:0:0:0:
256,192,135488,1,8,0:0:0:0:
256,192,135624,1,0,0:0:0:0:
256,192,135761,1,8,0:0:0:0:
256,192,135897,1,8,0:0:0:0:
256,192,136033,1,0,0:0:0:0:
256,192,136170,1,0,0:0:0:0:
256,192,136238,1,0,0:0:0:0:
256,192,136306,1,8,0:0:0:0:
256,192,136442,1,8,0:0:0:0:
256,192,136511,1,0,0:0:0:0:
256,192,136579,1,8,0:0:0:0:
256,192,136647,1,0,0:0:0:0:
256,192,136715,1,8,0:0:0:0:
256,192,136783,1,8,0:0:0:0:
256,192,136852,1,0,0:0:0:0:
256,192,136920,1,8,0:0:0:0:
256,192,136988,1,0,0:0:0:0:
256,192,137056,1,8,0:0:0:0:
256,192,137124,1,0,0:0:0:0:
256,192,137192,1,0,0:0:0:0:
256,192,137261,1,8,0:0:0:0:
256,192,137329,1,8,0:0:0:0:
256,192,137397,1,0,0:0:0:0:
256,192,137533,1,4,0:0:0:0:
256,192,137806,1,4,0:0:0:0:
256,192,138079,1,12,0:0:0:0:
256,192,138352,1,0,0:0:0:0:
256,192,138420,1,0,0:0:0:0:
256,192,138488,1,8,0:0:0:0:
256,192,138624,1,4,0:0:0:0:
256,192,138897,1,0,0:0:0:0:
256,192,139170,1,0,0:0:0:0:
256,191,139306,1,8,0:0:0:0:
256,192,139579,1,8,0:0:0:0:
256,192,139852,1,8,0:0:0:0:
256,192,140124,1,8,0:0:0:0:
256,192,140397,1,8,0:0:0:0:
256,192,140670,1,0,0:0:0:0:
256,192,140806,1,8,0:0:0:0:
256,192,141079,1,0,0:0:0:0:
256,192,141352,1,8,0:0:0:0:
256,192,141624,1,0,0:0:0:0:
256,192,141897,1,12,0:0:0:0:
256,192,142102,1,4,0:0:0:0:
256,192,142306,1,12,0:0:0:0:
256,192,142442,1,4,0:0:0:0:
256,192,142579,1,4,0:0:0:0:
256,192,142715,1,12,0:0:0:0:
256,192,142852,1,12,0:0:0:0:
256,192,142988,1,4,0:0:0:0:
256,192,143261,1,8,0:0:0:0:
255,191,143533,1,0,0:0:0:0:
256,192,143670,1,8,0:0:0:0:
256,192,143942,1,8,0:0:0:0:
256,191,144079,1,0,0:0:0:0:
256,192,144215,1,8,0:0:0:0:
256,192,144488,1,8,0:0:0:0:
256,192,144761,1,8,0:0:0:0:
256,192,144897,1,0,0:0:0:0:
256,192,145033,1,0,0:0:0:0:
256,192,145170,1,12,0:0:0:0:
256,192,145442,1,0,0:0:0:0:
256,192,145715,1,12,0:0:0:0:
256,192,145988,1,0,0:0:0:0:
256,192,146261,1,8,0:0:0:0:
256,192,146533,1,0,0:0:0:0:
256,192,146806,1,0,0:0:0:0:
256,192,147079,1,0,0:0:0:0:
256,192,147352,8,0,149533,0:0:0:0:
