osu file format v14

[General]
AudioFilename: Tits or get the fuck out!!.mp3
AudioLeadIn: 0
PreviewTime: 93830
Countdown: 0
SampleSet: Normal
StackLeniency: 0.7
Mode: 1
LetterboxInBreaks: 0
WidescreenStoryboard: 0

[Editor]
Bookmarks: 20807,32807,55716,67716,129898
DistanceSpacing: 0.4
BeatDivisor: 4
GridSize: 4
TimelineZoom: 1.9

[Metadata]
Title:Tits or get the fuck out!!
TitleUnicode:Tits or get the fuck out!!
Artist:Morimori Atsushi
ArtistUnicode:モリモリあつし
Creator:ManP
Version:Hell Oni
Source:東方Project
Tags:Backfire KinomiCandy koyomi_222 tasuke912 SKSalt ZUN 上海アリス幻樂団 Team Shanghai Alice 東方神霊廟 Ten Desires. Touhou Shinreibyou デザイアドライブ Desire Drive アレンジ Arrange
BeatmapID:744166
BeatmapSetID:334489

[Difficulty]
HPDrainRate:5
CircleSize:2
OverallDifficulty:8.5
ApproachRate:10
SliderMultiplier:1.4
SliderTickRate:1

[Events]
//Background and Video events
0,0,"86483634.jpg",0,50
//Break Periods
//Storyboard Layer 0 (Background)
//Storyboard Layer 1 (Fail)
//Storyboard Layer 2 (Pass)
//Storyboard Layer 3 (Foreground)
//Storyboard Sound Samples

[TimingPoints]
3352,272.727272727273,4,1,0,100,1,0
20533,-100,4,1,0,100,0,0
51283,-100,4,1,0,100,0,0
77533,-133.333333333333,4,1,0,100,0,0
86533,-100,4,1,0,100,0,0
90624,-95.2380952380952,4,1,0,100,0,0
90897,-93.4579439252336,4,1,0,100,0,0
91170,-91.743119266055,4,1,0,100,0,0
91442,-89.2857142857143,4,1,0,100,0,0
91715,-86.9565217391304,4,1,0,100,0,0
91988,-84.7457627118644,4,1,0,100,0,0
92261,-83.3333333333333,4,1,0,100,0,0
92397,-82.6446280991736,4,1,0,100,0,0
92465,-81.9672131147541,4,1,0,100,0,0
92533,-81.3008130081301,4,1,0,100,0,0
92816,-80.6451612903226,4,1,0,100,0,0
93079,-80,4,1,0,100,0,0
93352,-79.3650793650794,4,1,0,100,0,0
93488,-78.7401574803149,4,1,0,100,0,0
93624,-78.125,4,1,0,100,0,0
93761,-77.5193798449612,4,1,0,100,0,0
93897,-76.9230769230769,4,1,0,100,0,0
94988,-90.9090909090909,4,1,0,100,0,1
112374,-66.6666666666667,4,1,0,100,0,0
112511,-100,4,1,0,100,0,0
116670,-95.2380952380952,4,1,0,100,0,0
116806,-90.9090909090909,4,1,0,100,0,0
120897,-91.743119266055,4,1,0,100,0,0
120942,-92.5925925925926,4,1,0,100,0,0
120988,-94.3396226415094,4,1,0,100,0,0
121033,-96.1538461538461,4,1,0,100,0,0
121102,-98.0392156862745,4,1,0,100,0,0
121170,-100,4,1,0,100,0,1
125261,-95.2380952380952,4,1,0,100,0,1
125397,-90.9090909090909,4,1,0,100,0,1
129897,-100,4,1,0,100,0,0
142306,-103.092783505155,4,1,0,100,0,0
142442,-105.263157894737,4,1,0,100,0,0
142579,-107.52688172043,4,1,0,100,0,0
142715,-109.89010989011,4,1,0,100,0,0
142852,-112.359550561798,4,1,0,100,0,0
142988,-114.942528735632,4,1,0,100,0,0
147283,-133.333333333333,4,1,0,100,0,0

[HitObjects]
304,108,3352,5,0,0:0:0:0:
352,112,3624,1,0,0:0:0:0:
352,112,3897,1,2,0:0:0:0:
352,112,4170,1,0,0:0:0:0:
352,112,4307,1,2,0:0:0:0:
352,112,4442,1,0,0:0:0:0:
352,112,4579,1,0,0:0:0:0:
352,112,4715,1,2,0:0:0:0:
352,112,4988,1,2,0:0:0:0:
352,112,5261,1,0,0:0:0:0:
352,112,5397,1,2,0:0:0:0:
352,112,5533,1,4,0:0:0:0:
352,112,5806,1,0,0:0:0:0:
328,124,5942,1,2,0:0:0:0:
352,112,6079,1,2,0:0:0:0:
352,112,6215,1,0,0:0:0:0:
352,112,6488,1,2,0:0:0:0:
352,112,6624,1,2,0:0:0:0:
352,112,6761,1,0,0:0:0:0:
352,112,7033,1,2,0:0:0:0:
352,112,7170,1,0,0:0:0:0:
352,112,7306,1,0,0:0:0:0:
352,112,7442,1,2,0:0:0:0:
352,112,7579,1,2,0:0:0:0:
352,112,7715,1,4,0:0:0:0:
352,112,7988,1,0,0:0:0:0:
352,112,8261,1,2,0:0:0:0:
352,112,8397,1,0,0:0:0:0:
352,112,8533,1,0,0:0:0:0:
352,112,8670,1,2,0:0:0:0:
352,112,8806,1,0,0:0:0:0:
352,112,9079,1,2,0:0:0:0:
352,112,9215,1,0,0:0:0:0:
352,112,9352,1,2,0:0:0:0:
352,112,9624,1,0,0:0:0:0:
352,112,9761,1,2,0:0:0:0:
352,112,9897,1,4,0:0:0:0:
352,112,10170,1,0,0:0:0:0:
352,112,10306,1,2,0:0:0:0:
352,112,10442,1,2,0:0:0:0:
352,112,10578,1,0,0:0:0:0:
352,112,10852,1,2,0:0:0:0:
256,192,10988,12,0,11942,0:0:0:0:
308,108,12079,5,4,0:0:0:0:
352,112,12352,1,0,0:0:0:0:
352,112,12624,1,2,0:0:0:0:
352,112,12897,1,0,0:0:0:0:
352,112,13033,1,2,0:0:0:0:
352,112,13170,1,0,0:0:0:0:
352,112,13306,1,0,0:0:0:0:
352,112,13442,1,2,0:0:0:0:
352,112,13579,1,0,0:0:0:0:
352,112,13715,1,2,0:0:0:0:
352,112,13988,1,0,0:0:0:0:
352,112,14124,1,2,0:0:0:0:
352,112,14261,1,4,0:0:0:0:
352,112,14533,1,0,0:0:0:0:
328,124,14670,1,2,0:0:0:0:
352,112,14806,1,2,0:0:0:0:
352,112,14942,1,0,0:0:0:0:
352,112,15079,1,0,0:0:0:0:
352,112,15215,1,2,0:0:0:0:
352,112,15352,1,2,0:0:0:0:
352,112,15488,1,0,0:0:0:0:
352,112,15761,1,2,0:0:0:0:
352,112,15897,1,0,0:0:0:0:
352,112,16033,1,0,0:0:0:0:
352,112,16170,1,2,0:0:0:0:
352,112,16306,1,2,0:0:0:0:
352,112,16442,1,4,0:0:0:0:
352,112,16715,1,0,0:0:0:0:
352,112,16988,1,2,0:0:0:0:
352,112,17124,1,0,0:0:0:0:
352,112,17261,1,0,0:0:0:0:
352,112,17397,1,2,0:0:0:0:
352,112,17533,1,0,0:0:0:0:
352,112,17806,1,2,0:0:0:0:
352,112,17942,1,0,0:0:0:0:
352,112,18079,1,2,0:0:0:0:
352,112,18215,1,2,0:0:0:0:
352,112,18352,1,0,0:0:0:0:
352,112,18488,1,2,0:0:0:0:
352,112,18624,1,4,0:0:0:0:
352,112,18897,1,0,0:0:0:0:
352,112,19033,1,2,0:0:0:0:
352,112,19170,1,2,0:0:0:0:
352,112,19306,1,0,0:0:0:0:
352,112,19442,1,0,0:0:0:0:
352,112,19579,1,2,0:0:0:0:
352,112,19715,1,4,0:0:0:0:
352,112,19988,1,4,0:0:0:0:
352,112,20261,1,6,0:0:0:0:
149,207,20806,1,4,0:0:0:0:
352,112,20942,1,2,0:0:0:0:
352,112,21079,1,0,0:0:0:0:
352,112,21215,1,2,0:0:0:0:
352,112,21352,1,0,0:0:0:0:
352,112,21488,1,0,0:0:0:0:
352,112,21556,1,0,0:0:0:0:
352,112,21624,1,8,0:0:0:0:
352,112,21761,1,2,0:0:0:0:
352,112,21897,1,0,0:0:0:0:
352,112,22033,1,2,0:0:0:0:
352,112,22102,1,2,0:0:0:0:
352,112,22170,1,0,0:0:0:0:
352,112,22238,1,0,0:0:0:0:
352,112,22306,1,2,0:0:0:0:
352,112,22442,1,0,0:0:0:0:
352,112,22511,1,0,0:0:0:0:
352,112,22579,1,2,0:0:0:0:
380,124,22715,1,0,0:0:0:0:
352,112,22852,1,2,0:0:0:0:
352,112,22988,1,0,0:0:0:0:
352,112,23124,1,2,0:0:0:0:
352,112,23192,1,2,0:0:0:0:
352,112,23261,1,0,0:0:0:0:
352,112,23329,1,8,0:0:0:0:
336,132,23397,1,0,0:0:0:0:
352,112,23465,1,0,0:0:0:0:
352,112,23533,1,2,0:0:0:0:
352,112,23670,1,0,0:0:0:0:
352,112,23738,1,2,0:0:0:0:
352,112,23806,1,0,0:0:0:0:
352,112,23942,1,0,0:0:0:0:
352,112,24079,1,2,0:0:0:0:
352,112,24215,1,2,0:0:0:0:
352,112,24283,1,2,0:0:0:0:
352,112,24352,1,0,0:0:0:0:
352,112,24488,1,0,0:0:0:0:
344,124,24556,1,0,0:0:0:0:
352,112,24624,1,2,0:0:0:0:
352,112,24761,1,2,0:0:0:0:
352,112,24829,1,2,0:0:0:0:
352,112,24897,1,0,0:0:0:0:
352,112,25033,1,0,0:0:0:0:
352,112,25102,1,0,0:0:0:0:
352,112,25170,1,2,0:0:0:0:
352,112,25306,1,0,0:0:0:0:
352,112,25442,1,2,0:0:0:0:
352,112,25511,1,0,0:0:0:0:
352,112,25579,1,0,0:0:0:0:
352,112,25715,1,2,0:0:0:0:
352,112,25852,1,0,0:0:0:0:
352,112,25988,1,0,0:0:0:0:
352,112,26056,1,0,0:0:0:0:
352,112,26124,1,2,0:0:0:0:
352,112,26261,1,0,0:0:0:0:
352,112,26397,1,0,0:0:0:0:
352,112,26465,1,0,0:0:0:0:
352,112,26533,1,2,0:0:0:0:
352,112,26670,1,2,0:0:0:0:
352,112,26738,1,0,0:0:0:0:
352,112,26806,1,2,0:0:0:0:
352,112,26942,1,2,0:0:0:0:
352,112,27011,1,2,0:0:0:0:
352,112,27079,1,0,0:0:0:0:
352,112,27147,1,0,0:0:0:0:
352,112,27215,1,2,0:0:0:0:
380,124,27352,1,0,0:0:0:0:
352,112,27488,1,0,0:0:0:0:
352,112,27624,1,2,0:0:0:0:
352,112,27761,1,0,0:0:0:0:
352,112,27897,1,2,0:0:0:0:
352,112,27965,1,2,0:0:0:0:
352,112,28033,1,0,0:0:0:0:
352,112,28102,1,0,0:0:0:0:
352,112,28170,1,2,0:0:0:0:
352,112,28238,1,0,0:0:0:0:
352,112,28306,1,2,0:0:0:0:
352,112,28442,1,4,0:0:0:0:
352,112,28715,1,4,0:0:0:0:
352,112,28988,1,6,0:0:0:0:
352,112,29261,1,0,0:0:0:0:
352,112,29329,1,0,0:0:0:0:
352,112,29397,1,0,0:0:0:0:
352,112,29465,1,0,0:0:0:0:
352,112,29533,1,2,0:0:0:0:
352,112,29670,1,0,0:0:0:0:
352,112,29806,1,2,0:0:0:0:
352,112,29874,1,0,0:0:0:0:
352,112,29942,1,0,0:0:0:0:
352,112,30011,1,0,0:0:0:0:
352,112,30079,1,2,0:0:0:0:
352,112,30215,1,0,0:0:0:0:
352,112,30284,1,0,0:0:0:0:
352,112,30352,1,2,0:0:0:0:
352,112,30488,1,2,0:0:0:0:
352,112,30624,1,0,0:0:0:0:
352,112,30692,1,2,0:0:0:0:
352,112,30761,1,0,0:0:0:0:
352,112,30897,1,2,0:0:0:0:
352,112,31033,1,2,0:0:0:0:
352,112,31102,1,2,0:0:0:0:
352,112,31170,1,0,0:0:0:0:
352,112,31306,1,0,0:0:0:0:
352,112,31374,1,2,0:0:0:0:
352,112,31442,1,0,0:0:0:0:
352,112,31511,1,0,0:0:0:0:
352,112,31579,1,2,0:0:0:0:
352,112,31647,1,2,0:0:0:0:
380,124,31715,1,0,0:0:0:0:
352,112,31852,1,0,0:0:0:0:
352,112,31988,1,0,0:0:0:0:
352,112,32056,1,0,0:0:0:0:
352,112,32124,1,2,0:0:0:0:
352,112,32261,1,2,0:0:0:0:
352,112,32329,1,2,0:0:0:0:
352,112,32397,1,0,0:0:0:0:
352,112,32465,1,0,0:0:0:0:
352,112,32533,1,2,0:0:0:0:
352,112,32602,1,0,0:0:0:0:
352,112,32670,1,2,0:0:0:0:
352,112,32806,1,4,0:0:0:0:
352,112,33011,1,4,0:0:0:0:
352,112,33215,1,6,0:0:0:0:
352,112,33352,1,4,0:0:0:0:
352,112,33488,1,4,0:0:0:0:
352,112,33624,1,6,0:0:0:0:
352,112,33761,1,6,0:0:0:0:
352,112,33897,1,4,0:0:0:0:
352,112,34033,1,0,0:0:0:0:
328,100,34102,1,0,0:0:0:0:
352,112,34170,1,2,0:0:0:0:
352,112,34306,1,0,0:0:0:0:
352,112,34442,1,2,0:0:0:0:
352,112,34579,1,2,0:0:0:0:
352,112,34647,1,0,0:0:0:0:
352,112,34715,1,0,0:0:0:0:
352,112,34852,1,2,0:0:0:0:
352,112,34988,1,4,0:0:0:0:
352,112,35124,1,0,0:0:0:0:
352,112,35192,1,0,0:0:0:0:
352,112,35261,1,2,0:0:0:0:
352,112,35397,1,0,0:0:0:0:
352,112,35533,1,2,0:0:0:0:
352,112,35602,1,2,0:0:0:0:
352,112,35670,1,0,0:0:0:0:
352,112,35738,1,0,0:0:0:0:
352,112,35806,1,2,0:0:0:0:
352,112,35942,1,2,0:0:0:0:
352,112,36079,1,4,0:0:0:0:
352,112,36215,1,0,0:0:0:0:
352,112,36283,1,0,0:0:0:0:
352,112,36352,1,2,0:0:0:0:
352,112,36488,1,2,0:0:0:0:
352,112,36624,1,4,0:0:0:0:
352,112,36761,1,2,0:0:0:0:
352,112,36829,1,2,0:0:0:0:
352,112,36897,1,0,0:0:0:0:
352,112,37033,1,2,0:0:0:0:
256,192,37170,8,0,38124,0:0:0:0:
256,193,38261,5,4,0:0:0:0:
256,193,38442,1,0,0:0:0:0:
340,88,38533,1,2,0:0:0:0:
340,88,38715,1,2,0:0:0:0:
256,193,38806,1,0,0:0:0:0:
256,193,38897,1,0,0:0:0:0:
256,193,38988,1,0,0:0:0:0:
340,88,39079,1,2,0:0:0:0:
340,88,39352,1,2,0:0:0:0:
256,193,39533,1,0,0:0:0:0:
256,193,39624,1,2,0:0:0:0:
256,193,39806,1,0,0:0:0:0:
256,193,39897,1,2,0:0:0:0:
256,193,39988,1,2,0:0:0:0:
256,193,40079,1,2,0:0:0:0:
256,193,40170,1,0,0:0:0:0:
340,88,40306,1,2,0:0:0:0:
340,88,40442,1,0,0:0:0:0:
340,88,40579,1,2,0:0:0:0:
364,144,40647,1,2,0:0:0:0:
340,88,40715,1,0,0:0:0:0:
340,88,40852,1,2,0:0:0:0:
340,88,40988,1,2,0:0:0:0:
340,88,41056,1,2,0:0:0:0:
340,88,41124,1,0,0:0:0:0:
404,152,41192,1,0,0:0:0:0:
340,88,41261,1,2,0:0:0:0:
340,88,41397,1,0,0:0:0:0:
340,88,41533,1,2,0:0:0:0:
340,88,41670,1,0,0:0:0:0:
340,88,41738,1,0,0:0:0:0:
340,88,41806,1,2,0:0:0:0:
340,88,41942,1,0,0:0:0:0:
340,88,42079,1,6,0:0:0:0:
340,88,42352,1,6,0:0:0:0:
340,88,42624,1,4,0:0:0:0:
256,193,42806,1,0,0:0:0:0:
340,88,42897,1,2,0:0:0:0:
340,88,43079,1,2,0:0:0:0:
256,193,43170,1,0,0:0:0:0:
256,193,43261,1,0,0:0:0:0:
256,193,43352,1,0,0:0:0:0:
340,88,43443,1,2,0:0:0:0:
340,88,43716,1,2,0:0:0:0:
256,193,43897,1,0,0:0:0:0:
256,193,43988,1,2,0:0:0:0:
256,193,44170,1,0,0:0:0:0:
256,193,44261,1,2,0:0:0:0:
256,193,44352,1,2,0:0:0:0:
256,193,44443,1,2,0:0:0:0:
256,193,44534,1,0,0:0:0:0:
296,148,44670,1,2,0:0:0:0:
340,88,44806,1,0,0:0:0:0:
340,88,44874,1,0,0:0:0:0:
340,88,44942,1,2,0:0:0:0:
340,88,45079,1,2,0:0:0:0:
340,88,45215,1,0,0:0:0:0:
360,156,45283,1,0,0:0:0:0:
340,88,45352,1,2,0:0:0:0:
340,88,45420,1,0,0:0:0:0:
340,88,45488,1,2,0:0:0:0:
340,88,45624,1,2,0:0:0:0:
340,88,45761,1,0,0:0:0:0:
376,168,45829,1,0,0:0:0:0:
340,88,45897,1,2,0:0:0:0:
340,88,45965,1,2,0:0:0:0:
340,88,46033,1,0,0:0:0:0:
340,88,46170,1,0,0:0:0:0:
340,88,46306,1,0,0:0:0:0:
340,88,46442,1,6,0:0:0:0:
340,88,46715,1,6,0:0:0:0:
340,88,46988,1,4,0:0:0:0:
256,193,47170,1,0,0:0:0:0:
340,88,47261,1,2,0:0:0:0:
340,88,47443,1,2,0:0:0:0:
256,193,47534,1,0,0:0:0:0:
256,193,47625,1,0,0:0:0:0:
256,193,47716,1,0,0:0:0:0:
340,88,47807,1,2,0:0:0:0:
340,88,48080,1,2,0:0:0:0:
256,193,48261,1,0,0:0:0:0:
256,193,48352,1,2,0:0:0:0:
256,193,48534,1,0,0:0:0:0:
256,193,48625,1,2,0:0:0:0:
256,193,48716,1,2,0:0:0:0:
256,193,48807,1,2,0:0:0:0:
256,193,48898,1,0,0:0:0:0:
344,152,49033,1,2,0:0:0:0:
340,88,49170,1,4,0:0:0:0:
344,160,49306,1,0,0:0:0:0:
340,88,49374,1,0,0:0:0:0:
340,88,49442,1,2,0:0:0:0:
328,144,49579,1,0,0:0:0:0:
320,124,49647,1,0,0:0:0:0:
340,88,49715,1,2,0:0:0:0:
340,88,49783,1,0,0:0:0:0:
340,88,49852,1,0,0:0:0:0:
380,168,49988,1,8,0:0:0:0:
328,140,50124,1,0,0:0:0:0:
340,88,50261,1,2,0:0:0:0:
328,144,50352,1,0,0:0:0:0:
328,144,50442,1,0,0:0:0:0:
328,144,50533,1,2,0:0:0:0:
328,140,50624,1,0,0:0:0:0:
328,140,50715,1,0,0:0:0:0:
340,88,50806,1,2,0:0:0:0:
388,152,50874,1,0,0:0:0:0:
388,152,50942,1,2,0:0:0:0:
388,152,51011,1,0,0:0:0:0:
384,148,51079,1,2,0:0:0:0:
384,144,51147,1,2,0:0:0:0:
340,88,51215,1,0,0:0:0:0:
340,88,51352,1,2,0:0:0:0:
340,88,51420,1,0,0:0:0:0:
340,88,51488,1,2,0:0:0:0:
348,164,51556,1,2,0:0:0:0:
340,88,51624,1,0,0:0:0:0:
340,88,51692,1,2,0:0:0:0:
340,88,51761,1,2,0:0:0:0:
340,88,51829,1,0,0:0:0:0:
340,88,51897,1,2,0:0:0:0:
340,88,52033,1,0,0:0:0:0:
340,88,52170,1,2,0:0:0:0:
340,88,52238,1,0,0:0:0:0:
340,88,52306,1,2,0:0:0:0:
340,88,52374,1,2,0:0:0:0:
340,88,52442,1,0,0:0:0:0:
340,88,52624,1,0,0:0:0:0:
340,88,52715,1,2,0:0:0:0:
340,88,52897,1,2,0:0:0:0:
340,88,52988,1,0,0:0:0:0:
340,88,53079,1,0,0:0:0:0:
340,88,53170,1,0,0:0:0:0:
340,88,53261,1,6,0:0:0:0:
340,88,53533,1,4,0:0:0:0:
384,160,53715,1,0,0:0:0:0:
340,88,53806,1,2,0:0:0:0:
376,124,53988,1,2,0:0:0:0:
340,88,54079,1,0,0:0:0:0:
296,88,54170,1,0,0:0:0:0:
352,136,54261,1,0,0:0:0:0:
340,88,54352,1,2,0:0:0:0:
304,132,54488,1,2,0:0:0:0:
340,88,54624,1,0,0:0:0:0:
340,88,54715,1,0,0:0:0:0:
340,88,54806,1,2,0:0:0:0:
339,88,54897,1,2,0:0:0:0:
340,88,54988,1,2,0:0:0:0:
340,88,55079,1,0,0:0:0:0:
340,88,55170,1,2,0:0:0:0:
300,128,55215,1,8,0:0:0:0:
336,136,55261,1,2,0:0:0:0:
300,128,55306,1,0,0:0:0:0:
284,156,55442,1,6,0:0:0:0:
376,112,55579,1,12,0:0:0:0:
340,88,55715,1,0,0:0:0:0:
352,112,55852,1,2,0:0:0:0:
352,112,55920,1,2,0:0:0:0:
352,112,55988,1,0,0:0:0:0:
352,112,56124,1,2,0:0:0:0:
352,112,56261,1,0,0:0:0:0:
352,112,56329,1,0,0:0:0:0:
352,112,56397,1,2,0:0:0:0:
352,112,56533,1,0,0:0:0:0:
352,112,56670,1,2,0:0:0:0:
352,112,56738,1,0,0:0:0:0:
352,112,56806,1,0,0:0:0:0:
352,112,56942,1,2,0:0:0:0:
352,112,57079,1,0,0:0:0:0:
352,112,57147,1,0,0:0:0:0:
352,112,57215,1,2,0:0:0:0:
352,112,57283,1,2,0:0:0:0:
352,112,57352,1,0,0:0:0:0:
352,112,57488,1,2,0:0:0:0:
352,112,57556,1,0,0:0:0:0:
352,112,57624,1,0,0:0:0:0:
352,112,57692,1,0,0:0:0:0:
352,112,57761,1,2,0:0:0:0:
352,112,57897,1,0,0:0:0:0:
352,112,57965,1,2,0:0:0:0:
352,112,58033,1,0,0:0:0:0:
328,120,58102,1,0,0:0:0:0:
352,112,58170,1,8,0:0:0:0:
372,144,58238,1,0,0:0:0:0:
352,112,58306,1,2,0:0:0:0:
352,132,58374,1,0,0:0:0:0:
352,112,58442,1,8,0:0:0:0:
340,180,58511,1,8,0:0:0:0:
352,112,58579,1,0,0:0:0:0:
352,112,58647,1,0,0:0:0:0:
352,112,58715,1,2,0:0:0:0:
352,112,58783,1,0,0:0:0:0:
324,120,58852,1,2,0:0:0:0:
324,120,58988,1,2,0:0:0:0:
352,112,59124,1,0,0:0:0:0:
352,112,59192,1,0,0:0:0:0:
324,120,59261,1,2,0:0:0:0:
352,112,59329,1,0,0:0:0:0:
340,88,59397,1,2,0:0:0:0:
340,88,59533,1,0,0:0:0:0:
340,88,59602,1,2,0:0:0:0:
340,88,59670,1,0,0:0:0:0:
340,88,59738,1,0,0:0:0:0:
340,88,59806,1,2,0:0:0:0:
340,88,59874,1,0,0:0:0:0:
344,116,59942,1,2,0:0:0:0:
340,88,60079,1,2,0:0:0:0:
340,88,60147,1,2,0:0:0:0:
340,88,60215,1,0,0:0:0:0:
340,88,60352,1,2,0:0:0:0:
340,88,60488,1,0,0:0:0:0:
368,76,60624,1,2,0:0:0:0:
340,88,60692,1,0,0:0:0:0:
340,88,60761,1,0,0:0:0:0:
340,88,60897,1,0,0:0:0:0:
368,92,60965,1,0,0:0:0:0:
340,88,61033,1,2,0:0:0:0:
340,88,61170,1,0,0:0:0:0:
340,88,61306,1,0,0:0:0:0:
340,88,61374,1,0,0:0:0:0:
340,88,61442,1,0,0:0:0:0:
340,88,61511,1,0,0:0:0:0:
340,88,61579,1,2,0:0:0:0:
340,88,61715,1,0,0:0:0:0:
340,88,61852,1,2,0:0:0:0:
340,88,61920,1,0,0:0:0:0:
340,88,61988,1,2,0:0:0:0:
340,88,62124,1,2,0:0:0:0:
340,88,62261,1,2,0:0:0:0:
340,88,62306,1,2,0:0:0:0:
340,88,62352,1,2,0:0:0:0:
340,88,62397,1,0,0:0:0:0:
340,88,62465,1,0,0:0:0:0:
340,88,62533,1,2,0:0:0:0:
340,88,62602,1,2,0:0:0:0:
340,88,62670,1,0,0:0:0:0:
340,88,62738,1,0,0:0:0:0:
340,88,62806,1,2,0:0:0:0:
340,88,62874,1,0,0:0:0:0:
340,88,62942,1,2,0:0:0:0:
340,88,63011,1,0,0:0:0:0:
340,88,63079,1,2,0:0:0:0:
340,88,63147,1,2,0:0:0:0:
340,88,63215,1,0,0:0:0:0:
340,88,63352,1,4,0:0:0:0:
340,88,63624,1,4,0:0:0:0:
340,88,63897,1,6,0:0:0:0:
340,88,64170,1,2,0:0:0:0:
340,88,64238,1,2,0:0:0:0:
340,88,64306,1,2,0:0:0:0:
340,88,64374,1,2,0:0:0:0:
340,88,64442,1,0,0:0:0:0:
352,112,64579,1,0,0:0:0:0:
352,112,64715,1,2,0:0:0:0:
352,112,64783,1,0,0:0:0:0:
352,112,64852,1,0,0:0:0:0:
352,112,64920,1,0,0:0:0:0:
352,112,64988,1,2,0:0:0:0:
352,112,65124,1,2,0:0:0:0:
352,112,65193,1,0,0:0:0:0:
352,112,65261,1,0,0:0:0:0:
352,112,65397,1,2,0:0:0:0:
352,112,65533,1,0,0:0:0:0:
352,112,65602,1,2,0:0:0:0:
352,112,65670,1,0,0:0:0:0:
352,112,65806,1,2,0:0:0:0:
352,112,65942,1,0,0:0:0:0:
352,112,66011,1,0,0:0:0:0:
352,112,66079,1,8,0:0:0:0:
424,124,66124,1,8,0:0:0:0:
424,124,66170,1,8,0:0:0:0:
424,124,66215,1,0,0:0:0:0:
352,112,66283,1,0,0:0:0:0:
352,112,66352,1,2,0:0:0:0:
352,112,66420,1,2,0:0:0:0:
352,112,66488,1,0,0:0:0:0:
352,112,66624,1,0,0:0:0:0:
352,112,66692,1,0,0:0:0:0:
352,112,66760,1,2,0:0:0:0:
328,120,66829,1,2,0:0:0:0:
352,112,66897,1,0,0:0:0:0:
372,144,66965,1,0,0:0:0:0:
352,112,67033,1,2,0:0:0:0:
352,132,67101,1,0,0:0:0:0:
352,112,67169,1,8,0:0:0:0:
340,180,67238,1,8,0:0:0:0:
352,112,67306,1,0,0:0:0:0:
352,112,67374,1,0,0:0:0:0:
352,112,67442,1,2,0:0:0:0:
352,112,67510,1,0,0:0:0:0:
324,120,67579,1,2,0:0:0:0:
340,88,67715,1,4,0:0:0:0:
340,88,67920,1,4,0:0:0:0:
340,88,68124,1,6,0:0:0:0:
340,88,68261,1,4,0:0:0:0:
340,88,68397,1,4,0:0:0:0:
340,88,68533,1,6,0:0:0:0:
340,88,68670,1,6,0:0:0:0:
340,88,68806,1,4,0:0:0:0:
352,112,68942,1,0,0:0:0:0:
328,100,69011,1,0,0:0:0:0:
352,112,69079,1,2,0:0:0:0:
308,144,69147,1,0,0:0:0:0:
352,112,69215,1,0,0:0:0:0:
312,144,69283,1,0,0:0:0:0:
352,112,69352,1,2,0:0:0:0:
352,112,69488,1,2,0:0:0:0:
352,112,69556,1,0,0:0:0:0:
352,112,69624,1,0,0:0:0:0:
316,136,69692,1,0,0:0:0:0:
352,112,69761,1,2,0:0:0:0:
352,112,69897,1,4,0:0:0:0:
352,112,70033,1,0,0:0:0:0:
352,112,70102,1,0,0:0:0:0:
352,112,70170,1,2,0:0:0:0:
312,132,70238,1,0,0:0:0:0:
352,112,70306,1,8,0:0:0:0:
368,164,70374,1,0,0:0:0:0:
352,112,70442,1,2,0:0:0:0:
364,160,70488,1,2,0:0:0:0:
368,164,70533,1,2,0:0:0:0:
352,112,70579,1,0,0:0:0:0:
352,112,70647,1,0,0:0:0:0:
352,112,70715,1,2,0:0:0:0:
300,116,70783,1,0,0:0:0:0:
352,112,70852,1,2,0:0:0:0:
352,112,70988,1,4,0:0:0:0:
324,120,71124,1,2,0:0:0:0:
376,100,71192,1,2,0:0:0:0:
352,112,71261,1,0,0:0:0:0:
344,120,71329,1,2,0:0:0:0:
352,112,71397,1,0,0:0:0:0:
352,112,71533,1,4,0:0:0:0:
256,192,71670,1,0,0:0:0:0:
256,192,71738,1,2,0:0:0:0:
352,112,71806,1,0,0:0:0:0:
256,192,71874,1,2,0:0:0:0:
256,192,71942,1,0,0:0:0:0:
256,192,72011,1,2,0:0:0:0:
256,192,72079,8,0,73033,0:0:0:0:
340,88,73170,5,4,0:0:0:0:
256,192,75352,8,0,77397,0:0:0:0:
256,184,77533,5,4,0:0:0:0:
256,184,78215,1,0,0:0:0:0:
256,184,78352,1,0,0:0:0:0:
256,184,78488,1,0,0:0:0:0:
256,184,78624,1,2,0:0:0:0:
256,184,78897,1,0,0:0:0:0:
256,184,79170,1,0,0:0:0:0:
256,184,79306,1,2,0:0:0:0:
256,184,79442,1,2,0:0:0:0:
256,184,79579,1,0,0:0:0:0:
256,184,80397,1,2,0:0:0:0:
256,184,80533,1,2,0:0:0:0:
256,184,80670,1,2,0:0:0:0:
256,184,80806,1,0,0:0:0:0:
256,184,81079,1,2,0:0:0:0:
256,184,81352,1,2,0:0:0:0:
256,184,81488,1,0,0:0:0:0:
256,184,81624,1,0,0:0:0:0:
256,184,81761,1,2,0:0:0:0:
256,184,81897,1,0,0:0:0:0:
256,184,82170,1,0,0:0:0:0:
256,184,82306,1,2,0:0:0:0:
256,184,82442,1,0,0:0:0:0:
256,184,82579,1,0,0:0:0:0:
256,184,82715,1,2,0:0:0:0:
344,136,82852,1,0,0:0:0:0:
256,184,82988,1,2,0:0:0:0:
256,184,83124,1,2,0:0:0:0:
256,184,83261,1,0,0:0:0:0:
256,184,83397,1,2,0:0:0:0:
256,184,83533,1,0,0:0:0:0:
256,184,83670,1,2,0:0:0:0:
256,184,83806,1,2,0:0:0:0:
352,128,83942,1,0,0:0:0:0:
256,184,84079,1,2,0:0:0:0:
256,184,84352,1,0,0:0:0:0:
256,184,84488,1,2,0:0:0:0:
256,184,84761,1,0,0:0:0:0:
256,184,84897,1,2,0:0:0:0:
256,184,85170,1,0,0:0:0:0:
256,184,85306,1,2,0:0:0:0:
256,184,85442,1,2,0:0:0:0:
256,184,85579,1,0,0:0:0:0:
256,184,85715,1,2,0:0:0:0:
256,184,85852,1,0,0:0:0:0:
256,184,85988,1,2,0:0:0:0:
256,184,86124,1,2,0:0:0:0:
256,184,86261,1,0,0:0:0:0:
256,184,86533,1,2,0:0:0:0:
256,184,86670,1,0,0:0:0:0:
256,184,86942,1,0,0:0:0:0:
256,184,87079,1,2,0:0:0:0:
256,184,87215,1,2,0:0:0:0:
256,184,87352,1,0,0:0:0:0:
256,184,87624,1,2,0:0:0:0:
256,184,87761,1,0,0:0:0:0:
256,184,88033,1,0,0:0:0:0:
256,184,88102,1,2,0:0:0:0:
256,184,88170,1,2,0:0:0:0:
256,184,88306,1,2,0:0:0:0:
256,184,88442,1,0,0:0:0:0:
256,184,88715,1,2,0:0:0:0:
256,184,88852,1,0,0:0:0:0:
256,184,89124,1,0,0:0:0:0:
256,184,89261,1,2,0:0:0:0:
256,184,89397,1,0,0:0:0:0:
256,184,89533,1,0,0:0:0:0:
256,184,89806,1,0,0:0:0:0:
256,184,89942,1,0,0:0:0:0:
256,184,90079,1,6,0:0:0:0:
256,184,90215,1,6,0:0:0:0:
256,184,90352,1,6,0:0:0:0:
256,184,90624,1,6,0:0:0:0:
256,184,90761,1,0,0:0:0:0:
256,184,90897,1,2,0:0:0:0:
256,184,91033,1,2,0:0:0:0:
256,184,91170,1,0,0:0:0:0:
256,184,91306,1,0,0:0:0:0:
256,184,91442,1,2,0:0:0:0:
256,184,91579,1,0,0:0:0:0:
256,184,91715,1,0,0:0:0:0:
256,184,91852,1,0,0:0:0:0:
256,184,91988,1,2,0:0:0:0:
256,184,92124,1,2,0:0:0:0:
256,184,92261,1,0,0:0:0:0:
256,184,92397,1,0,0:0:0:0:
256,184,92465,1,2,0:0:0:0:
256,184,92533,1,2,0:0:0:0:
256,184,92670,1,2,0:0:0:0:
256,184,92806,1,2,0:0:0:0:
256,184,92874,1,0,0:0:0:0:
256,184,92942,1,0,0:0:0:0:
256,184,93079,1,0,0:0:0:0:
256,184,93215,1,0,0:0:0:0:
256,184,93352,1,2,0:0:0:0:
256,184,93488,1,0,0:0:0:0:
256,184,93624,1,2,0:0:0:0:
256,184,93761,1,2,0:0:0:0:
196,140,93897,1,8,0:0:0:0:
212,148,93942,1,0,0:0:0:0:
236,164,93988,1,0,0:0:0:0:
256,184,94033,1,2,0:0:0:0:
212,148,94170,1,2,0:0:0:0:
236,164,94215,1,0,0:0:0:0:
236,164,94261,1,0,0:0:0:0:
236,164,94306,1,2,0:0:0:0:
236,164,94352,1,0,0:0:0:0:
260,164,94397,1,0,0:0:0:0:
260,164,94442,1,2,0:0:0:0:
260,164,94579,1,2,0:0:0:0:
256,184,94715,1,4,0:0:0:0:
256,184,94988,1,4,0:0:0:0:
256,184,95124,1,2,0:0:0:0:
256,184,95192,1,0,0:0:0:0:
256,184,95261,1,2,0:0:0:0:
256,184,95397,1,0,0:0:0:0:
256,184,95533,1,0,0:0:0:0:
256,184,95602,1,0,0:0:0:0:
256,184,95670,1,2,0:0:0:0:
256,184,95738,1,2,0:0:0:0:
256,184,95806,1,0,0:0:0:0:
256,184,95874,1,0,0:0:0:0:
256,184,95942,1,2,0:0:0:0:
256,184,96011,1,0,0:0:0:0:
256,184,96079,1,0,0:0:0:0:
256,184,96215,1,2,0:0:0:0:
256,184,96283,1,2,0:0:0:0:
256,184,96352,1,0,0:0:0:0:
256,184,96488,1,2,0:0:0:0:
256,184,96624,1,0,0:0:0:0:
256,184,96692,1,2,0:0:0:0:
256,184,96761,1,0,0:0:0:0:
256,184,96829,1,0,0:0:0:0:
256,184,96897,1,2,0:0:0:0:
256,184,96965,1,0,0:0:0:0:
256,184,97033,1,2,0:0:0:0:
256,184,97170,1,0,0:0:0:0:
256,184,97306,1,2,0:0:0:0:
256,184,97374,1,0,0:0:0:0:
256,184,97442,1,0,0:0:0:0:
256,184,97511,1,0,0:0:0:0:
256,184,97579,1,2,0:0:0:0:
256,184,97715,1,0,0:0:0:0:
256,184,97783,1,0,0:0:0:0:
256,184,97852,1,2,0:0:0:0:
256,184,97920,1,2,0:0:0:0:
256,184,97988,1,0,0:0:0:0:
256,184,98056,1,2,0:0:0:0:
256,184,98124,1,2,0:0:0:0:
256,184,98261,1,0,0:0:0:0:
256,184,98329,1,0,0:0:0:0:
256,184,98397,1,0,0:0:0:0:
256,184,98465,1,2,0:0:0:0:
256,184,98533,1,0,0:0:0:0:
256,184,98602,1,2,0:0:0:0:
256,184,98670,1,2,0:0:0:0:
256,184,98738,1,0,0:0:0:0:
256,184,98806,1,2,0:0:0:0:
256,184,98852,1,0,0:0:0:0:
256,184,98897,1,0,0:0:0:0:
256,184,98942,1,2,0:0:0:0:
256,184,99011,1,0,0:0:0:0:
256,184,99079,1,2,0:0:0:0:
256,184,99147,1,2,0:0:0:0:
256,184,99215,1,0,0:0:0:0:
256,184,99283,1,0,0:0:0:0:
256,184,99352,1,2,0:0:0:0:
256,184,99488,1,0,0:0:0:0:
256,184,99556,1,0,0:0:0:0:
256,184,99624,1,2,0:0:0:0:
256,184,99761,1,0,0:0:0:0:
256,184,99897,1,0,0:0:0:0:
256,184,99965,1,0,0:0:0:0:
256,184,100033,1,2,0:0:0:0:
256,184,100102,1,0,0:0:0:0:
256,184,100170,1,0,0:0:0:0:
256,184,100238,1,0,0:0:0:0:
256,184,100306,1,2,0:0:0:0:
256,184,100442,1,0,0:0:0:0:
288,176,100511,1,0,0:0:0:0:
256,184,100579,1,2,0:0:0:0:
256,184,100647,1,2,0:0:0:0:
256,184,100715,1,0,0:0:0:0:
256,184,100852,1,2,0:0:0:0:
256,184,100988,1,2,0:0:0:0:
256,184,101056,1,0,0:0:0:0:
256,184,101124,1,0,0:0:0:0:
256,184,101192,1,0,0:0:0:0:
256,184,101261,1,2,0:0:0:0:
256,184,101397,1,2,0:0:0:0:
256,184,101533,1,0,0:0:0:0:
256,184,101579,1,0,0:0:0:0:
256,184,101624,1,0,0:0:0:0:
256,184,101670,1,2,0:0:0:0:
392,168,101738,1,0,0:0:0:0:
340,144,101807,1,2,0:0:0:0:
256,184,101875,1,2,0:0:0:0:
256,184,101942,1,0,0:0:0:0:
256,184,102011,1,0,0:0:0:0:
256,184,102079,1,0,0:0:0:0:
256,184,102124,1,0,0:0:0:0:
256,184,102170,1,0,0:0:0:0:
224,184,102215,1,2,0:0:0:0:
316,140,102283,1,0,0:0:0:0:
256,184,102352,1,2,0:0:0:0:
256,184,102420,1,2,0:0:0:0:
256,184,102488,1,0,0:0:0:0:
352,152,102556,1,0,0:0:0:0:
196,164,102624,1,2,0:0:0:0:
256,184,102670,1,8,0:0:0:0:
256,184,102715,1,8,0:0:0:0:
340,132,102761,1,0,0:0:0:0:
256,184,102829,1,0,0:0:0:0:
256,184,102897,1,8,0:0:0:0:
256,184,103033,1,0,0:0:0:0:
256,184,103170,1,2,0:0:0:0:
256,184,103238,1,2,0:0:0:0:
256,184,103306,1,0,0:0:0:0:
256,184,103374,1,0,0:0:0:0:
256,184,103442,1,2,0:0:0:0:
256,184,103715,1,4,0:0:0:0:
256,184,103852,1,0,0:0:0:0:
256,184,103988,1,6,0:0:0:0:
256,184,104124,1,0,0:0:0:0:
256,184,104192,1,0,0:0:0:0:
256,184,104261,1,2,0:0:0:0:
256,184,104397,1,0,0:0:0:0:
256,184,104533,1,2,0:0:0:0:
256,184,104670,1,0,0:0:0:0:
256,184,104806,1,2,0:0:0:0:
256,184,104874,1,0,0:0:0:0:
256,184,104942,1,0,0:0:0:0:
256,184,105011,1,0,0:0:0:0:
256,184,105079,1,2,0:0:0:0:
256,184,105147,1,2,0:0:0:0:
256,184,105215,1,2,0:0:0:0:
256,184,105283,1,2,0:0:0:0:
256,184,105352,1,0,0:0:0:0:
256,184,105420,1,0,0:0:0:0:
256,184,105488,1,2,0:0:0:0:
256,184,105556,1,0,0:0:0:0:
256,184,105624,1,2,0:0:0:0:
256,184,105692,1,0,0:0:0:0:
256,184,105761,1,2,0:0:0:0:
256,184,105829,1,2,0:0:0:0:
256,184,105897,1,0,0:0:0:0:
256,184,106033,1,2,0:0:0:0:
256,184,106101,1,0,0:0:0:0:
256,184,106170,1,0,0:0:0:0:
256,184,106306,1,2,0:0:0:0:
256,184,106442,1,0,0:0:0:0:
256,184,106511,1,0,0:0:0:0:
320,136,106579,1,0,0:0:0:0:
320,132,106647,1,2,0:0:0:0:
256,184,106715,1,0,0:0:0:0:
292,168,106783,1,8,0:0:0:0:
256,184,106851,1,8,0:0:0:0:
256,184,106988,1,0,0:0:0:0:
256,184,107056,1,0,0:0:0:0:
256,184,107124,1,2,0:0:0:0:
256,184,107192,1,2,0:0:0:0:
256,184,107261,1,0,0:0:0:0:
256,184,107329,1,2,0:0:0:0:
256,184,107397,1,2,0:0:0:0:
256,184,107465,1,0,0:0:0:0:
256,184,107533,1,2,0:0:0:0:
256,184,107579,1,0,0:0:0:0:
256,184,107624,1,0,0:0:0:0:
256,184,107670,1,8,0:0:0:0:
256,184,107738,1,2,0:0:0:0:
256,184,107806,1,0,0:0:0:0:
256,184,107874,1,2,0:0:0:0:
256,184,107942,1,0,0:0:0:0:
256,184,108010,1,0,0:0:0:0:
256,184,108079,1,2,0:0:0:0:
256,184,108215,1,0,0:0:0:0:
256,184,108283,1,0,0:0:0:0:
256,184,108352,1,2,0:0:0:0:
256,184,108488,1,0,0:0:0:0:
256,184,108624,1,2,0:0:0:0:
256,184,108692,1,2,0:0:0:0:
256,184,108761,1,0,0:0:0:0:
256,184,108829,1,0,0:0:0:0:
256,184,108897,1,2,0:0:0:0:
256,184,109033,1,0,0:0:0:0:
256,184,109170,1,0,0:0:0:0:
256,184,109238,1,0,0:0:0:0:
256,184,109306,1,0,0:0:0:0:
256,184,109374,1,2,0:0:0:0:
256,184,109442,1,0,0:0:0:0:
256,184,109511,1,0,0:0:0:0:
256,184,109579,1,2,0:0:0:0:
256,184,109647,1,2,0:0:0:0:
256,184,109715,1,0,0:0:0:0:
256,184,109783,1,2,0:0:0:0:
256,184,109852,1,0,0:0:0:0:
256,184,109920,1,2,0:0:0:0:
256,184,109988,1,0,0:0:0:0:
256,184,110056,1,2,0:0:0:0:
256,184,110124,1,2,0:0:0:0:
256,184,110192,1,2,0:0:0:0:
256,184,110261,1,0,0:0:0:0:
256,184,110306,1,0,0:0:0:0:
256,184,110352,1,0,0:0:0:0:
256,184,110397,1,2,0:0:0:0:
432,152,110465,1,0,0:0:0:0:
256,184,110533,1,8,0:0:0:0:
256,184,110602,1,8,0:0:0:0:
256,184,110670,1,0,0:0:0:0:
384,148,110738,1,0,0:0:0:0:
256,184,110806,1,0,0:0:0:0:
256,184,110852,1,0,0:0:0:0:
256,184,110897,1,0,0:0:0:0:
256,184,110942,1,2,0:0:0:0:
256,184,111011,1,0,0:0:0:0:
256,184,111079,1,2,0:0:0:0:
256,184,111147,1,2,0:0:0:0:
256,184,111215,1,0,0:0:0:0:
256,184,111283,1,0,0:0:0:0:
224,176,111352,1,2,0:0:0:0:
356,124,111397,1,8,0:0:0:0:
376,132,111442,1,8,0:0:0:0:
372,152,111488,1,0,0:0:0:0:
256,184,111556,1,0,0:0:0:0:
256,184,111624,1,8,0:0:0:0:
256,184,111761,1,0,0:0:0:0:
256,184,111897,1,2,0:0:0:0:
264,156,111965,1,2,0:0:0:0:
256,184,112033,1,0,0:0:0:0:
256,184,112102,1,0,0:0:0:0:
256,184,112170,1,2,0:0:0:0:
256,184,112238,1,2,0:0:0:0:
256,184,112306,1,0,0:0:0:0:
256,184,112442,1,4,0:0:0:0:
256,184,112715,1,2,0:0:0:0:
256,184,112852,1,0,0:0:0:0:
256,184,113124,1,0,0:0:0:0:
256,184,113261,1,2,0:0:0:0:
296,224,113533,1,0,0:0:0:0:
256,184,113806,1,0,0:0:0:0:
256,184,114079,1,2,0:0:0:0:
256,184,114352,1,2,0:0:0:0:
256,184,114624,1,0,0:0:0:0:
256,184,114897,1,0,0:0:0:0:
256,184,115033,1,2,0:0:0:0:
256,184,115306,1,2,0:0:0:0:
256,184,115442,1,0,0:0:0:0:
256,184,115715,1,2,0:0:0:0:
256,184,115988,1,0,0:0:0:0:
256,184,116261,1,2,0:0:0:0:
256,184,116533,1,0,0:0:0:0:
256,184,116670,1,2,0:0:0:0:
256,184,116806,1,2,0:0:0:0:
256,184,116874,1,0,0:0:0:0:
256,184,116942,1,0,0:0:0:0:
256,184,117011,1,0,0:0:0:0:
256,184,117079,1,2,0:0:0:0:
256,184,117147,1,0,0:0:0:0:
256,184,117215,1,0,0:0:0:0:
256,184,117283,1,0,0:0:0:0:
256,184,117352,1,2,0:0:0:0:
256,184,117420,1,0,0:0:0:0:
256,184,117488,1,0,0:0:0:0:
256,184,117556,1,0,0:0:0:0:
256,184,117624,1,2,0:0:0:0:
256,184,117692,1,0,0:0:0:0:
256,184,117761,1,0,0:0:0:0:
256,184,117829,1,0,0:0:0:0:
256,184,117897,1,2,0:0:0:0:
256,184,117965,1,2,0:0:0:0:
256,184,118033,1,0,0:0:0:0:
256,184,118102,1,0,0:0:0:0:
256,184,118170,1,2,0:0:0:0:
256,184,118238,1,2,0:0:0:0:
256,184,118306,1,0,0:0:0:0:
256,184,118374,1,0,0:0:0:0:
256,184,118442,1,2,0:0:0:0:
256,184,118511,1,2,0:0:0:0:
256,184,118579,1,0,0:0:0:0:
256,184,118647,1,0,0:0:0:0:
256,184,118715,1,2,0:0:0:0:
256,184,118783,1,2,0:0:0:0:
256,184,118852,1,0,0:0:0:0:
256,184,118920,1,0,0:0:0:0:
256,184,118988,1,2,0:0:0:0:
256,184,119056,1,0,0:0:0:0:
256,184,119124,1,0,0:0:0:0:
256,184,119192,1,2,0:0:0:0:
256,184,119261,1,0,0:0:0:0:
256,184,119329,1,0,0:0:0:0:
256,184,119397,1,2,0:0:0:0:
256,184,119465,1,0,0:0:0:0:
256,184,119533,1,2,0:0:0:0:
256,184,119602,1,0,0:0:0:0:
256,184,119670,1,0,0:0:0:0:
256,184,119738,1,2,0:0:0:0:
256,184,119806,1,0,0:0:0:0:
256,184,119874,1,0,0:0:0:0:
256,184,119942,1,2,0:0:0:0:
256,184,120011,1,0,0:0:0:0:
256,184,120079,1,2,0:0:0:0:
256,184,120147,1,0,0:0:0:0:
256,184,120215,1,0,0:0:0:0:
256,184,120283,1,2,0:0:0:0:
256,184,120352,1,0,0:0:0:0:
256,184,120420,1,0,0:0:0:0:
256,184,120488,1,2,0:0:0:0:
256,184,120556,1,0,0:0:0:0:
256,184,120624,1,2,0:0:0:0:
240,172,120670,1,0,0:0:0:0:
256,184,120715,1,0,0:0:0:0:
256,184,120761,1,8,0:0:0:0:
256,184,120829,1,2,0:0:0:0:
256,184,120897,1,0,0:0:0:0:
256,184,120942,1,0,0:0:0:0:
256,184,120988,1,0,0:0:0:0:
256,184,121033,1,2,0:0:0:0:
256,184,121102,1,2,0:0:0:0:
256,184,121170,1,0,0:0:0:0:
256,184,121442,1,6,0:0:0:0:
256,184,121715,1,0,0:0:0:0:
256,184,121988,1,6,0:0:0:0:
256,184,122261,1,0,0:0:0:0:
256,184,122533,1,6,0:0:0:0:
256,184,122806,1,0,0:0:0:0:
256,184,123079,1,6,0:0:0:0:
256,184,123352,1,0,0:0:0:0:
256,184,123624,1,6,0:0:0:0:
256,184,123897,1,0,0:0:0:0:
256,184,124170,1,6,0:0:0:0:
256,184,124442,1,0,0:0:0:0:
256,184,124715,1,6,0:0:0:0:
256,184,124988,1,0,0:0:0:0:
256,184,125261,1,6,0:0:0:0:
256,184,125397,1,6,0:0:0:0:
256,184,125533,1,2,0:0:0:0:
256,184,125602,1,2,0:0:0:0:
256,184,125670,1,0,0:0:0:0:
256,184,125738,1,0,0:0:0:0:
256,184,125806,1,2,0:0:0:0:
256,184,125874,1,2,0:0:0:0:
256,184,125942,1,0,0:0:0:0:
256,184,126011,1,0,0:0:0:0:
256,184,126079,1,2,0:0:0:0:
256,184,126147,1,2,0:0:0:0:
256,184,126215,1,2,0:0:0:0:
256,184,126283,1,2,0:0:0:0:
256,184,126352,1,0,0:0:0:0:
256,184,126420,1,0,0:0:0:0:
256,184,126488,1,2,0:0:0:0:
256,184,126556,1,2,0:0:0:0:
256,184,126624,1,0,0:0:0:0:
256,184,126692,1,0,0:0:0:0:
256,184,126761,1,0,0:0:0:0:
256,184,126829,1,0,0:0:0:0:
256,184,126897,1,2,0:0:0:0:
256,184,126965,1,0,0:0:0:0:
256,184,127033,1,2,0:0:0:0:
256,184,127102,1,2,0:0:0:0:
256,184,127170,1,0,0:0:0:0:
256,184,127238,1,2,0:0:0:0:
256,184,127306,1,0,0:0:0:0:
256,184,127374,1,2,0:0:0:0:
256,184,127442,1,0,0:0:0:0:
256,184,127511,1,0,0:0:0:0:
256,184,127579,1,2,0:0:0:0:
256,184,127647,1,2,0:0:0:0:
256,184,127715,1,0,0:0:0:0:
256,184,127761,1,0,0:0:0:0:
240,176,127806,1,0,0:0:0:0:
256,184,127852,1,2,0:0:0:0:
256,184,127920,1,2,0:0:0:0:
256,184,127988,1,0,0:0:0:0:
256,184,128033,1,0,0:0:0:0:
256,184,128079,1,0,0:0:0:0:
256,184,128124,1,2,0:0:0:0:
256,184,128192,1,2,0:0:0:0:
228,176,128261,1,0,0:0:0:0:
256,184,128306,1,0,0:0:0:0:
256,184,128352,1,0,0:0:0:0:
256,184,128397,1,2,0:0:0:0:
256,184,128465,1,2,0:0:0:0:
256,184,128533,1,0,0:0:0:0:
256,184,128579,1,0,0:0:0:0:
256,184,128624,1,0,0:0:0:0:
256,184,128670,1,2,0:0:0:0:
256,184,128738,1,2,0:0:0:0:
256,184,128806,1,0,0:0:0:0:
256,184,128874,1,2,0:0:0:0:
240,176,128942,1,2,0:0:0:0:
256,184,129011,1,0,0:0:0:0:
256,184,129079,1,2,0:0:0:0:
256,184,129147,1,2,0:0:0:0:
256,184,129215,1,0,0:0:0:0:
256,184,129352,1,0,0:0:0:0:
256,184,129488,1,0,0:0:0:0:
256,184,129624,1,6,0:0:0:0:
256,184,129897,1,4,0:0:0:0:
256,184,130033,1,2,0:0:0:0:
256,184,130102,1,2,0:0:0:0:
256,184,130170,1,0,0:0:0:0:
244,128,130306,1,2,0:0:0:0:
256,184,130442,1,0,0:0:0:0:
256,184,130511,1,0,0:0:0:0:
256,184,130579,1,2,0:0:0:0:
256,184,130715,1,0,0:0:0:0:
256,184,130852,1,2,0:0:0:0:
256,184,130920,1,0,0:0:0:0:
256,184,130988,1,0,0:0:0:0:
256,184,131124,1,2,0:0:0:0:
256,184,131261,1,0,0:0:0:0:
256,184,131329,1,0,0:0:0:0:
256,184,131397,1,2,0:0:0:0:
256,184,131465,1,2,0:0:0:0:
260,156,131533,1,0,0:0:0:0:
256,184,131670,1,2,0:0:0:0:
256,184,131738,1,2,0:0:0:0:
256,184,131806,1,0,0:0:0:0:
256,184,131874,1,0,0:0:0:0:
256,184,131942,1,2,0:0:0:0:
256,184,132079,1,0,0:0:0:0:
328,136,132147,1,2,0:0:0:0:
256,184,132215,1,0,0:0:0:0:
256,184,132283,1,0,0:0:0:0:
256,184,132352,1,2,0:0:0:0:
384,152,132420,1,0,0:0:0:0:
256,184,132488,1,0,0:0:0:0:
332,156,132556,1,0,0:0:0:0:
256,184,132624,1,2,0:0:0:0:
256,184,132692,1,2,0:0:0:0:
256,184,132761,1,0,0:0:0:0:
256,184,132829,1,0,0:0:0:0:
256,184,132897,1,2,0:0:0:0:
256,184,132965,1,0,0:0:0:0:
256,184,133033,1,2,0:0:0:0:
324,120,133170,1,0,0:0:0:0:
352,112,133238,1,2,0:0:0:0:
352,112,133306,1,0,0:0:0:0:
352,112,133374,1,0,0:0:0:0:
324,120,133442,1,2,0:0:0:0:
340,88,133579,1,2,0:0:0:0:
340,88,133715,1,0,0:0:0:0:
340,88,133783,1,2,0:0:0:0:
340,88,133852,1,0,0:0:0:0:
340,88,133920,1,0,0:0:0:0:
340,88,133988,1,2,0:0:0:0:
340,88,134056,1,0,0:0:0:0:
352,112,134124,1,2,0:0:0:0:
340,88,134261,1,2,0:0:0:0:
256,184,134329,1,2,0:0:0:0:
256,184,134397,1,0,0:0:0:0:
336,132,134465,1,0,0:0:0:0:
256,184,134533,1,2,0:0:0:0:
256,184,134670,1,0,0:0:0:0:
256,184,134806,1,2,0:0:0:0:
256,184,134874,1,2,0:0:0:0:
256,184,134942,1,0,0:0:0:0:
256,184,135079,1,2,0:0:0:0:
256,184,135215,1,0,0:0:0:0:
256,184,135283,1,2,0:0:0:0:
256,184,135352,1,0,0:0:0:0:
256,184,135420,1,0,0:0:0:0:
256,184,135488,1,2,0:0:0:0:
256,184,135556,1,0,0:0:0:0:
256,184,135624,1,2,0:0:0:0:
256,184,135761,1,2,0:0:0:0:
256,184,135897,1,2,0:0:0:0:
256,184,135965,1,0,0:0:0:0:
256,184,136033,1,0,0:0:0:0:
256,184,136170,1,2,0:0:0:0:
256,184,136306,1,0,0:0:0:0:
256,184,136374,1,2,0:0:0:0:
256,184,136442,1,0,0:0:0:0:
256,184,136511,1,0,0:0:0:0:
256,184,136579,1,2,0:0:0:0:
256,184,136647,1,0,0:0:0:0:
256,184,136715,1,2,0:0:0:0:
256,184,136783,1,0,0:0:0:0:
256,184,136852,1,0,0:0:0:0:
256,184,136920,1,0,0:0:0:0:
256,184,136988,1,2,0:0:0:0:
256,184,137056,1,2,0:0:0:0:
256,184,137124,1,0,0:0:0:0:
256,184,137192,1,0,0:0:0:0:
256,184,137261,1,2,0:0:0:0:
256,184,137329,1,0,0:0:0:0:
256,184,137397,1,2,0:0:0:0:
256,184,137533,1,4,0:0:0:0:
256,184,137806,1,4,0:0:0:0:
256,184,138079,1,6,0:0:0:0:
256,184,138352,1,0,0:0:0:0:
256,184,138420,1,0,0:0:0:0:
256,184,138488,1,0,0:0:0:0:
256,184,138556,1,0,0:0:0:0:
256,184,138624,1,2,0:0:0:0:
256,184,138897,1,0,0:0:0:0:
256,184,139170,1,2,0:0:0:0:
256,184,139442,1,0,0:0:0:0:
256,184,139579,1,2,0:0:0:0:
256,184,139715,1,0,0:0:0:0:
256,184,139852,1,0,0:0:0:0:
256,128,139988,1,2,0:0:0:0:
256,184,140261,1,2,0:0:0:0:
256,184,140533,1,0,0:0:0:0:
256,184,140670,1,2,0:0:0:0:
256,184,140806,1,0,0:0:0:0:
256,184,141079,1,0,0:0:0:0:
256,184,141215,1,2,0:0:0:0:
256,184,141352,1,2,0:0:0:0:
256,184,141488,1,0,0:0:0:0:
256,184,141624,1,0,0:0:0:0:
256,184,141761,1,2,0:0:0:0:
256,184,141897,1,0,0:0:0:0:
256,184,142102,1,0,0:0:0:0:
256,184,142306,1,2,0:0:0:0:
256,184,142442,1,0,0:0:0:0:
256,184,142579,1,0,0:0:0:0:
256,184,142715,1,2,0:0:0:0:
256,184,142852,1,2,0:0:0:0:
256,184,142988,1,0,0:0:0:0:
256,184,143261,1,0,0:0:0:0:
256,184,143533,1,2,0:0:0:0:
256,184,143670,1,0,0:0:0:0:
256,184,143806,1,0,0:0:0:0:
256,184,143942,1,2,0:0:0:0:
256,184,144079,1,0,0:0:0:0:
256,184,144352,1,0,0:0:0:0:
256,184,144488,1,0,0:0:0:0:
256,184,144624,1,2,0:0:0:0:
256,184,144897,1,0,0:0:0:0:
256,184,145033,1,2,0:0:0:0:
256,184,145170,1,0,0:0:0:0:
256,184,145442,1,2,0:0:0:0:
256,184,145579,1,2,0:0:0:0:
256,184,145715,1,0,0:0:0:0:
256,184,145852,1,0,0:0:0:0:
256,184,145988,1,2,0:0:0:0:
256,184,146124,1,2,0:0:0:0:
256,184,146261,1,4,0:0:0:0:
256,184,146806,1,6,0:0:0:0:
256,184,147352,1,4,0:0:0:0:
256,184,147488,1,0,0:0:0:0:
256,184,147624,1,2,0:0:0:0:
256,184,147761,1,0,0:0:0:0:
256,184,147897,1,2,0:0:0:0:
256,184,148033,1,0,0:0:0:0:
256,184,148170,1,0,0:0:0:0:
256,184,148306,1,2,0:0:0:0:
256,184,148442,1,0,0:0:0:0:
256,184,148579,1,0,0:0:0:0:
256,184,148715,1,2,0:0:0:0:
256,184,148852,1,0,0:0:0:0:
256,184,148988,1,2,0:0:0:0:
256,184,149124,1,2,0:0:0:0:
256,184,149261,1,0,0:0:0:0:
256,184,149397,1,2,0:0:0:0:
