osu file format v14

[General]
AudioFilename: mp3.mp3
AudioLeadIn: 0
PreviewTime: 93830
Countdown: 0
SampleSet: Normal
StackLeniency: 0.7
Mode: 0
LetterboxInBreaks: 0
WidescreenStoryboard: 1

[Editor]
Bookmarks: 20807
DistanceSpacing: 1
BeatDivisor: 4
GridSize: 4
TimelineZoom: 2.4

[Metadata]
Title:Tits or get the fuck out!!
TitleUnicode:Tits or get the fuck out!!
Artist:Morimori Atsushi
ArtistUnicode:モリモリあつし
Creator:DT-sama
Version:mori, mori al sushi.
Source:東方Project
Tags:
BeatmapID:1932985
BeatmapSetID:925374

[Difficulty]
HPDrainRate:6
CircleSize:4
OverallDifficulty:9.5
ApproachRate:9.7
SliderMultiplier:1.9
SliderTickRate:2

[Events]
//Background and Video events
0,0,"maxresdefault.jpg",0,0
//Break Periods
2,73371,81305
//Storyboard Layer 0 (Background)
//Storyboard Layer 1 (Fail)
//Storyboard Layer 2 (Pass)
//Storyboard Layer 3 (Foreground)
//Storyboard Sound Samples

[TimingPoints]
3353,272.727272727273,4,1,1,100,1,0
28443,-100,4,1,1,100,0,1
29534,-100,4,1,1,100,0,0
62262,-100,4,1,1,100,0,1
63216,-100,4,1,1,100,0,0
63353,-100,4,1,1,100,0,1
64443,-100,4,1,1,100,0,0
93898,-66.6666666666667,4,1,1,100,0,1
94443,-66.6666666666667,4,1,1,100,0,0
94716,-66.6666666666667,4,1,1,100,0,1
94853,-66.6666666666667,4,1,1,100,0,0
94989,-66.6666666666667,4,1,1,100,0,1
98807,-66.6666666666667,4,1,1,100,0,0
99353,-66.6666666666667,4,1,1,100,0,1
99625,-66.6666666666667,4,1,1,100,0,0
99762,-66.6666666666667,4,1,1,100,0,1
103580,-66.6666666666667,4,1,1,100,0,0
103989,-66.6666666666667,4,1,1,100,0,1
107534,-66.6666666666667,4,1,1,100,0,0
108080,-66.6666666666667,4,1,1,100,0,1
108353,-66.6666666666667,4,1,1,100,0,0
108489,-66.6666666666667,4,1,1,100,0,1
112443,-66.6666666666667,4,1,1,100,0,0
116807,-66.6666666666667,4,1,1,100,0,1
118989,-66.6666666666667,4,1,1,100,0,0
119057,-66.6666666666667,4,1,1,100,0,1
119193,-66.6666666666667,4,1,1,100,0,0
119262,-66.6666666666667,4,1,1,100,0,1
119398,-66.6666666666667,4,1,1,100,0,0
119466,-66.6666666666667,4,1,1,100,0,1
119603,-66.6666666666667,4,1,1,100,0,0
119671,-66.6666666666667,4,1,1,100,0,1
119807,-66.6666666666667,4,1,1,100,0,0
119875,-66.6666666666667,4,1,1,100,0,1
120012,-66.6666666666667,4,1,1,100,0,0
120080,-66.6666666666667,4,1,1,100,0,1
120898,-66.6666666666667,4,1,1,100,0,0
121171,-66.6666666666667,4,1,1,100,0,1
125262,-66.6666666666667,4,1,1,100,0,0
125534,-66.6666666666667,4,1,1,100,0,1
129898,-66.6666666666667,4,1,1,100,0,0

[Colours]
Combo1 : 0,128,255
Combo2 : 0,255,255
Combo3 : 128,128,255
Combo4 : 166,0,255

[HitObjects]
87,105,3353,5,0,0:0:0:0:
157,166,3489,1,0,0:0:0:0:
237,117,3625,1,0,0:0:0:0:
68,90,3762,1,0,0:0:0:0:
243,137,3898,6,0,P|301:183|419:187,1,190
367,55,4443,1,0,0:0:0:0:
438,140,4580,1,0,0:0:0:0:
329,182,4716,1,0,0:0:0:0:
411,277,4853,1,0,0:0:0:0:
351,159,4989,5,0,0:0:0:0:
445,263,5125,2,0,P|331:320|258:294,1,190
145,329,5534,1,0,0:0:0:0:
74,244,5671,1,0,0:0:0:0:
183,202,5807,1,0,0:0:0:0:
101,107,5944,1,0,0:0:0:0:
161,225,6080,5,0,0:0:0:0:
67,121,6216,2,0,P|105:77|152:57,1,95
255,130,6489,1,0,0:0:0:0:
250,35,6625,1,0,0:0:0:0:
157,130,6762,1,0,0:0:0:0:
359,137,6898,1,0,0:0:0:0:
144,24,7034,1,0,0:0:0:0:
253,241,7171,1,0,0:0:0:0:
356,32,7307,1,0,0:0:0:0:
147,233,7443,1,0,0:0:0:0:
357,246,7580,1,0,0:0:0:0:
251,34,7716,6,0,L|254:150,1,95
254,252,7989,1,0,0:0:0:0:
268,333,8125,1,0,0:0:0:0:
219,262,8262,5,0,0:0:0:0:
305,325,8398,1,0,0:0:0:0:
401,305,8534,1,0,0:0:0:0:
421,206,8671,1,0,0:0:0:0:
300,178,8807,1,0,0:0:0:0:
280,281,8943,1,0,0:0:0:0:
401,305,9080,2,0,P|434:197|402:127,1,190
127,59,9625,1,0,0:0:0:0:
231,126,9762,1,0,0:0:0:0:
222,39,9898,5,0,0:0:0:0:
111,156,10034,1,0,0:0:0:0:
252,277,10171,1,0,0:0:0:0:
370,152,10307,1,0,0:0:0:0:
132,71,10443,2,0,P|53:96|21:148,2,142.5
131,174,10989,5,0,0:0:0:0:
258,234,11125,1,0,0:0:0:0:
306,122,11262,1,0,0:0:0:0:
183,59,11398,1,0,0:0:0:0:
157,130,11534,5,0,0:0:0:0:
225,250,11671,1,0,0:0:0:0:
341,186,11807,1,0,0:0:0:0:
282,83,11943,1,0,0:0:0:0:
166,207,12080,5,0,0:0:0:0:
160,232,12148,1,0,0:0:0:0:
154,255,12216,1,0,0:0:0:0:
148,280,12284,1,0,0:0:0:0:
141,313,12353,2,0,P|106:342|27:346,2,95
243,240,12762,1,0,0:0:0:0:
319,286,12898,1,0,0:0:0:0:
399,183,13034,1,0,0:0:0:0:
317,197,13171,5,0,0:0:0:0:
439,308,13307,1,0,0:0:0:0:
484,165,13443,1,0,0:0:0:0:
363,42,13580,1,0,0:0:0:0:
314,221,13716,5,0,0:0:0:0:
475,137,13853,1,0,0:0:0:0:
394,10,13989,1,0,0:0:0:0:
283,74,14125,1,0,0:0:0:0:
350,205,14262,5,0,0:0:0:0:
363,224,14330,1,0,0:0:0:0:
376,241,14398,1,0,0:0:0:0:
387,258,14466,1,0,0:0:0:0:
401,278,14534,2,0,P|470:327|551:319,2,142.5
346,172,15080,5,0,0:0:0:0:
262,114,15216,1,0,0:0:0:0:
118,53,15353,5,0,0:0:0:0:
211,148,15489,1,0,0:0:0:0:
327,148,15625,1,0,0:0:0:0:
410,43,15762,1,0,0:0:0:0:
405,276,15898,5,0,0:0:0:0:
213,282,16034,1,0,0:0:0:0:
124,162,16171,1,0,0:0:0:0:
174,45,16307,1,0,0:0:0:0:
265,7,16443,5,0,0:0:0:0:
267,67,16512,1,0,0:0:0:0:
269,110,16580,1,0,0:0:0:0:
271,159,16648,1,0,0:0:0:0:
274,214,16716,2,0,P|276:267|306:344,2,95
398,117,17125,5,0,0:0:0:0:
470,205,17262,1,0,0:0:0:0:
361,210,17398,1,0,0:0:0:0:
490,175,17534,1,0,0:0:0:0:
413,94,17671,5,0,0:0:0:0:
286,96,17807,1,0,0:0:0:0:
183,211,17943,1,0,0:0:0:0:
298,326,18080,1,0,0:0:0:0:
411,207,18216,1,0,0:0:0:0:
357,61,18353,1,0,0:0:0:0:
204,57,18489,1,0,0:0:0:0:
162,186,18625,5,0,0:0:0:0:
191,213,18693,1,0,0:0:0:0:
228,244,18762,1,0,0:0:0:0:
262,269,18830,1,0,0:0:0:0:
304,294,18898,2,0,P|400:276|459:200,1,190
256,192,19716,12,0,20671,0:0:0:0:
115,101,20807,5,0,0:0:0:0:
208,264,20943,1,0,0:0:0:0:
355,188,21080,1,0,0:0:0:0:
282,42,21216,1,0,0:0:0:0:
141,140,21353,5,0,0:0:0:0:
296,276,21489,1,0,0:0:0:0:
428,126,21625,1,0,0:0:0:0:
255,8,21762,1,0,0:0:0:0:
218,283,21898,5,0,0:0:0:0:
386,172,22034,1,0,0:0:0:0:
279,0,22171,1,0,0:0:0:0:
104,101,22307,1,0,0:0:0:0:
218,283,22443,1,0,0:0:0:0:
66,145,22580,5,0,0:0:0:0:
202,11,22716,1,0,0:0:0:0:
357,145,22853,1,0,0:0:0:0:
218,283,22989,5,0,0:0:0:0:
324,322,23125,1,0,0:0:0:0:
439,316,23262,5,0,0:0:0:0:
439,316,23398,1,0,0:0:0:0:
506,134,23534,5,0,0:0:0:0:
506,134,23671,1,0,0:0:0:0:
352,7,23807,5,0,0:0:0:0:
352,7,23943,1,0,0:0:0:0:
180,92,24080,5,0,0:0:0:0:
79,88,24216,1,0,0:0:0:0:
433,296,24353,5,0,0:0:0:0:
332,292,24489,1,0,0:0:0:0:
180,292,24625,5,0,0:0:0:0:
79,296,24761,1,0,0:0:0:0:
332,92,24898,5,0,0:0:0:0:
433,88,25034,1,0,0:0:0:0:
384,288,25171,5,0,0:0:0:0:
384,288,25239,1,0,0:0:0:0:
384,288,25307,1,0,0:0:0:0:
384,288,25375,1,0,0:0:0:0:
384,288,25443,2,0,P|322:303|260:267,2,95
301,210,25853,5,0,0:0:0:0:
150,200,25989,1,0,0:0:0:0:
279,187,26125,1,0,0:0:0:0:
145,105,26262,1,0,0:0:0:0:
304,25,26398,2,0,P|380:57|415:82,1,95
379,275,26671,2,0,P|376:197|402:159,1,95
461,348,26943,5,0,0:0:0:0:
257,355,27080,1,0,0:0:0:0:
56,354,27216,1,0,0:0:0:0:
155,193,27353,5,0,0:0:0:0:
259,246,27489,1,0,0:0:0:0:
206,347,27625,1,0,0:0:0:0:
98,293,27762,1,0,0:0:0:0:
354,88,27898,5,0,0:0:0:0:
169,85,28034,1,0,0:0:0:0:
186,271,28171,1,0,0:0:0:0:
374,265,28307,1,0,0:0:0:0:
138,161,28443,5,0,0:0:0:0:
349,39,28580,1,0,0:0:0:0:
476,230,28716,1,0,0:0:0:0:
261,368,28853,1,0,0:0:0:0:
351,340,28989,5,0,0:0:0:0:
362,66,29125,1,0,0:0:0:0:
106,48,29262,1,0,0:0:0:0:
67,300,29398,1,0,0:0:0:0:
121,324,29466,1,0,0:0:0:0:
173,343,29534,5,0,0:0:0:0:
204,10,29671,1,0,0:0:0:0:
91,245,29807,1,0,0:0:0:0:
342,384,29943,1,0,0:0:0:0:
496,120,30080,1,0,0:0:0:0:
211,200,30216,1,0,0:0:0:0:
338,246,30353,1,0,0:0:0:0:
411,126,30489,1,0,0:0:0:0:
324,21,30625,5,0,0:0:0:0:
219,73,30762,1,0,0:0:0:0:
438,229,30898,1,0,0:0:0:0:
446,127,31034,1,0,0:0:0:0:
230,190,31171,1,0,0:0:0:0:
318,269,31307,1,0,0:0:0:0:
101,188,31443,1,0,0:0:0:0:
35,272,31580,1,0,0:0:0:0:
166,364,31716,5,0,0:0:0:0:
421,320,31853,1,0,0:0:0:0:
349,79,31989,1,0,0:0:0:0:
120,117,32125,1,0,0:0:0:0:
96,224,32262,5,0,0:0:0:0:
209,247,32398,1,0,0:0:0:0:
237,133,32534,1,0,0:0:0:0:
112,111,32671,1,0,0:0:0:0:
106,240,32807,5,0,0:0:0:0:
121,283,32875,1,0,0:0:0:0:
168,314,32943,1,0,0:0:0:0:
200,349,33012,1,0,0:0:0:0:
251,354,33080,1,0,0:0:0:0:
300,333,33148,1,0,0:0:0:0:
351,327,33216,1,0,0:0:0:0:
391,353,33284,1,0,0:0:0:0:
444,365,33353,1,0,0:0:0:0:
482,333,33421,1,0,0:0:0:0:
478,281,33489,1,0,0:0:0:0:
450,242,33557,1,0,0:0:0:0:
404,222,33625,6,0,P|364:147|372:101,1,95
478,51,33898,5,0,0:0:0:0:
368,81,34034,1,0,0:0:0:0:
191,59,34171,1,0,0:0:0:0:
191,59,34307,1,0,0:0:0:0:
419,15,34443,5,0,0:0:0:0:
287,152,34580,1,0,0:0:0:0:
191,59,34716,1,0,0:0:0:0:
191,59,34853,1,0,0:0:0:0:
329,35,34989,5,0,0:0:0:0:
356,88,35057,1,0,0:0:0:0:
410,111,35125,1,0,0:0:0:0:
460,143,35193,1,0,0:0:0:0:
476,199,35262,1,0,0:0:0:0:
458,255,35330,1,0,0:0:0:0:
424,296,35398,1,0,0:0:0:0:
290,255,35534,1,0,0:0:0:0:
381,190,35671,1,0,0:0:0:0:
424,296,35807,1,0,0:0:0:0:
334,370,35943,5,0,0:0:0:0:
274,359,36012,1,0,0:0:0:0:
221,323,36080,1,0,0:0:0:0:
165,316,36148,1,0,0:0:0:0:
117,343,36216,1,0,0:0:0:0:
4,345,36353,1,0,0:0:0:0:
117,343,36489,5,0,0:0:0:0:
177,336,36557,1,0,0:0:0:0:
208,290,36625,1,0,0:0:0:0:
219,236,36693,1,0,0:0:0:0:
253,194,36762,1,0,0:0:0:0:
310,186,36830,1,0,0:0:0:0:
356,224,36898,1,0,0:0:0:0:
395,193,36966,1,0,0:0:0:0:
452,194,37034,1,0,0:0:0:0:
498,233,37103,1,0,0:0:0:0:
512,285,37171,5,0,0:0:0:0:
392,348,37307,1,0,0:0:0:0:
305,237,37443,1,0,0:0:0:0:
391,128,37580,1,0,0:0:0:0:
508,212,37716,1,0,0:0:0:0:
428,318,37853,1,0,0:0:0:0:
284,267,37989,1,0,0:0:0:0:
285,137,38125,1,0,0:0:0:0:
423,83,38262,5,0,0:0:0:0:
83,172,38534,5,0,0:0:0:0:
103,216,38625,1,0,0:0:0:0:
155,234,38716,1,0,0:0:0:0:
245,145,38807,1,0,0:0:0:0:
203,141,38898,1,0,0:0:0:0:
161,162,38989,1,0,0:0:0:0:
230,215,39080,1,0,0:0:0:0:
336,352,39353,5,0,0:0:0:0:
377,258,39625,5,0,0:0:0:0:
357,214,39716,1,0,0:0:0:0:
305,196,39807,1,0,0:0:0:0:
215,285,39898,1,0,0:0:0:0:
257,289,39989,1,0,0:0:0:0:
299,268,40080,1,0,0:0:0:0:
230,215,40171,1,0,0:0:0:0:
66,66,40443,5,0,0:0:0:0:
85,117,40512,1,0,0:0:0:0:
134,147,40580,1,0,0:0:0:0:
192,141,40648,1,0,0:0:0:0:
240,113,40716,1,0,0:0:0:0:
440,125,40853,1,0,0:0:0:0:
396,87,40921,1,0,0:0:0:0:
336,84,40989,1,0,0:0:0:0:
240,113,41125,1,0,0:0:0:0:
249,166,41193,1,0,0:0:0:0:
291,194,41262,1,0,0:0:0:0:
342,195,41330,1,0,0:0:0:0:
390,203,41398,1,0,0:0:0:0:
426,237,41466,1,0,0:0:0:0:
446,285,41534,5,0,0:0:0:0:
387,272,41603,1,0,0:0:0:0:
330,289,41671,1,0,0:0:0:0:
296,338,41739,1,0,0:0:0:0:
251,304,41807,1,0,0:0:0:0:
195,294,41875,1,0,0:0:0:0:
145,317,41943,1,0,0:0:0:0:
97,330,42012,1,0,0:0:0:0:
47,305,42080,1,0,0:0:0:0:
46,247,42148,1,0,0:0:0:0:
94,207,42216,1,0,0:0:0:0:
147,233,42284,1,0,0:0:0:0:
167,287,42353,1,0,0:0:0:0:
205,327,42421,1,0,0:0:0:0:
268,336,42489,1,0,0:0:0:0:
312,305,42557,1,0,0:0:0:0:
325,246,42625,5,0,0:0:0:0:
195,40,42898,5,0,0:0:0:0:
240,23,42989,1,0,0:0:0:0:
289,47,43080,1,0,0:0:0:0:
290,173,43171,1,0,0:0:0:0:
257,146,43262,1,0,0:0:0:0:
243,102,43353,1,0,0:0:0:0:
329,113,43444,1,0,0:0:0:0:
501,91,43717,5,0,0:0:0:0:
463,187,43989,5,0,0:0:0:0:
418,204,44080,1,0,0:0:0:0:
368,180,44171,1,0,0:0:0:0:
368,53,44262,1,0,0:0:0:0:
400,80,44353,1,0,0:0:0:0:
415,124,44444,1,0,0:0:0:0:
329,113,44535,1,0,0:0:0:0:
124,109,44807,5,0,0:0:0:0:
142,154,44875,1,0,0:0:0:0:
185,179,44943,1,0,0:0:0:0:
239,178,45012,1,0,0:0:0:0:
285,147,45080,1,0,0:0:0:0:
222,28,45216,1,0,0:0:0:0:
256,65,45284,1,0,0:0:0:0:
302,67,45352,1,0,0:0:0:0:
491,31,45489,1,0,0:0:0:0:
446,29,45557,1,0,0:0:0:0:
405,46,45625,1,0,0:0:0:0:
386,88,45693,1,0,0:0:0:0:
390,136,45762,1,0,0:0:0:0:
474,287,45898,5,0,0:0:0:0:
433,253,45966,1,0,0:0:0:0:
389,237,46034,1,0,0:0:0:0:
341,249,46103,1,0,0:0:0:0:
305,297,46171,1,0,0:0:0:0:
249,307,46239,1,0,0:0:0:0:
195,288,46307,1,0,0:0:0:0:
163,238,46375,1,0,0:0:0:0:
191,182,46443,1,0,0:0:0:0:
251,181,46512,1,0,0:0:0:0:
294,228,46580,1,0,0:0:0:0:
347,246,46648,1,0,0:0:0:0:
396,216,46716,1,0,0:0:0:0:
399,157,46784,1,0,0:0:0:0:
353,118,46853,1,0,0:0:0:0:
328,67,46921,1,0,0:0:0:0:
363,20,46989,5,0,0:0:0:0:
193,99,47262,6,0,P|238:52|246:23,5,63.3333333333333
154,32,47807,1,0,0:0:0:0:
105,186,48080,5,0,0:0:0:0:
223,282,48353,6,0,P|178:329|170:358,5,63.3333333333333
262,349,48898,1,0,0:0:0:0:
447,249,49171,5,0,0:0:0:0:
408,281,49239,1,0,0:0:0:0:
358,285,49307,1,0,0:0:0:0:
308,256,49375,1,0,0:0:0:0:
300,203,49443,1,0,0:0:0:0:
328,158,49512,1,0,0:0:0:0:
384,155,49580,1,0,0:0:0:0:
432,135,49648,1,0,0:0:0:0:
438,78,49716,1,0,0:0:0:0:
408,36,49784,1,0,0:0:0:0:
358,22,49853,1,0,0:0:0:0:
313,37,49921,1,0,0:0:0:0:
295,85,49989,5,0,0:0:0:0:
233,192,50125,1,0,0:0:0:0:
295,85,50262,1,0,0:0:0:0:
336,78,50330,1,0,0:0:0:0:
380,105,50398,1,0,0:0:0:0:
394,157,50466,1,0,0:0:0:0:
412,207,50534,1,0,0:0:0:0:
406,207,50671,5,0,0:0:0:0:
383,164,50739,1,0,0:0:0:0:
394,115,50807,1,0,0:0:0:0:
428,86,50875,1,0,0:0:0:0:
465,46,50943,1,0,0:0:0:0:
440,4,51012,1,0,0:0:0:0:
465,46,51080,5,0,0:0:0:0:
428,86,51148,1,0,0:0:0:0:
396,117,51216,1,0,0:0:0:0:
384,165,51284,1,0,0:0:0:0:
407,202,51353,5,0,0:0:0:0:
456,219,51421,1,0,0:0:0:0:
482,266,51489,1,0,0:0:0:0:
473,305,51557,1,0,0:0:0:0:
439,338,51625,1,0,0:0:0:0:
473,305,51693,1,0,0:0:0:0:
482,266,51762,1,0,0:0:0:0:
456,219,51830,1,0,0:0:0:0:
407,202,51898,5,0,0:0:0:0:
439,338,52034,1,0,0:0:0:0:
473,305,52103,1,0,0:0:0:0:
482,266,52171,1,0,0:0:0:0:
456,219,52239,1,0,0:0:0:0:
407,202,52307,1,0,0:0:0:0:
361,187,52375,1,0,0:0:0:0:
343,139,52443,5,0,0:0:0:0:
489,59,52716,5,0,0:0:0:0:
402,82,52807,1,0,0:0:0:0:
324,45,52898,1,0,0:0:0:0:
250,68,52989,2,0,P|125:65|111:48,2,126.666666666667
152,202,53534,6,0,L|216:336,2,142.5
243,211,54080,6,0,L|302:285,2,95
333,198,54489,6,0,L|386:241,2,47.5
410,167,54762,6,0,L|454:182,2,23.75
256,192,54898,12,0,55443,0:0:0:0:
104,180,55716,5,0,0:0:0:0:
361,286,55853,1,0,0:0:0:0:
438,89,55989,1,0,0:0:0:0:
248,16,56125,1,0,0:0:0:0:
155,200,56262,1,0,0:0:0:0:
284,262,56398,1,0,0:0:0:0:
350,129,56534,1,0,0:0:0:0:
215,76,56671,1,0,0:0:0:0:
181,148,56807,5,0,0:0:0:0:
266,186,56943,1,0,0:0:0:0:
474,180,57080,1,0,0:0:0:0:
390,231,57216,1,0,0:0:0:0:
214,202,57353,1,0,0:0:0:0:
299,240,57489,1,0,0:0:0:0:
507,234,57626,1,0,0:0:0:0:
423,285,57762,1,0,0:0:0:0:
224,295,57898,5,0,0:0:0:0:
315,354,58034,1,0,0:0:0:0:
333,300,58103,1,0,0:0:0:0:
335,241,58171,1,0,0:0:0:0:
289,199,58239,1,0,0:0:0:0:
239,177,58307,1,0,0:0:0:0:
186,199,58375,1,0,0:0:0:0:
141,228,58443,1,0,0:0:0:0:
135,280,58512,1,0,0:0:0:0:
133,329,58580,1,0,0:0:0:0:
172,368,58648,1,0,0:0:0:0:
222,384,58716,1,0,0:0:0:0:
279,372,58784,1,0,0:0:0:0:
336,358,58853,1,0,0:0:0:0:
394,357,58921,1,0,0:0:0:0:
456,363,58989,5,0,0:0:0:0:
484,313,59057,1,0,0:0:0:0:
460,263,59125,1,0,0:0:0:0:
266,103,59262,1,0,0:0:0:0:
274,159,59331,1,0,0:0:0:0:
317,196,59399,1,0,0:0:0:0:
497,89,59534,1,0,0:0:0:0:
444,95,59603,1,0,0:0:0:0:
416,140,59671,1,0,0:0:0:0:
271,332,59807,1,0,0:0:0:0:
323,334,59875,1,0,0:0:0:0:
361,304,59943,1,0,0:0:0:0:
416,140,60080,5,0,0:0:0:0:
364,101,60148,1,0,0:0:0:0:
301,102,60216,1,0,0:0:0:0:
249,143,60284,1,0,0:0:0:0:
186,163,60353,1,0,0:0:0:0:
126,130,60421,1,0,0:0:0:0:
121,64,60489,5,0,0:0:0:0:
239,20,60625,1,0,0:0:0:0:
231,159,60762,1,0,0:0:0:0:
410,204,60898,1,0,0:0:0:0:
182,46,61034,1,0,0:0:0:0:
333,98,61171,1,0,0:0:0:0:
169,177,61307,1,0,0:0:0:0:
168,178,61375,1,0,0:0:0:0:
169,177,61443,5,0,0:0:0:0:
272,334,61580,1,0,0:0:0:0:
459,303,61717,1,0,0:0:0:0:
512,126,61853,1,0,0:0:0:0:
325,17,61990,1,0,0:0:0:0:
505,95,62125,1,0,0:0:0:0:
446,297,62262,5,0,0:0:0:0:
396,323,62330,1,0,0:0:0:0:
331,325,62398,1,0,0:0:0:0:
275,287,62466,1,0,0:0:0:0:
269,215,62534,1,0,0:0:0:0:
327,172,62603,1,0,0:0:0:0:
395,199,62671,5,0,0:0:0:0:
318,225,62739,1,0,0:0:0:0:
246,191,62807,1,0,0:0:0:0:
154,142,62875,1,0,0:0:0:0:
64,176,62943,1,0,0:0:0:0:
62,275,63012,1,0,0:0:0:0:
137,333,63080,1,0,0:0:0:0:
222,296,63148,1,0,0:0:0:0:
256,207,63216,1,0,0:0:0:0:
326,150,63284,1,0,0:0:0:0:
423,163,63353,5,0,0:0:0:0:
283,368,63489,1,0,0:0:0:0:
71,234,63625,1,0,0:0:0:0:
206,35,63762,1,0,0:0:0:0:
350,37,63898,5,0,0:0:0:0:
442,309,64034,1,0,0:0:0:0:
191,375,64171,1,0,0:0:0:0:
100,96,64307,1,0,0:0:0:0:
155,65,64375,1,0,0:0:0:0:
206,35,64443,6,0,P|281:35|387:125,1,190
312,259,64853,1,0,0:0:0:0:
276,155,64989,5,0,0:0:0:0:
276,155,65125,1,0,0:0:0:0:
398,191,65262,5,0,0:0:0:0:
398,191,65398,1,0,0:0:0:0:
443,322,65534,6,0,P|372:332|341:320,1,95
108,251,65807,2,0,P|157:238|206:246,1,95
229,355,66080,1,0,0:0:0:0:
121,343,66216,1,0,0:0:0:0:
133,227,66353,1,0,0:0:0:0:
242,240,66489,1,0,0:0:0:0:
370,284,66625,6,0,P|437:280|464:254,1,95
345,53,66898,2,0,P|355:106|395:149,1,95
481,65,67171,1,0,0:0:0:0:
297,27,67307,1,0,0:0:0:0:
255,200,67443,1,0,0:0:0:0:
437,254,67580,1,0,0:0:0:0:
473,157,67716,5,0,0:0:0:0:
115,29,67921,5,0,0:0:0:0:
0,350,68125,5,0,0:0:0:0:
226,257,68262,1,0,0:0:0:0:
4,210,68398,1,0,0:0:0:0:
154,382,68534,1,0,0:0:0:0:
134,134,68671,1,0,0:0:0:0:
32,113,68807,5,0,0:0:0:0:
63,179,68875,1,0,0:0:0:0:
131,210,68943,1,0,0:0:0:0:
198,187,69012,1,0,0:0:0:0:
236,127,69080,1,0,0:0:0:0:
290,95,69148,1,0,0:0:0:0:
339,104,69216,2,0,P|398:143|423:180,1,95
374,366,69489,2,0,P|359:291|374:258,1,95
364,275,69762,1,0,0:0:0:0:
492,237,69898,5,0,0:0:0:0:
435,234,69966,1,0,0:0:0:0:
385,202,70034,1,0,0:0:0:0:
404,104,70171,1,0,0:0:0:0:
368,60,70239,1,0,0:0:0:0:
320,73,70307,1,0,0:0:0:0:
274,74,70375,1,0,0:0:0:0:
255,119,70443,1,0,0:0:0:0:
246,284,70580,6,0,P|308:268|333:237,1,95
131,211,70853,1,0,0:0:0:0:
131,211,70921,1,0,0:0:0:0:
131,211,70989,5,0,0:0:0:0:
131,211,71057,1,0,0:0:0:0:
129,216,71125,1,0,0:0:0:0:
129,216,71193,1,0,0:0:0:0:
132,218,71262,5,0,0:0:0:0:
137,224,71330,1,0,0:0:0:0:
148,239,71398,1,0,0:0:0:0:
164,256,71466,1,0,0:0:0:0:
190,272,71534,1,0,0:0:0:0:
231,283,71603,1,0,0:0:0:0:
270,284,71671,1,0,0:0:0:0:
318,268,71739,1,0,0:0:0:0:
366,233,71807,1,0,0:0:0:0:
399,170,71875,1,0,0:0:0:0:
404,98,71943,1,0,0:0:0:0:
356,27,72012,1,0,0:0:0:0:
244,23,72080,5,0,0:0:0:0:
240,131,72216,1,0,0:0:0:0:
346,137,72353,1,0,0:0:0:0:
357,41,72489,1,0,0:0:0:0:
282,36,72625,5,0,0:0:0:0:
203,111,72762,1,0,0:0:0:0:
274,200,72898,1,0,0:0:0:0:
365,130,73034,1,0,0:0:0:0:
311,60,73171,5,0,0:0:0:0:
93,245,81830,5,0,0:0:0:0:
93,245,81898,1,0,0:0:0:0:
191,271,82034,1,0,0:0:0:0:
176,178,82171,1,0,0:0:0:0:
278,209,82307,1,0,0:0:0:0:
264,122,82443,1,0,0:0:0:0:
372,152,82580,1,0,0:0:0:0:
346,56,82716,1,0,0:0:0:0:
495,95,82853,1,0,0:0:0:0:
463,251,82989,5,0,0:0:0:0:
346,226,83125,1,0,0:0:0:0:
325,120,83262,1,0,0:0:0:0:
436,70,83398,1,0,0:0:0:0:
511,157,83534,1,0,0:0:0:0:
399,323,83671,1,0,0:0:0:0:
399,323,83739,1,0,0:0:0:0:
399,323,83807,1,0,0:0:0:0:
272,283,83943,1,0,0:0:0:0:
177,337,84080,5,0,0:0:0:0:
161,155,84353,5,0,0:0:0:0:
177,337,84489,1,0,0:0:0:0:
340,249,84762,5,0,0:0:0:0:
161,155,84899,1,0,0:0:0:0:
447,87,85171,5,0,0:0:0:0:
340,249,85307,1,0,0:0:0:0:
260,0,85580,5,0,0:0:0:0:
447,87,85716,1,0,0:0:0:0:
161,155,85853,5,0,0:0:0:0:
161,155,85921,1,0,0:0:0:0:
161,155,85989,1,0,0:0:0:0:
260,0,86125,1,0,0:0:0:0:
447,87,86262,5,0,0:0:0:0:
340,249,86398,1,0,0:0:0:0:
290,156,86534,1,0,0:0:0:0:
290,156,86671,1,0,0:0:0:0:
296,384,86807,5,0,0:0:0:0:
134,277,86943,1,0,0:0:0:0:
227,227,87079,1,0,0:0:0:0:
227,227,87216,1,0,0:0:0:0:
132,373,87353,5,0,0:0:0:0:
214,343,87489,1,0,0:0:0:0:
139,187,87625,1,0,0:0:0:0:
139,187,87762,1,0,0:0:0:0:
209,250,87898,5,0,0:0:0:0:
291,220,88034,1,0,0:0:0:0:
291,220,88103,1,0,0:0:0:0:
291,220,88170,1,0,0:0:0:0:
216,64,88307,1,0,0:0:0:0:
290,115,88443,5,0,0:0:0:0:
378,99,88580,1,0,0:0:0:0:
306,135,88716,1,0,0:0:0:0:
394,119,88853,1,0,0:0:0:0:
328,158,88989,5,0,0:0:0:0:
416,142,89126,1,0,0:0:0:0:
344,178,89262,1,0,0:0:0:0:
390,248,89399,1,0,0:0:0:0:
470,214,89534,5,0,0:0:0:0:
470,214,89671,1,0,0:0:0:0:
291,259,89807,1,0,0:0:0:0:
291,259,89943,1,0,0:0:0:0:
185,179,90080,5,0,0:0:0:0:
185,179,90217,1,0,0:0:0:0:
185,179,90284,1,0,0:0:0:0:
185,179,90353,1,0,0:0:0:0:
6,224,90489,1,0,0:0:0:0:
6,224,90625,5,0,0:0:0:0:
76,293,90762,1,0,0:0:0:0:
128,113,90898,5,0,0:0:0:0:
114,217,91034,1,0,0:0:0:0:
262,289,91171,5,0,0:0:0:0:
199,179,91307,1,0,0:0:0:0:
387,55,91443,5,0,0:0:0:0:
300,193,91580,1,0,0:0:0:0:
395,311,91716,1,0,0:0:0:0:
508,256,91853,1,0,0:0:0:0:
486,140,91989,1,0,0:0:0:0:
357,104,92125,1,0,0:0:0:0:
309,212,92262,1,0,0:0:0:0:
342,86,92398,1,0,0:0:0:0:
341,84,92466,1,0,0:0:0:0:
341,84,92534,1,0,0:0:0:0:
487,77,92671,1,0,0:0:0:0:
434,237,92807,5,0,0:0:0:0:
486,83,92943,1,0,0:0:0:0:
283,190,93080,5,0,0:0:0:0:
434,237,93216,1,0,0:0:0:0:
334,39,93353,5,0,0:0:0:0:
283,190,93489,1,0,0:0:0:0:
434,237,93625,1,0,0:0:0:0:
486,83,93762,1,0,0:0:0:0:
334,39,93898,5,0,0:0:0:0:
256,192,94034,12,0,94307,0:0:0:0:
256,192,94443,12,0,94853,0:0:0:0:
125,217,94989,5,0,0:0:0:0:
306,345,95125,1,0,0:0:0:0:
433,179,95262,1,0,0:0:0:0:
248,37,95398,1,0,0:0:0:0:
138,97,95534,5,0,0:0:0:0:
207,330,95671,1,0,0:0:0:0:
431,283,95807,1,0,0:0:0:0:
371,52,95943,1,0,0:0:0:0:
127,224,96080,5,0,0:0:0:0:
406,157,96216,1,0,0:0:0:0:
106,61,96353,1,0,0:0:0:0:
420,181,96489,1,0,0:0:0:0:
91,315,96625,5,0,0:0:0:0:
437,201,96762,1,0,0:0:0:0:
64,20,96898,1,0,0:0:0:0:
458,218,97034,1,0,0:0:0:0:
369,323,97171,5,0,0:0:0:0:
272,300,97307,1,0,0:0:0:0:
224,199,97443,1,0,0:0:0:0:
246,103,97580,1,0,0:0:0:0:
426,308,97716,5,0,0:0:0:0:
248,331,97853,1,0,0:0:0:0:
143,184,97989,1,0,0:0:0:0:
215,23,98125,1,0,0:0:0:0:
390,104,98262,6,0,P|402:190|383:243,1,142.5
82,132,98534,2,0,P|211:139|274:187,1,142.500005435944
219,353,98807,5,0,0:0:0:0:
134,171,98943,1,0,0:0:0:0:
389,249,99080,1,0,0:0:0:0:
283,43,99216,1,0,0:0:0:0:
169,354,99353,5,0,0:0:0:0:
303,339,99489,1,0,0:0:0:0:
346,207,99625,1,0,0:0:0:0:
421,141,99762,1,0,0:0:0:0:
500,288,99898,5,0,0:0:0:0:
449,317,99966,1,0,0:0:0:0:
390,305,100034,1,0,0:0:0:0:
349,260,100103,1,0,0:0:0:0:
325,201,100171,5,0,0:0:0:0:
213,183,100307,1,0,0:0:0:0:
90,109,100443,5,0,0:0:0:0:
222,92,100580,1,0,0:0:0:0:
428,233,100716,1,0,0:0:0:0:
321,184,100853,1,0,0:0:0:0:
125,302,100989,1,0,0:0:0:0:
220,244,101125,1,0,0:0:0:0:
416,362,101262,1,0,0:0:0:0:
298,315,101398,1,0,0:0:0:0:
318,95,101534,5,0,0:0:0:0:
436,147,101671,1,0,0:0:0:0:
308,280,101807,1,0,0:0:0:0:
343,168,101943,1,0,0:0:0:0:
496,319,102080,1,0,0:0:0:0:
346,355,102216,1,0,0:0:0:0:
383,57,102353,1,0,0:0:0:0:
502,223,102489,1,0,0:0:0:0:
209,232,102625,5,0,0:0:0:0:
280,125,102762,1,0,0:0:0:0:
280,125,102830,1,0,0:0:0:0:
280,125,102898,1,0,0:0:0:0:
458,281,103034,1,0,0:0:0:0:
315,227,103171,1,0,0:0:0:0:
477,42,103307,5,0,0:0:0:0:
423,195,103443,1,0,0:0:0:0:
376,87,103580,1,0,0:0:0:0:
491,133,103716,5,0,0:0:0:0:
338,181,103853,5,0,0:0:0:0:
209,109,103989,5,0,0:0:0:0:
53,171,104125,1,0,0:0:0:0:
142,338,104262,1,0,0:0:0:0:
294,267,104398,1,0,0:0:0:0:
471,303,104534,1,0,0:0:0:0:
471,303,104671,1,0,0:0:0:0:
416,174,104807,5,0,0:0:0:0:
397,199,104943,1,0,0:0:0:0:
258,68,105080,1,0,0:0:0:0:
305,154,105216,1,0,0:0:0:0:
472,30,105353,1,0,0:0:0:0:
374,85,105489,1,0,0:0:0:0:
99,139,105625,1,0,0:0:0:0:
220,51,105762,1,0,0:0:0:0:
322,186,105898,5,0,0:0:0:0:
203,278,106034,1,0,0:0:0:0:
99,139,106171,1,0,0:0:0:0:
220,51,106307,1,0,0:0:0:0:
336,79,106443,5,0,0:0:0:0:
404,324,106580,1,0,0:0:0:0:
166,379,106716,1,0,0:0:0:0:
99,139,106853,1,0,0:0:0:0:
220,51,106989,5,0,0:0:0:0:
307,190,107125,1,0,0:0:0:0:
157,273,107262,1,0,0:0:0:0:
74,124,107398,1,0,0:0:0:0:
138,37,107534,5,0,0:0:0:0:
257,84,107671,1,0,0:0:0:0:
373,48,107807,1,0,0:0:0:0:
477,93,107943,1,0,0:0:0:0:
466,215,108080,5,0,0:0:0:0:
368,254,108216,1,0,0:0:0:0:
260,204,108353,1,0,0:0:0:0:
204,202,108421,1,0,0:0:0:0:
171,240,108489,1,0,0:0:0:0:
155,291,108557,1,0,0:0:0:0:
107,321,108625,1,0,0:0:0:0:
44,304,108693,1,0,0:0:0:0:
30,240,108762,5,0,0:0:0:0:
125,97,108898,2,0,P|243:72|286:96,1,142.500005435944
512,152,109171,5,0,0:0:0:0:
481,188,109239,1,0,0:0:0:0:
434,205,109307,1,0,0:0:0:0:
380,197,109375,1,0,0:0:0:0:
340,159,109443,1,0,0:0:0:0:
416,63,109580,1,0,0:0:0:0:
340,159,109716,5,0,0:0:0:0:
286,141,109784,1,0,0:0:0:0:
237,151,109853,1,0,0:0:0:0:
201,192,109921,1,0,0:0:0:0:
198,244,109989,1,0,0:0:0:0:
329,308,110125,1,0,0:0:0:0:
198,244,110262,5,0,0:0:0:0:
181,292,110330,1,0,0:0:0:0:
146,331,110398,1,0,0:0:0:0:
93,347,110466,1,0,0:0:0:0:
43,327,110534,1,0,0:0:0:0:
11,277,110603,1,0,0:0:0:0:
12,217,110671,1,0,0:0:0:0:
52,171,110739,1,0,0:0:0:0:
107,157,110807,1,0,0:0:0:0:
159,175,110875,1,0,0:0:0:0:
217,167,110943,1,0,0:0:0:0:
253,117,111012,1,0,0:0:0:0:
246,57,111080,1,0,0:0:0:0:
191,22,111148,1,0,0:0:0:0:
136,41,111216,1,0,0:0:0:0:
113,97,111284,1,0,0:0:0:0:
142,152,111353,5,0,0:0:0:0:
409,253,111489,1,0,0:0:0:0:
409,253,111557,1,0,0:0:0:0:
409,253,111625,1,0,0:0:0:0:
317,155,111762,1,0,0:0:0:0:
261,295,111898,1,0,0:0:0:0:
413,355,112034,1,0,0:0:0:0:
496,126,112171,1,0,0:0:0:0:
240,20,112307,1,0,0:0:0:0:
13,165,112443,5,0,0:0:0:0:
76,216,112580,1,0,0:0:0:0:
168,125,112716,5,0,0:0:0:0:
166,203,112853,1,0,0:0:0:0:
306,199,112989,5,0,0:0:0:0:
234,246,113125,1,0,0:0:0:0:
166,203,113262,1,0,0:0:0:0:
168,125,113398,1,0,0:0:0:0:
264,94,113534,5,0,0:0:0:0:
346,157,113671,1,0,0:0:0:0:
424,103,113807,1,0,0:0:0:0:
388,12,113943,1,0,0:0:0:0:
296,13,114080,1,0,0:0:0:0:
264,94,114216,1,0,0:0:0:0:
172,105,114353,1,0,0:0:0:0:
104,42,114489,1,0,0:0:0:0:
17,53,114625,5,0,0:0:0:0:
17,53,114762,1,0,0:0:0:0:
17,53,114898,1,0,0:0:0:0:
19,139,115034,1,0,0:0:0:0:
98,197,115171,1,0,0:0:0:0:
96,289,115307,1,0,0:0:0:0:
26,357,115443,1,0,0:0:0:0:
26,357,115580,1,0,0:0:0:0:
26,357,115716,5,0,0:0:0:0:
204,286,115853,1,0,0:0:0:0:
66,228,115989,1,0,0:0:0:0:
120,348,116125,5,0,0:0:0:0:
206,182,116262,1,0,0:0:0:0:
112,144,116398,1,0,0:0:0:0:
295,234,116534,5,0,0:0:0:0:
189,92,116671,1,0,0:0:0:0:
56,192,116807,5,0,0:0:0:0:
67,217,116875,1,0,0:0:0:0:
86,242,116943,1,0,0:0:0:0:
110,260,117012,1,0,0:0:0:0:
128,289,117080,1,0,0:0:0:0:
131,317,117148,1,0,0:0:0:0:
121,343,117216,1,0,0:0:0:0:
151,350,117284,1,0,0:0:0:0:
177,329,117353,1,0,0:0:0:0:
206,324,117421,1,0,0:0:0:0:
240,348,117489,1,0,0:0:0:0:
269,349,117557,1,0,0:0:0:0:
291,328,117625,1,0,0:0:0:0:
316,303,117693,1,0,0:0:0:0:
338,322,117762,1,0,0:0:0:0:
371,323,117830,1,0,0:0:0:0:
401,305,117898,5,0,0:0:0:0:
415,258,117966,1,0,0:0:0:0:
393,214,118034,1,0,0:0:0:0:
353,186,118103,1,0,0:0:0:0:
310,160,118171,1,0,0:0:0:0:
296,103,118239,1,0,0:0:0:0:
328,64,118307,1,0,0:0:0:0:
384,73,118375,1,0,0:0:0:0:
406,120,118443,1,0,0:0:0:0:
450,147,118512,1,0,0:0:0:0:
414,175,118580,1,0,0:0:0:0:
406,223,118648,1,0,0:0:0:0:
381,253,118716,1,0,0:0:0:0:
322,259,118784,1,0,0:0:0:0:
266,229,118853,1,0,0:0:0:0:
259,165,118921,1,0,0:0:0:0:
284,108,118989,5,0,0:0:0:0:
312,94,119057,1,0,0:0:0:0:
418,140,119193,5,0,0:0:0:0:
432,168,119261,1,0,0:0:0:0:
409,300,119398,5,0,0:0:0:0:
399,329,119466,1,0,0:0:0:0:
291,372,119603,5,0,0:0:0:0:
261,362,119671,1,0,0:0:0:0:
131,300,119807,5,0,0:0:0:0:
102,290,119875,1,0,0:0:0:0:
59,182,120012,5,0,0:0:0:0:
69,152,120080,1,0,0:0:0:0:
166,75,120216,1,0,0:0:0:0:
213,96,120284,1,0,0:0:0:0:
234,144,120353,1,0,0:0:0:0:
154,154,120489,1,0,0:0:0:0:
255,102,120625,5,0,0:0:0:0:
342,158,120762,1,0,0:0:0:0:
321,269,120898,1,0,0:0:0:0:
193,269,121034,1,0,0:0:0:0:
110,171,121171,5,0,0:0:0:0:
39,113,121307,1,0,0:0:0:0:
480,178,121443,5,0,0:0:0:0:
261,102,121580,5,0,0:0:0:0:
76,260,121716,1,0,0:0:0:0:
143,174,121853,1,0,0:0:0:0:
480,91,121989,5,0,0:0:0:0:
260,194,122125,5,0,0:0:0:0:
171,346,122262,5,0,0:0:0:0:
60,342,122398,1,0,0:0:0:0:
482,273,122534,5,0,0:0:0:0:
484,360,122671,1,0,0:0:0:0:
80,211,122807,5,0,0:0:0:0:
155,265,122943,1,0,0:0:0:0:
481,66,123080,5,0,0:0:0:0:
260,279,123216,5,0,0:0:0:0:
474,193,123353,5,0,0:0:0:0:
350,155,123489,1,0,0:0:0:0:
166,101,123625,5,0,0:0:0:0:
56,61,123762,1,0,0:0:0:0:
251,210,123898,5,0,0:0:0:0:
468,283,124034,1,0,0:0:0:0:
69,294,124171,1,0,0:0:0:0:
183,344,124307,5,0,0:0:0:0:
358,319,124443,1,0,0:0:0:0:
323,143,124580,1,0,0:0:0:0:
151,174,124716,1,0,0:0:0:0:
285,241,124853,5,0,0:0:0:0:
481,190,124989,1,0,0:0:0:0:
416,97,125125,1,0,0:0:0:0:
253,174,125262,5,0,0:0:0:0:
54,231,125398,1,0,0:0:0:0:
78,105,125534,1,0,0:0:0:0:
204,53,125671,1,0,0:0:0:0:
253,174,125807,1,0,0:0:0:0:
126,234,125943,1,0,0:0:0:0:
295,56,126080,5,0,0:0:0:0:
402,145,126216,1,0,0:0:0:0:
314,253,126353,1,0,0:0:0:0:
206,172,126489,1,0,0:0:0:0:
467,267,126625,5,0,0:0:0:0:
351,357,126762,1,0,0:0:0:0:
175,286,126898,1,0,0:0:0:0:
213,257,126966,1,0,0:0:0:0:
297,148,127103,1,0,0:0:0:0:
158,49,127239,1,0,0:0:0:0:
120,71,127307,1,0,0:0:0:0:
86,93,127375,1,0,0:0:0:0:
59,223,127512,1,0,0:0:0:0:
113,242,127580,1,0,0:0:0:0:
163,221,127648,1,0,0:0:0:0:
196,171,127716,5,0,0:0:0:0:
75,51,127853,1,0,0:0:0:0:
92,182,127989,1,0,0:0:0:0:
311,118,128125,1,0,0:0:0:0:
189,37,128262,1,0,0:0:0:0:
177,313,128398,1,0,0:0:0:0:
353,252,128534,1,0,0:0:0:0:
165,117,128671,1,0,0:0:0:0:
71,284,128807,5,0,0:0:0:0:
267,359,128943,1,0,0:0:0:0:
335,306,129012,1,0,0:0:0:0:
335,218,129080,1,0,0:0:0:0:
512,201,129216,1,0,0:0:0:0:
440,163,129284,1,0,0:0:0:0:
367,173,129353,1,0,0:0:0:0:
332,235,129421,1,0,0:0:0:0:
256,192,129489,12,0,129762,0:0:0:0:
