osu file format v14

[General]
AudioFilename: audio.mp3
AudioLeadIn: 0
PreviewTime: 380620
Countdown: 0
SampleSet: Normal
StackLeniency: 0.7
Mode: 1
LetterboxInBreaks: 0
WidescreenStoryboard: 0

[Editor]
Bookmarks: 23895,28258,32622,36985,41349,45713,50076,54440,58804,63167,67531,71895,76258,80622,84985,89349,93713,96985,100258,103531,106803,110076,113349,116622,119894,123167,126440,129713,132985,136258,140621,144985,149348,151530,155894,162439,164894,173076,173348,179894,182348,184258,186439,190803,195167,199530,203894,208258,212621,216985,221348,225712,230076,234439,238803,243167,247530,251894,256258,260621,264985,269348,274257,279166,282438,285711,288984,292257,295529,298802,302075,305348,308620,311893,316256,320620,324983,328256,331529,333165,333711,338074,340529,348711,348983,355529,357983,359893,362074,366165,366438,368620,370802,372983,375438,377347,379529,380620,383893,390438,392893,410074,414438,418802,423165,427529,431893,436256,440620,444983,449347,453711
DistanceSpacing: 1.4
BeatDivisor: 4
GridSize: 32
TimelineZoom: 3.399999

[Metadata]
Title:Time Capsule
TitleUnicode:タイムカプセル
Artist:Morimori Atsushi
ArtistUnicode:モリモリあつし
Creator:eiri-
Version:Collapse
Source:
Tags:Ayyri Electronic Instrumental M3-37 Irreversible Rhythm NNRR-0007
BeatmapID:2473534
BeatmapSetID:1186866

[Difficulty]
HPDrainRate:5
CircleSize:2
OverallDifficulty:7
ApproachRate:10
SliderMultiplier:1.4
SliderTickRate:1

[Events]
//Background and Video events
0,0,"Miku 82.jpg",0,25
//Break Periods
//Storyboard Layer 0 (Background)
//Storyboard Layer 1 (Fail)
//Storyboard Layer 2 (Pass)
//Storyboard Layer 3 (Foreground)
//Storyboard Layer 4 (Overlay)
//Storyboard Sound Samples

[TimingPoints]
23895,272.727272727273,4,1,0,75,1,0
41451,-103.092783505155,4,1,0,75,0,0
41588,-105.263157894737,4,1,0,75,0,0
41724,-107.52688172043,4,1,0,75,0,0
41997,-111.111111111111,4,1,0,75,0,0
49497,-108.695652173913,4,1,0,75,0,0
49633,-106.382978723404,4,1,0,75,0,0
49770,-104.166666666667,4,1,0,75,0,0
49906,-102.040816326531,4,1,0,75,0,0
50042,-100,4,1,0,75,0,0
93713,272.727272727273,3,1,0,75,1,0
93951,-105.263157894737,3,1,0,75,0,0
94224,-111.111111111111,3,1,0,75,0,0
106224,-108.695652173913,3,1,0,75,0,0
106360,-106.382978723404,3,1,0,75,0,0
106497,-104.166666666667,3,1,0,75,0,0
106633,-102.040816326531,3,1,0,75,0,0
106769,-100,3,1,0,75,0,0
136258,272.727272727273,4,1,0,75,1,0
136633,-103.092783505155,4,1,0,75,0,0
136769,-105.263157894737,4,1,0,75,0,0
137042,-111.111111111111,4,1,0,75,0,0
144678,-105.263157894737,4,1,0,75,0,0
144814,-103.092783505155,4,1,0,75,0,0
144951,-100,4,1,0,75,0,0
155894,-100,4,1,0,75,0,1
162439,-100,4,1,0,75,0,0
164894,-100,4,1,0,75,0,1
173076,-100,4,1,0,75,0,0
173348,-100,4,1,0,75,0,1
179894,-100,4,1,0,75,0,0
182348,-100,4,1,0,75,0,1
184258,-100,4,1,0,75,0,0
186439,-100,4,1,0,75,0,1
190803,-100,4,1,0,75,0,0
217087,-103.092783505155,4,1,0,75,0,0
217223,-105.263157894737,4,1,0,75,0,0
217360,-107.52688172043,4,1,0,75,0,0
217633,-111.111111111111,4,1,0,75,0,0
225133,-108.695652173913,4,1,0,75,0,0
225269,-106.382978723404,4,1,0,75,0,0
225405,-104.166666666667,4,1,0,75,0,0
225542,-102.040816326531,4,1,0,75,0,0
225678,-100,4,1,0,75,0,0
234678,-103.092783505155,4,1,0,75,0,0
235087,-105.263157894737,4,1,0,75,0,0
235496,-111.111111111111,4,1,0,75,0,0
242042,-100,4,1,0,75,0,0
269348,272.727272727273,3,1,0,75,1,0
269586,-103.092783505155,3,1,0,75,0,0
269859,-105.263157894737,3,1,0,75,0,0
269995,-107.52688172043,3,1,0,75,0,0
270132,-111.111111111111,3,1,0,75,0,0
281859,-108.695652173913,3,1,0,75,0,0
281995,-106.382978723404,3,1,0,75,0,0
282132,-104.166666666667,3,1,0,75,0,0
282268,-102.040816326531,3,1,0,75,0,0
282404,-100,3,1,0,75,0,0
311893,272.727272727273,4,1,0,75,1,0
312268,-103.092783505155,4,1,0,75,0,0
312404,-105.263157894737,4,1,0,75,0,0
312677,-111.111111111111,4,1,0,75,0,0
320313,-105.263157894737,4,1,0,75,0,0
320449,-103.092783505155,4,1,0,75,0,0
320586,-100,4,1,0,75,0,0
331529,-100,4,1,0,75,0,1
333165,-100,4,1,0,75,0,0
333711,-100,4,1,0,75,0,1
338074,-100,4,1,0,75,0,0
340529,-100,4,1,0,75,0,1
348711,-100,4,1,0,75,0,0
348983,-100,4,1,0,75,0,1
355529,-100,4,1,0,75,0,0
357983,-100,4,1,0,75,0,1
359893,-100,4,1,0,75,0,0
362074,-100,4,1,0,75,0,1
366165,-100,4,1,0,75,0,0
366438,-100,4,1,0,75,0,1
368620,-100,4,1,0,75,0,0
370802,-100,4,1,0,75,0,1
372983,-100,4,1,0,75,0,0
375438,-100,4,1,0,75,0,1
377347,-100,4,1,0,75,0,0
379529,-100,4,1,0,75,0,1
380620,-100,4,1,0,75,0,0
383893,-100,4,1,0,75,0,1
390438,-100,4,1,0,75,0,0
392893,-100,4,1,0,75,0,1
410074,-100,4,1,0,75,0,0
445086,-100,4,1,0,50,0,0
447131,-100,4,1,0,40,0,0
449313,-100,4,1,0,30,0,0
451495,-100,4,1,0,20,0,0
452586,-100,4,1,0,10,0,0
453677,-100,4,1,0,5,0,0

[HitObjects]
256,192,23622,5,8,0:0:0:0:
256,192,23758,1,0,0:0:0:0:
256,192,23895,1,12,0:0:0:0:
256,192,24167,1,0,0:0:0:0:
256,192,24576,1,8,0:0:0:0:
256,192,24985,1,0,0:0:0:0:
256,192,25258,1,0,0:0:0:0:
256,192,25667,1,8,0:0:0:0:
256,192,26076,1,0,0:0:0:0:
256,192,26349,1,0,0:0:0:0:
256,192,26758,1,8,0:0:0:0:
256,192,27167,1,0,0:0:0:0:
256,192,27440,1,0,0:0:0:0:
256,192,27849,1,8,0:0:0:0:
256,192,28258,1,0,0:0:0:0:
256,192,28531,1,0,0:0:0:0:
256,192,28940,1,8,0:0:0:0:
256,192,29349,1,0,0:0:0:0:
256,192,29622,1,0,0:0:0:0:
256,192,30031,1,8,0:0:0:0:
256,192,30440,1,0,0:0:0:0:
256,192,30713,1,0,0:0:0:0:
256,192,31122,1,8,0:0:0:0:
256,192,31531,1,0,0:0:0:0:
256,192,31804,1,0,0:0:0:0:
256,192,32213,1,8,0:0:0:0:
256,192,32622,1,12,0:0:0:0:
256,192,32758,1,0,0:0:0:0:
256,192,32895,1,8,0:0:0:0:
256,192,33031,1,8,0:0:0:0:
256,192,33167,1,8,0:0:0:0:
256,192,33235,1,8,0:0:0:0:
256,192,33304,1,0,0:0:0:0:
256,192,33372,1,0,0:0:0:0:
256,192,33440,1,8,0:0:0:0:
256,192,33508,1,0,0:0:0:0:
256,192,33576,1,8,0:0:0:0:
256,192,33713,1,0,0:0:0:0:
256,192,33849,1,0,0:0:0:0:
256,192,33985,1,8,0:0:0:0:
256,192,34122,1,0,0:0:0:0:
256,192,34190,1,0,0:0:0:0:
256,192,34258,1,8,0:0:0:0:
256,192,34326,1,0,0:0:0:0:
256,192,34463,1,0,0:0:0:0:
256,192,34531,1,8,0:0:0:0:
256,192,34667,1,8,0:0:0:0:
256,192,34804,1,0,0:0:0:0:
256,192,34872,1,0,0:0:0:0:
256,192,34940,1,8,0:0:0:0:
256,192,35076,1,8,0:0:0:0:
256,192,35145,1,8,0:0:0:0:
256,192,35213,1,0,0:0:0:0:
256,192,35281,1,8,0:0:0:0:
256,192,35349,1,0,0:0:0:0:
256,192,35417,1,0,0:0:0:0:
256,192,35486,1,0,0:0:0:0:
256,192,35622,1,8,0:0:0:0:
256,192,35690,1,0,0:0:0:0:
256,192,35758,1,8,0:0:0:0:
256,192,35895,1,0,0:0:0:0:
256,192,36032,1,0,0:0:0:0:
256,192,36099,1,0,0:0:0:0:
256,192,36168,1,8,0:0:0:0:
256,192,36235,1,8,0:0:0:0:
256,192,36304,1,0,0:0:0:0:
256,192,36440,1,0,0:0:0:0:
256,192,36508,1,0,0:0:0:0:
256,192,36577,1,0,0:0:0:0:
256,192,36645,1,0,0:0:0:0:
256,192,36713,1,12,0:0:0:0:
256,192,36849,1,0,0:0:0:0:
256,192,36985,1,12,0:0:0:0:
256,192,37121,1,0,0:0:0:0:
256,192,37258,1,8,0:0:0:0:
256,192,37394,1,0,0:0:0:0:
256,192,37530,1,8,0:0:0:0:
256,192,37598,1,8,0:0:0:0:
256,192,37667,1,8,0:0:0:0:
256,192,37735,1,8,0:0:0:0:
256,192,37803,1,0,0:0:0:0:
256,192,37849,1,8,0:0:0:0:
256,192,37895,1,8,0:0:0:0:
256,192,37939,1,0,0:0:0:0:
256,192,38008,1,0,0:0:0:0:
256,192,38076,1,12,0:0:0:0:
256,192,38212,1,0,0:0:0:0:
256,192,38348,1,8,0:0:0:0:
256,192,38417,1,0,0:0:0:0:
256,192,38485,1,8,0:0:0:0:
256,192,38621,1,8,0:0:0:0:
256,192,38689,1,8,0:0:0:0:
256,192,38758,1,8,0:0:0:0:
256,192,38826,1,8,0:0:0:0:
256,192,38894,1,0,0:0:0:0:
256,192,38940,1,8,0:0:0:0:
256,192,38985,1,8,0:0:0:0:
256,192,39030,1,0,0:0:0:0:
256,192,39167,1,8,0:0:0:0:
256,192,39235,1,8,0:0:0:0:
256,192,39304,1,8,0:0:0:0:
256,192,39372,1,8,0:0:0:0:
256,192,39440,1,0,0:0:0:0:
256,192,39486,1,8,0:0:0:0:
256,192,39532,1,8,0:0:0:0:
256,192,39576,1,0,0:0:0:0:
256,192,39645,1,0,0:0:0:0:
256,192,39713,1,8,0:0:0:0:
256,192,39781,1,8,0:0:0:0:
256,192,39849,1,0,0:0:0:0:
256,192,39917,1,0,0:0:0:0:
256,192,39985,1,8,0:0:0:0:
256,192,40031,1,8,0:0:0:0:
256,192,40077,1,8,0:0:0:0:
256,192,40121,1,0,0:0:0:0:
256,192,40190,1,0,0:0:0:0:
256,192,40258,1,12,0:0:0:0:
256,192,40395,1,0,0:0:0:0:
256,192,40531,1,8,0:0:0:0:
256,192,40667,1,0,0:0:0:0:
256,192,40804,1,8,0:0:0:0:
256,192,40849,1,8,0:0:0:0:
256,192,40895,1,8,0:0:0:0:
256,192,40940,1,0,0:0:0:0:
256,192,41008,1,0,0:0:0:0:
256,192,41076,1,8,0:0:0:0:
256,192,41145,1,8,0:0:0:0:
256,192,41213,1,0,0:0:0:0:
256,192,41281,1,0,0:0:0:0:
256,192,41349,1,12,0:0:0:0:
256,192,41485,1,0,0:0:0:0:
256,192,41622,1,8,0:0:0:0:
256,192,41758,1,8,0:0:0:0:
256,192,42031,1,0,0:0:0:0:
256,192,42167,1,8,0:0:0:0:
256,192,42304,1,8,0:0:0:0:
256,192,42576,1,0,0:0:0:0:
256,192,42713,1,8,0:0:0:0:
256,192,42849,1,8,0:0:0:0:
256,192,42985,1,0,0:0:0:0:
256,192,43122,1,0,0:0:0:0:
256,192,43258,1,8,0:0:0:0:
256,192,43395,1,0,0:0:0:0:
256,192,43667,1,0,0:0:0:0:
256,192,43804,1,8,0:0:0:0:
256,192,43940,1,8,0:0:0:0:
256,192,44213,1,0,0:0:0:0:
256,192,44350,1,8,0:0:0:0:
256,192,44486,1,8,0:0:0:0:
256,192,44758,1,0,0:0:0:0:
256,192,44895,1,8,0:0:0:0:
256,192,45031,1,8,0:0:0:0:
256,192,45167,1,0,0:0:0:0:
256,192,45304,1,8,0:0:0:0:
256,192,45440,1,0,0:0:0:0:
256,192,45577,1,8,0:0:0:0:
256,192,45713,1,0,0:0:0:0:
256,192,45849,1,8,0:0:0:0:
256,192,45985,1,8,0:0:0:0:
256,192,46122,1,0,0:0:0:0:
256,192,46395,1,0,0:0:0:0:
256,192,46531,1,8,0:0:0:0:
256,192,46667,1,0,0:0:0:0:
256,192,46940,1,0,0:0:0:0:
256,192,47076,1,8,0:0:0:0:
256,192,47213,1,8,0:0:0:0:
256,192,47349,1,0,0:0:0:0:
256,192,47485,1,8,0:0:0:0:
256,192,47622,1,0,0:0:0:0:
256,192,47758,1,8,0:0:0:0:
256,192,48031,1,0,0:0:0:0:
256,192,48167,1,8,0:0:0:0:
256,192,48304,1,8,0:0:0:0:
256,192,48576,1,0,0:0:0:0:
256,192,48713,1,8,0:0:0:0:
256,192,48849,1,8,0:0:0:0:
256,192,49122,1,0,0:0:0:0:
256,192,49258,1,8,0:0:0:0:
256,192,49395,1,0,0:0:0:0:
256,192,49531,1,8,0:0:0:0:
256,192,49667,1,8,0:0:0:0:
256,192,49804,1,0,0:0:0:0:
256,192,49940,1,0,0:0:0:0:
256,192,50076,1,12,0:0:0:0:
256,192,50485,1,12,0:0:0:0:
256,192,51167,1,12,0:0:0:0:
256,192,51576,1,12,0:0:0:0:
256,192,52258,1,12,0:0:0:0:
256,192,52667,1,12,0:0:0:0:
256,192,53349,1,12,0:0:0:0:
256,192,53758,1,12,0:0:0:0:
256,192,54167,1,12,0:0:0:0:
256,192,54440,1,12,0:0:0:0:
256,192,54849,1,12,0:0:0:0:
256,192,55258,1,12,0:0:0:0:
256,192,55667,1,12,0:0:0:0:
256,192,56076,1,12,0:0:0:0:
256,192,56349,1,12,0:0:0:0:
256,192,56622,1,12,0:0:0:0:
256,192,57031,1,12,0:0:0:0:
256,192,57440,1,12,0:0:0:0:
256,192,57713,1,12,0:0:0:0:
256,192,57849,1,0,0:0:0:0:
256,192,57985,1,8,0:0:0:0:
256,192,58122,1,0,0:0:0:0:
256,192,58258,1,8,0:0:0:0:
256,192,58326,1,8,0:0:0:0:
256,192,58395,1,0,0:0:0:0:
256,192,58463,1,0,0:0:0:0:
256,192,58531,1,8,0:0:0:0:
256,192,58576,1,8,0:0:0:0:
256,192,58622,1,8,0:0:0:0:
256,192,58667,1,0,0:0:0:0:
256,192,58735,1,0,0:0:0:0:
256,192,58804,1,8,0:0:0:0:
256,192,58940,1,0,0:0:0:0:
256,192,59076,1,12,0:0:0:0:
256,192,59213,1,0,0:0:0:0:
256,192,59281,1,0,0:0:0:0:
256,192,59349,1,8,0:0:0:0:
256,192,59417,1,8,0:0:0:0:
256,192,59485,1,0,0:0:0:0:
256,192,59554,1,0,0:0:0:0:
256,192,59622,1,8,0:0:0:0:
256,192,59758,1,0,0:0:0:0:
256,192,59826,1,0,0:0:0:0:
256,192,59895,1,8,0:0:0:0:
256,192,60167,1,8,0:0:0:0:
256,192,60304,1,0,0:0:0:0:
256,192,60372,1,0,0:0:0:0:
256,192,60440,1,8,0:0:0:0:
256,192,60508,1,8,0:0:0:0:
256,192,60576,1,0,0:0:0:0:
256,192,60645,1,0,0:0:0:0:
256,192,60713,1,8,0:0:0:0:
256,192,60849,1,0,0:0:0:0:
256,192,60985,1,8,0:0:0:0:
256,192,61122,1,8,0:0:0:0:
256,192,61258,1,8,0:0:0:0:
256,192,61395,1,0,0:0:0:0:
256,192,61531,1,8,0:0:0:0:
256,192,61667,1,8,0:0:0:0:
256,192,61713,1,0,0:0:0:0:
256,192,61758,1,0,0:0:0:0:
256,192,61804,1,8,0:0:0:0:
256,192,61940,1,0,0:0:0:0:
256,192,62076,1,8,0:0:0:0:
256,192,62349,1,8,0:0:0:0:
256,192,62485,1,0,0:0:0:0:
256,192,62622,1,0,0:0:0:0:
256,192,62895,1,8,0:0:0:0:
256,192,63099,1,0,0:0:0:0:
256,192,63167,1,8,0:0:0:0:
256,192,63440,1,8,0:0:0:0:
256,192,63849,1,0,0:0:0:0:
256,192,63985,1,8,0:0:0:0:
256,192,64258,1,0,0:0:0:0:
256,192,64531,1,8,0:0:0:0:
256,192,64940,1,0,0:0:0:0:
256,192,65076,1,8,0:0:0:0:
256,192,65213,1,0,0:0:0:0:
256,192,65349,1,8,0:0:0:0:
256,192,65485,1,8,0:0:0:0:
256,192,65622,1,0,0:0:0:0:
256,192,65758,1,8,0:0:0:0:
256,192,65895,1,0,0:0:0:0:
256,192,66031,1,0,0:0:0:0:
256,192,66076,1,0,0:0:0:0:
256,192,66122,1,0,0:0:0:0:
256,192,66167,1,8,0:0:0:0:
256,192,66304,1,0,0:0:0:0:
256,192,66440,1,8,0:0:0:0:
256,192,66576,1,8,0:0:0:0:
256,192,66713,1,8,0:0:0:0:
256,192,66849,1,0,0:0:0:0:
256,192,66985,1,8,0:0:0:0:
256,192,67122,1,0,0:0:0:0:
256,192,67258,1,8,0:0:0:0:
256,192,67395,1,8,0:0:0:0:
256,192,67531,1,0,0:0:0:0:
256,192,67599,1,8,0:0:0:0:
256,192,67667,1,0,0:0:0:0:
256,192,67735,1,0,0:0:0:0:
256,192,67804,1,12,0:0:0:0:
256,192,67940,1,0,0:0:0:0:
256,192,68008,1,0,0:0:0:0:
256,192,68076,1,8,0:0:0:0:
256,192,68145,1,8,0:0:0:0:
256,192,68213,1,0,0:0:0:0:
256,192,68349,1,8,0:0:0:0:
256,192,68417,1,0,0:0:0:0:
256,192,68485,1,8,0:0:0:0:
256,192,68554,1,0,0:0:0:0:
256,192,68622,1,8,0:0:0:0:
256,192,68895,1,8,0:0:0:0:
256,192,69031,1,0,0:0:0:0:
256,192,69099,1,0,0:0:0:0:
256,192,69167,1,8,0:0:0:0:
256,192,69235,1,8,0:0:0:0:
256,192,69304,1,0,0:0:0:0:
256,192,69372,1,0,0:0:0:0:
256,192,69440,1,8,0:0:0:0:
256,192,69576,1,0,0:0:0:0:
256,192,69713,1,8,0:0:0:0:
256,192,69781,1,0,0:0:0:0:
256,192,69917,1,8,0:0:0:0:
256,192,69985,1,0,0:0:0:0:
256,192,70122,1,8,0:0:0:0:
256,192,70190,1,0,0:0:0:0:
256,192,70326,1,8,0:0:0:0:
256,192,70394,1,0,0:0:0:0:
256,192,70531,1,8,0:0:0:0:
256,192,70667,1,0,0:0:0:0:
256,192,70735,1,0,0:0:0:0:
256,192,70804,1,8,0:0:0:0:
256,192,71076,1,8,0:0:0:0:
256,192,71213,1,0,0:0:0:0:
256,192,71349,1,0,0:0:0:0:
256,192,71417,1,0,0:0:0:0:
256,192,71485,1,0,0:0:0:0:
256,192,71622,1,8,0:0:0:0:
256,192,71758,1,0,0:0:0:0:
256,192,71826,1,0,0:0:0:0:
256,192,71895,1,12,0:0:0:0:
256,192,72167,1,8,0:0:0:0:
256,192,72576,1,0,0:0:0:0:
256,192,72713,1,8,0:0:0:0:
256,192,72985,1,0,0:0:0:0:
256,192,73258,1,8,0:0:0:0:
256,192,73667,1,0,0:0:0:0:
256,192,73804,1,12,0:0:0:0:
256,192,73940,1,0,0:0:0:0:
256,192,74076,1,12,0:0:0:0:
256,192,74213,1,12,0:0:0:0:
256,192,74622,1,12,0:0:0:0:
256,192,74759,1,12,0:0:0:0:
256,192,75167,1,12,0:0:0:0:
256,192,75440,1,8,0:0:0:0:
256,192,75508,1,0,0:0:0:0:
256,192,75576,1,8,0:0:0:0:
256,192,75645,1,0,0:0:0:0:
256,192,75713,1,8,0:0:0:0:
256,192,75804,1,8,0:0:0:0:
256,192,75895,1,8,0:0:0:0:
256,192,75985,1,0,0:0:0:0:
256,192,76076,1,0,0:0:0:0:
256,192,76167,1,0,0:0:0:0:
256,192,76258,1,8,0:0:0:0:
256,192,76326,1,8,0:0:0:0:
256,192,76395,1,0,0:0:0:0:
256,192,76463,1,0,0:0:0:0:
256,192,76531,1,12,0:0:0:0:
256,192,76667,1,0,0:0:0:0:
256,192,76736,1,0,0:0:0:0:
256,192,76804,1,8,0:0:0:0:
256,192,76872,1,8,0:0:0:0:
256,192,76940,1,0,0:0:0:0:
256,192,77009,1,0,0:0:0:0:
256,192,77077,1,8,0:0:0:0:
256,192,77213,1,0,0:0:0:0:
256,192,77281,1,0,0:0:0:0:
256,192,77350,1,8,0:0:0:0:
256,192,77622,1,8,0:0:0:0:
256,192,77759,1,0,0:0:0:0:
256,192,77827,1,0,0:0:0:0:
256,192,77895,1,8,0:0:0:0:
256,192,77963,1,8,0:0:0:0:
256,192,78031,1,0,0:0:0:0:
256,192,78100,1,0,0:0:0:0:
256,192,78168,1,8,0:0:0:0:
256,192,78304,1,0,0:0:0:0:
256,192,78440,1,8,0:0:0:0:
256,192,78577,1,8,0:0:0:0:
256,192,78713,1,8,0:0:0:0:
256,192,78781,1,8,0:0:0:0:
256,192,78850,1,0,0:0:0:0:
256,192,78917,1,0,0:0:0:0:
256,192,78986,1,8,0:0:0:0:
256,192,79122,1,8,0:0:0:0:
256,192,79167,1,0,0:0:0:0:
256,192,79213,1,0,0:0:0:0:
256,192,79259,1,8,0:0:0:0:
256,192,79395,1,0,0:0:0:0:
256,192,79531,1,8,0:0:0:0:
256,192,79804,1,8,0:0:0:0:
256,192,79940,1,0,0:0:0:0:
256,192,80077,1,0,0:0:0:0:
256,192,80350,1,8,0:0:0:0:
256,192,80554,1,0,0:0:0:0:
256,192,80622,1,8,0:0:0:0:
256,192,80895,1,8,0:0:0:0:
256,192,81304,1,0,0:0:0:0:
256,192,81440,1,8,0:0:0:0:
256,192,81713,1,0,0:0:0:0:
256,192,81986,1,8,0:0:0:0:
256,192,82395,1,0,0:0:0:0:
256,192,82531,1,8,0:0:0:0:
256,192,82668,1,0,0:0:0:0:
256,192,82804,1,8,0:0:0:0:
256,192,82872,1,0,0:0:0:0:
256,192,82940,1,8,0:0:0:0:
256,192,83077,1,0,0:0:0:0:
256,192,83213,1,8,0:0:0:0:
256,192,83350,1,0,0:0:0:0:
256,192,83486,1,0,0:0:0:0:
256,192,83531,1,0,0:0:0:0:
256,192,83576,1,0,0:0:0:0:
256,192,83622,1,8,0:0:0:0:
256,192,83759,1,0,0:0:0:0:
256,192,83895,1,8,0:0:0:0:
256,192,84031,1,8,0:0:0:0:
256,192,84168,1,8,0:0:0:0:
256,192,84304,1,0,0:0:0:0:
256,192,84440,1,8,0:0:0:0:
256,192,84577,1,0,0:0:0:0:
256,192,84713,1,8,0:0:0:0:
256,192,84850,1,8,0:0:0:0:
256,192,84986,1,4,0:0:0:0:
256,192,85259,1,12,0:0:0:0:
256,192,85395,1,0,0:0:0:0:
256,192,85463,1,0,0:0:0:0:
256,192,85531,1,8,0:0:0:0:
256,192,85600,1,8,0:0:0:0:
256,192,85668,1,0,0:0:0:0:
256,192,85804,1,8,0:0:0:0:
256,192,85872,1,0,0:0:0:0:
256,192,85940,1,8,0:0:0:0:
256,192,86009,1,8,0:0:0:0:
256,192,86077,1,0,0:0:0:0:
256,192,86350,1,8,0:0:0:0:
256,192,86486,1,0,0:0:0:0:
256,192,86554,1,0,0:0:0:0:
256,192,86622,1,8,0:0:0:0:
256,192,86690,1,8,0:0:0:0:
256,192,86759,1,0,0:0:0:0:
256,192,86827,1,0,0:0:0:0:
256,192,86895,1,8,0:0:0:0:
256,192,87031,1,0,0:0:0:0:
256,192,87099,1,0,0:0:0:0:
256,192,87168,1,8,0:0:0:0:
256,192,87236,1,0,0:0:0:0:
256,192,87372,1,8,0:0:0:0:
256,192,87440,1,0,0:0:0:0:
256,192,87577,1,8,0:0:0:0:
256,192,87645,1,0,0:0:0:0:
256,192,87781,1,8,0:0:0:0:
256,192,87849,1,0,0:0:0:0:
256,192,87986,1,8,0:0:0:0:
256,192,88122,1,0,0:0:0:0:
256,192,88190,1,0,0:0:0:0:
256,192,88259,1,8,0:0:0:0:
256,192,88531,1,8,0:0:0:0:
256,192,88668,1,0,0:0:0:0:
256,192,88804,1,8,0:0:0:0:
256,192,88872,1,0,0:0:0:0:
256,192,88940,1,8,0:0:0:0:
256,192,89077,1,0,0:0:0:0:
256,192,89213,1,0,0:0:0:0:
256,192,89281,1,0,0:0:0:0:
256,192,89350,1,12,0:0:0:0:
256,192,89622,1,8,0:0:0:0:
256,192,90031,1,0,0:0:0:0:
256,192,90168,1,8,0:0:0:0:
256,192,90440,1,0,0:0:0:0:
256,192,90713,1,8,0:0:0:0:
256,192,91122,1,0,0:0:0:0:
256,192,91259,1,12,0:0:0:0:
256,192,91531,1,12,0:0:0:0:
256,192,91668,1,12,0:0:0:0:
256,192,92077,1,12,0:0:0:0:
256,192,92214,1,12,0:0:0:0:
256,192,92622,1,12,0:0:0:0:
256,192,92895,1,8,0:0:0:0:
256,192,92963,1,0,0:0:0:0:
256,192,93031,1,8,0:0:0:0:
256,192,93100,1,0,0:0:0:0:
256,192,93168,1,12,0:0:0:0:
256,192,93304,1,12,0:0:0:0:
256,192,93440,1,0,0:0:0:0:
256,192,93508,1,0,0:0:0:0:
256,192,93576,1,0,0:0:0:0:
256,192,93645,1,0,0:0:0:0:
256,192,93713,1,12,0:0:0:0:
256,192,93985,1,8,0:0:0:0:
256,192,94258,1,8,0:0:0:0:
256,192,94395,1,0,0:0:0:0:
256,192,94531,1,8,0:0:0:0:
256,192,94804,1,8,0:0:0:0:
256,192,95076,1,8,0:0:0:0:
256,192,95213,1,8,0:0:0:0:
256,192,95349,1,12,0:0:0:0:
256,192,95622,1,8,0:0:0:0:
256,192,95895,1,8,0:0:0:0:
256,192,96031,1,0,0:0:0:0:
256,192,96167,1,8,0:0:0:0:
256,192,96304,1,0,0:0:0:0:
256,192,96440,1,8,0:0:0:0:
256,192,96576,1,8,0:0:0:0:
256,192,96713,1,0,0:0:0:0:
256,192,96849,1,0,0:0:0:0:
256,192,96985,1,12,0:0:0:0:
256,192,97258,1,8,0:0:0:0:
256,192,97531,1,8,0:0:0:0:
256,192,97667,1,0,0:0:0:0:
256,192,97804,1,8,0:0:0:0:
256,192,98076,1,8,0:0:0:0:
256,192,98349,1,8,0:0:0:0:
256,192,98622,1,12,0:0:0:0:
256,192,98895,1,8,0:0:0:0:
256,192,99167,1,8,0:0:0:0:
256,192,99304,1,0,0:0:0:0:
256,192,99440,1,8,0:0:0:0:
256,192,99713,1,8,0:0:0:0:
256,192,99985,1,8,0:0:0:0:
256,192,100122,1,8,0:0:0:0:
256,192,100258,1,12,0:0:0:0:
256,192,100531,1,8,0:0:0:0:
256,192,100804,1,8,0:0:0:0:
256,192,100940,1,0,0:0:0:0:
256,192,101076,1,8,0:0:0:0:
256,192,101349,1,8,0:0:0:0:
256,192,101622,1,8,0:0:0:0:
256,192,101758,1,8,0:0:0:0:
256,192,101895,1,12,0:0:0:0:
256,192,102167,1,8,0:0:0:0:
256,192,102440,1,8,0:0:0:0:
256,192,102576,1,0,0:0:0:0:
256,192,102713,1,8,0:0:0:0:
256,192,102849,1,0,0:0:0:0:
256,192,102985,1,8,0:0:0:0:
256,192,103122,1,8,0:0:0:0:
256,192,103258,1,0,0:0:0:0:
256,192,103395,1,0,0:0:0:0:
256,192,103531,1,12,0:0:0:0:
256,192,103804,1,8,0:0:0:0:
256,192,104076,1,8,0:0:0:0:
256,192,104213,1,0,0:0:0:0:
256,192,104349,1,8,0:0:0:0:
256,192,104622,1,8,0:0:0:0:
256,192,104895,1,8,0:0:0:0:
256,192,104963,1,8,0:0:0:0:
256,192,105167,1,12,0:0:0:0:
256,192,105440,1,8,0:0:0:0:
256,192,105713,1,8,0:0:0:0:
256,192,105849,1,8,0:0:0:0:
256,192,105985,1,8,0:0:0:0:
256,192,106122,1,0,0:0:0:0:
256,192,106258,1,8,0:0:0:0:
256,192,106395,1,0,0:0:0:0:
256,192,106531,1,8,0:0:0:0:
256,192,106667,1,0,0:0:0:0:
256,192,106803,1,12,0:0:0:0:
256,192,106940,1,0,0:0:0:0:
256,192,107076,1,8,0:0:0:0:
256,192,107213,1,8,0:0:0:0:
256,192,107349,1,0,0:0:0:0:
256,192,107485,1,0,0:0:0:0:
256,192,107622,1,8,0:0:0:0:
256,192,107758,1,0,0:0:0:0:
256,192,107895,1,8,0:0:0:0:
256,192,108031,1,8,0:0:0:0:
256,192,108167,1,0,0:0:0:0:
256,192,108304,1,8,0:0:0:0:
256,192,108440,1,0,0:0:0:0:
256,192,108576,1,0,0:0:0:0:
256,192,108713,1,8,0:0:0:0:
256,192,108849,1,8,0:0:0:0:
256,192,108985,1,0,0:0:0:0:
256,192,109122,1,0,0:0:0:0:
256,192,109258,1,8,0:0:0:0:
256,192,109395,1,0,0:0:0:0:
256,192,109531,1,8,0:0:0:0:
256,192,109667,1,8,0:0:0:0:
256,192,109804,1,0,0:0:0:0:
256,192,109940,1,0,0:0:0:0:
256,192,110076,1,12,0:0:0:0:
256,192,110213,1,0,0:0:0:0:
256,192,110349,1,8,0:0:0:0:
256,192,110485,1,8,0:0:0:0:
256,192,110622,1,0,0:0:0:0:
256,192,110758,1,0,0:0:0:0:
256,192,110895,1,8,0:0:0:0:
256,192,111031,1,0,0:0:0:0:
256,192,111167,1,8,0:0:0:0:
256,192,111304,1,8,0:0:0:0:
256,192,111440,1,0,0:0:0:0:
256,192,111576,1,0,0:0:0:0:
256,192,111713,1,12,0:0:0:0:
256,192,111849,1,0,0:0:0:0:
256,192,111985,1,8,0:0:0:0:
256,192,112122,1,8,0:0:0:0:
256,192,112258,1,0,0:0:0:0:
256,192,112395,1,0,0:0:0:0:
256,192,112531,1,8,0:0:0:0:
256,192,112667,1,0,0:0:0:0:
256,192,112804,1,0,0:0:0:0:
256,192,112940,1,8,0:0:0:0:
256,192,113076,1,8,0:0:0:0:
256,192,113213,1,0,0:0:0:0:
256,192,113349,1,12,0:0:0:0:
256,192,113485,1,0,0:0:0:0:
256,192,113622,1,8,0:0:0:0:
256,192,113758,1,8,0:0:0:0:
256,192,113895,1,0,0:0:0:0:
256,192,114031,1,0,0:0:0:0:
256,192,114167,1,8,0:0:0:0:
256,192,114304,1,0,0:0:0:0:
256,192,114440,1,8,0:0:0:0:
256,192,114576,1,8,0:0:0:0:
256,192,114713,1,0,0:0:0:0:
256,192,114849,1,8,0:0:0:0:
256,192,114985,1,0,0:0:0:0:
256,192,115122,1,0,0:0:0:0:
256,192,115258,1,8,0:0:0:0:
256,192,115395,1,8,0:0:0:0:
256,192,115531,1,0,0:0:0:0:
256,192,115667,1,0,0:0:0:0:
256,192,115804,1,8,0:0:0:0:
256,192,115940,1,0,0:0:0:0:
256,192,116076,1,8,0:0:0:0:
256,192,116213,1,8,0:0:0:0:
256,192,116349,1,0,0:0:0:0:
256,192,116485,1,0,0:0:0:0:
256,192,116622,1,12,0:0:0:0:
256,192,116758,1,0,0:0:0:0:
256,192,116895,1,8,0:0:0:0:
256,192,117031,1,8,0:0:0:0:
256,192,117167,1,0,0:0:0:0:
256,192,117304,1,0,0:0:0:0:
256,192,117440,1,8,0:0:0:0:
256,192,117576,1,0,0:0:0:0:
256,192,117713,1,8,0:0:0:0:
256,192,117849,1,8,0:0:0:0:
256,192,117985,1,0,0:0:0:0:
256,192,118122,1,0,0:0:0:0:
256,192,118258,1,12,0:0:0:0:
256,192,118395,1,0,0:0:0:0:
256,192,118531,1,8,0:0:0:0:
256,192,118667,1,8,0:0:0:0:
256,192,118804,1,0,0:0:0:0:
256,192,118940,1,0,0:0:0:0:
256,192,119076,1,12,0:0:0:0:
256,192,119213,1,0,0:0:0:0:
256,192,119349,1,12,0:0:0:0:
256,192,119485,1,0,0:0:0:0:
256,192,119622,1,12,0:0:0:0:
256,192,119758,1,0,0:0:0:0:
256,192,119895,1,12,0:0:0:0:
256,192,120031,1,0,0:0:0:0:
256,192,120167,1,8,0:0:0:0:
256,192,120304,1,8,0:0:0:0:
256,192,120440,1,0,0:0:0:0:
256,192,120576,1,0,0:0:0:0:
256,192,120645,1,0,0:0:0:0:
256,192,120713,1,8,0:0:0:0:
256,192,120849,1,0,0:0:0:0:
256,192,120917,1,8,0:0:0:0:
256,192,120985,1,8,0:0:0:0:
256,192,121122,1,8,0:0:0:0:
256,192,121258,1,0,0:0:0:0:
256,192,121395,1,8,0:0:0:0:
256,192,121531,1,0,0:0:0:0:
256,192,121667,1,0,0:0:0:0:
256,192,121804,1,8,0:0:0:0:
256,192,121940,1,8,0:0:0:0:
256,192,122076,1,0,0:0:0:0:
256,192,122213,1,0,0:0:0:0:
256,192,122349,1,8,0:0:0:0:
256,192,122485,1,0,0:0:0:0:
256,192,122554,1,8,0:0:0:0:
256,192,122622,1,8,0:0:0:0:
256,192,122758,1,0,0:0:0:0:
256,192,122826,1,0,0:0:0:0:
256,192,122895,1,8,0:0:0:0:
256,192,122963,1,0,0:0:0:0:
256,192,123031,1,8,0:0:0:0:
256,192,123167,1,12,0:0:0:0:
256,192,123304,1,0,0:0:0:0:
256,192,123440,1,8,0:0:0:0:
256,192,123576,1,8,0:0:0:0:
256,192,123713,1,0,0:0:0:0:
256,192,123849,1,0,0:0:0:0:
256,192,123985,1,8,0:0:0:0:
256,192,124122,1,0,0:0:0:0:
256,192,124190,1,8,0:0:0:0:
256,192,124258,1,8,0:0:0:0:
256,192,124395,1,8,0:0:0:0:
256,192,124531,1,0,0:0:0:0:
256,192,124667,1,0,0:0:0:0:
256,192,124804,1,12,0:0:0:0:
256,192,124940,1,0,0:0:0:0:
256,192,125076,1,8,0:0:0:0:
256,192,125213,1,8,0:0:0:0:
256,192,125349,1,0,0:0:0:0:
256,192,125485,1,0,0:0:0:0:
256,192,125622,1,12,0:0:0:0:
256,192,125758,1,0,0:0:0:0:
256,192,125826,1,0,0:0:0:0:
256,192,125895,1,12,0:0:0:0:
256,192,126031,1,0,0:0:0:0:
256,192,126099,1,0,0:0:0:0:
256,192,126167,1,12,0:0:0:0:
256,192,126304,1,0,0:0:0:0:
256,192,126372,1,0,0:0:0:0:
256,192,126440,1,12,0:0:0:0:
256,192,126576,1,0,0:0:0:0:
256,192,126713,1,8,0:0:0:0:
256,192,126849,1,0,0:0:0:0:
256,192,126985,1,8,0:0:0:0:
256,192,127054,1,8,0:0:0:0:
256,192,127122,1,0,0:0:0:0:
256,192,127258,1,12,0:0:0:0:
256,192,127395,1,0,0:0:0:0:
256,192,127531,1,8,0:0:0:0:
256,192,127667,1,0,0:0:0:0:
256,192,127804,1,8,0:0:0:0:
256,192,127872,1,0,0:0:0:0:
256,192,127940,1,8,0:0:0:0:
256,192,128008,1,0,0:0:0:0:
256,192,128076,1,12,0:0:0:0:
256,192,128213,1,0,0:0:0:0:
256,192,128349,1,8,0:0:0:0:
256,192,128485,1,8,0:0:0:0:
256,192,128622,1,0,0:0:0:0:
256,192,128758,1,0,0:0:0:0:
256,192,128895,1,8,0:0:0:0:
256,192,128963,1,8,0:0:0:0:
256,192,129031,1,0,0:0:0:0:
256,192,129099,1,0,0:0:0:0:
256,192,129167,1,8,0:0:0:0:
256,192,129213,1,8,0:0:0:0:
256,192,129258,1,8,0:0:0:0:
256,192,129304,1,0,0:0:0:0:
256,192,129372,1,0,0:0:0:0:
256,192,129440,1,8,0:0:0:0:
256,192,129485,1,8,0:0:0:0:
256,192,129531,1,8,0:0:0:0:
256,192,129576,1,0,0:0:0:0:
256,192,129645,1,0,0:0:0:0:
256,192,129713,1,12,0:0:0:0:
256,192,130531,1,12,0:0:0:0:
256,192,131349,1,12,0:0:0:0:
256,192,132985,1,12,0:0:0:0:
256,192,133804,1,12,0:0:0:0:
256,192,134622,1,0,0:0:0:0:
256,192,134690,1,0,0:0:0:0:
256,192,134758,1,8,0:0:0:0:
256,192,135440,1,8,0:0:0:0:
256,192,135576,1,8,0:0:0:0:
256,192,135713,1,0,0:0:0:0:
256,192,135781,1,8,0:0:0:0:
256,192,135849,1,0,0:0:0:0:
256,192,135985,1,8,0:0:0:0:
256,192,136053,1,8,0:0:0:0:
256,192,136122,1,0,0:0:0:0:
256,192,136190,1,0,0:0:0:0:
256,192,136258,1,12,0:0:0:0:
256,192,136667,1,8,0:0:0:0:
256,192,136803,1,0,0:0:0:0:
256,192,137076,1,8,0:0:0:0:
256,192,137485,1,8,0:0:0:0:
256,192,137621,1,0,0:0:0:0:
256,192,137894,1,8,0:0:0:0:
256,192,138166,1,0,0:0:0:0:
256,192,138439,1,8,0:0:0:0:
256,192,138712,1,0,0:0:0:0:
256,192,138848,1,8,0:0:0:0:
256,192,138984,1,0,0:0:0:0:
256,192,139257,1,8,0:0:0:0:
256,192,139530,1,0,0:0:0:0:
256,192,139667,1,8,0:0:0:0:
256,192,140076,1,8,0:0:0:0:
256,192,140348,1,0,0:0:0:0:
256,192,140484,1,0,0:0:0:0:
256,192,140621,1,8,0:0:0:0:
256,192,141030,1,8,0:0:0:0:
256,192,141166,1,0,0:0:0:0:
256,192,141439,1,8,0:0:0:0:
256,192,141712,1,0,0:0:0:0:
256,192,141848,1,8,0:0:0:0:
256,192,142257,1,0,0:0:0:0:
256,192,142530,1,8,0:0:0:0:
256,192,142803,1,0,0:0:0:0:
256,192,143348,1,8,0:0:0:0:
256,192,143894,1,0,0:0:0:0:
256,192,144030,1,8,0:0:0:0:
256,192,144166,1,8,0:0:0:0:
256,192,144303,1,0,0:0:0:0:
256,192,144439,1,8,0:0:0:0:
256,192,144712,1,8,0:0:0:0:
256,192,144848,1,0,0:0:0:0:
256,192,144985,1,12,0:0:0:0:
256,192,145257,1,8,0:0:0:0:
256,192,145666,1,0,0:0:0:0:
256,192,145803,1,8,0:0:0:0:
256,192,146075,1,0,0:0:0:0:
256,192,146348,1,8,0:0:0:0:
256,192,146757,1,0,0:0:0:0:
256,192,146894,1,8,0:0:0:0:
256,192,147166,1,12,0:0:0:0:
256,192,147439,1,8,0:0:0:0:
256,192,147848,1,0,0:0:0:0:
256,192,147984,1,8,0:0:0:0:
256,192,148257,1,12,0:0:0:0:
256,192,148530,1,8,0:0:0:0:
256,192,148666,1,0,0:0:0:0:
256,192,148803,1,12,0:0:0:0:
256,192,148939,1,0,0:0:0:0:
256,192,149075,1,8,0:0:0:0:
256,192,149348,1,12,0:0:0:0:
256,192,149621,1,8,0:0:0:0:
256,192,149894,1,8,0:0:0:0:
256,192,150166,1,12,0:0:0:0:
256,192,150303,1,0,0:0:0:0:
256,192,150371,1,0,0:0:0:0:
256,192,150439,1,12,0:0:0:0:
256,192,150712,1,8,0:0:0:0:
256,192,150984,1,8,0:0:0:0:
256,192,151257,1,12,0:0:0:0:
256,192,151394,1,0,0:0:0:0:
256,192,151462,1,0,0:0:0:0:
256,192,151530,1,12,0:0:0:0:
256,192,151666,1,0,0:0:0:0:
256,192,151803,1,8,0:0:0:0:
256,192,151939,1,0,0:0:0:0:
256,192,152075,1,8,0:0:0:0:
256,192,152212,1,0,0:0:0:0:
256,192,152348,1,8,0:0:0:0:
256,192,152484,1,0,0:0:0:0:
256,192,152621,1,8,0:0:0:0:
256,192,152689,1,8,0:0:0:0:
256,192,152757,1,0,0:0:0:0:
256,192,152825,1,0,0:0:0:0:
256,192,152894,1,8,0:0:0:0:
256,192,152962,1,8,0:0:0:0:
256,192,153030,1,0,0:0:0:0:
256,192,153098,1,0,0:0:0:0:
256,192,153166,1,8,0:0:0:0:
256,192,153234,1,8,0:0:0:0:
256,192,153303,1,0,0:0:0:0:
256,192,153371,1,0,0:0:0:0:
256,192,153439,1,8,0:0:0:0:
256,192,153507,1,8,0:0:0:0:
256,192,153575,1,0,0:0:0:0:
256,192,153644,1,0,0:0:0:0:
256,192,153712,1,8,0:0:0:0:
256,192,153758,1,8,0:0:0:0:
256,192,153803,1,8,0:0:0:0:
256,192,153848,1,0,0:0:0:0:
256,192,153916,1,0,0:0:0:0:
256,192,153984,1,8,0:0:0:0:
256,192,154053,1,8,0:0:0:0:
256,192,154121,1,0,0:0:0:0:
256,192,154167,1,8,0:0:0:0:
256,192,154212,1,8,0:0:0:0:
256,192,154257,1,0,0:0:0:0:
256,192,154325,1,0,0:0:0:0:
256,192,154394,1,8,0:0:0:0:
256,192,154462,1,0,0:0:0:0:
256,192,154530,1,8,0:0:0:0:
256,192,154576,1,8,0:0:0:0:
256,192,154621,1,8,0:0:0:0:
256,192,154666,1,0,0:0:0:0:
256,192,154734,1,0,0:0:0:0:
256,192,154803,1,8,0:0:0:0:
256,192,154848,1,0,0:0:0:0:
256,192,154894,1,0,0:0:0:0:
256,192,154939,1,8,0:0:0:0:
256,192,155008,1,0,0:0:0:0:
256,192,155075,1,8,0:0:0:0:
256,192,155121,1,0,0:0:0:0:
256,192,155167,1,0,0:0:0:0:
256,192,155212,1,8,0:0:0:0:
256,192,155280,1,0,0:0:0:0:
256,192,155348,1,8,0:0:0:0:
256,192,155394,1,8,0:0:0:0:
256,192,155439,1,8,0:0:0:0:
256,192,155484,1,0,0:0:0:0:
256,192,155530,1,0,0:0:0:0:
256,192,155576,1,0,0:0:0:0:
256,192,155621,1,8,0:0:0:0:
256,192,155757,1,0,0:0:0:0:
256,192,155894,1,12,0:0:0:0:
256,192,156030,1,0,0:0:0:0:
256,192,156098,1,0,0:0:0:0:
256,192,156166,1,8,0:0:0:0:
256,192,156234,1,8,0:0:0:0:
256,192,156303,1,8,0:0:0:0:
256,192,156439,1,8,0:0:0:0:
256,192,156507,1,0,0:0:0:0:
256,192,156575,1,8,0:0:0:0:
256,192,156644,1,8,0:0:0:0:
256,192,156712,1,0,0:0:0:0:
256,192,156780,1,0,0:0:0:0:
256,192,156848,1,8,0:0:0:0:
256,192,156984,1,8,0:0:0:0:
256,192,157053,1,0,0:0:0:0:
256,192,157189,1,0,0:0:0:0:
256,192,157257,1,8,0:0:0:0:
256,192,157394,1,8,0:0:0:0:
256,192,157530,1,8,0:0:0:0:
256,192,157598,1,8,0:0:0:0:
256,192,157666,1,0,0:0:0:0:
256,192,157734,1,0,0:0:0:0:
256,192,157803,1,8,0:0:0:0:
256,192,157871,1,8,0:0:0:0:
256,192,157939,1,8,0:0:0:0:
256,192,158075,1,8,0:0:0:0:
256,192,158144,1,0,0:0:0:0:
256,192,158280,1,0,0:0:0:0:
256,192,158348,1,8,0:0:0:0:
256,192,158416,1,0,0:0:0:0:
256,192,158484,1,8,0:0:0:0:
256,192,158621,1,8,0:0:0:0:
256,192,158689,1,8,0:0:0:0:
256,192,158757,1,0,0:0:0:0:
256,192,158825,1,0,0:0:0:0:
256,192,158894,1,8,0:0:0:0:
256,192,158962,1,0,0:0:0:0:
256,192,159030,1,8,0:0:0:0:
256,192,159166,1,0,0:0:0:0:
256,192,159234,1,0,0:0:0:0:
256,192,159303,1,0,0:0:0:0:
256,192,159371,1,0,0:0:0:0:
256,192,159439,1,8,0:0:0:0:
256,192,159507,1,0,0:0:0:0:
256,192,159575,1,8,0:0:0:0:
256,192,159644,1,8,0:0:0:0:
256,192,159712,1,0,0:0:0:0:
256,192,159848,1,0,0:0:0:0:
256,192,159984,1,8,0:0:0:0:
256,192,160053,1,0,0:0:0:0:
256,192,160121,1,8,0:0:0:0:
256,192,160189,1,0,0:0:0:0:
256,192,160257,1,12,0:0:0:0:
256,192,160394,1,0,0:0:0:0:
256,192,160462,1,0,0:0:0:0:
256,192,160530,1,8,0:0:0:0:
256,192,160666,1,0,0:0:0:0:
256,192,160803,1,0,0:0:0:0:
256,192,160871,1,8,0:0:0:0:
256,192,160939,1,0,0:0:0:0:
256,192,161007,1,0,0:0:0:0:
256,192,161075,1,8,0:0:0:0:
256,192,161144,1,8,0:0:0:0:
256,192,161212,1,0,0:0:0:0:
256,192,161280,1,0,0:0:0:0:
256,192,161348,1,12,0:0:0:0:
256,192,161484,1,0,0:0:0:0:
256,192,161553,1,0,0:0:0:0:
256,192,161621,1,8,0:0:0:0:
256,192,161757,1,0,0:0:0:0:
256,192,161894,1,8,0:0:0:0:
256,192,161962,1,0,0:0:0:0:
256,192,162098,1,8,0:0:0:0:
256,192,162166,1,0,0:0:0:0:
256,192,162303,1,0,0:0:0:0:
256,192,162439,1,12,0:0:0:0:
256,192,162712,1,0,0:0:0:0:
256,192,162985,1,12,0:0:0:0:
256,192,163257,1,0,0:0:0:0:
256,192,163530,1,12,0:0:0:0:
256,192,163666,1,0,0:0:0:0:
256,192,163803,1,12,0:0:0:0:
256,192,163939,1,0,0:0:0:0:
256,192,164076,1,8,0:0:0:0:
256,192,164144,1,8,0:0:0:0:
256,192,164212,1,0,0:0:0:0:
256,192,164280,1,0,0:0:0:0:
256,192,164348,1,8,0:0:0:0:
256,192,164394,1,8,0:0:0:0:
256,192,164439,1,8,0:0:0:0:
256,192,164484,1,8,0:0:0:0:
256,192,164530,1,8,0:0:0:0:
256,192,164576,1,8,0:0:0:0:
256,192,164621,1,0,0:0:0:0:
256,192,164757,1,0,0:0:0:0:
256,192,164894,1,12,0:0:0:0:
256,192,165030,1,0,0:0:0:0:
256,192,165098,1,0,0:0:0:0:
256,192,165166,1,8,0:0:0:0:
256,192,165234,1,0,0:0:0:0:
256,192,165303,1,8,0:0:0:0:
256,192,165371,1,8,0:0:0:0:
256,192,165439,1,0,0:0:0:0:
256,192,165507,1,0,0:0:0:0:
256,192,165575,1,8,0:0:0:0:
256,192,165712,1,8,0:0:0:0:
256,192,165780,1,8,0:0:0:0:
256,192,165916,1,0,0:0:0:0:
256,192,165984,1,8,0:0:0:0:
256,192,166121,1,8,0:0:0:0:
256,192,166257,1,8,0:0:0:0:
256,192,166325,1,0,0:0:0:0:
256,192,166462,1,0,0:0:0:0:
256,192,166530,1,8,0:0:0:0:
256,192,166598,1,8,0:0:0:0:
256,192,166666,1,8,0:0:0:0:
256,192,166803,1,8,0:0:0:0:
256,192,166871,1,8,0:0:0:0:
256,192,166939,1,0,0:0:0:0:
256,192,167007,1,0,0:0:0:0:
256,192,167075,1,8,0:0:0:0:
256,192,167144,1,0,0:0:0:0:
256,192,167212,1,8,0:0:0:0:
256,192,167280,1,0,0:0:0:0:
256,192,167348,1,8,0:0:0:0:
256,192,167416,1,8,0:0:0:0:
256,192,167484,1,8,0:0:0:0:
256,192,167553,1,8,0:0:0:0:
256,192,167621,1,0,0:0:0:0:
256,192,167689,1,0,0:0:0:0:
256,192,167757,1,8,0:0:0:0:
256,192,167894,1,8,0:0:0:0:
256,192,167962,1,0,0:0:0:0:
256,192,168098,1,0,0:0:0:0:
256,192,168166,1,8,0:0:0:0:
256,192,168303,1,0,0:0:0:0:
256,192,168371,1,8,0:0:0:0:
256,192,168439,1,0,0:0:0:0:
256,192,168575,1,0,0:0:0:0:
256,192,168712,1,8,0:0:0:0:
256,192,168780,1,0,0:0:0:0:
256,192,168848,1,8,0:0:0:0:
256,192,168916,1,0,0:0:0:0:
256,192,168985,1,12,0:0:0:0:
256,192,169121,1,0,0:0:0:0:
256,192,169189,1,0,0:0:0:0:
256,192,169257,1,8,0:0:0:0:
256,192,169394,1,8,0:0:0:0:
256,192,169462,1,8,0:0:0:0:
256,192,169530,1,0,0:0:0:0:
256,192,169666,1,8,0:0:0:0:
256,192,169734,1,0,0:0:0:0:
256,192,169803,1,8,0:0:0:0:
256,192,169939,1,0,0:0:0:0:
256,192,170076,1,12,0:0:0:0:
256,192,170212,1,0,0:0:0:0:
256,192,170280,1,8,0:0:0:0:
256,192,170416,1,8,0:0:0:0:
256,192,170484,1,0,0:0:0:0:
256,192,170621,1,0,0:0:0:0:
256,192,170689,1,0,0:0:0:0:
256,192,170825,1,8,0:0:0:0:
256,192,170894,1,0,0:0:0:0:
256,192,171030,1,0,0:0:0:0:
256,192,171167,1,12,0:0:0:0:
256,192,171371,1,0,0:0:0:0:
256,192,171575,1,0,0:0:0:0:
256,192,171712,1,12,0:0:0:0:
256,192,171984,1,0,0:0:0:0:
256,192,172258,1,12,0:0:0:0:
256,192,172394,1,0,0:0:0:0:
256,192,172530,1,12,0:0:0:0:
256,192,172666,1,0,0:0:0:0:
256,192,172803,1,8,0:0:0:0:
256,192,172871,1,0,0:0:0:0:
256,192,172939,1,8,0:0:0:0:
256,192,173007,1,0,0:0:0:0:
256,192,173075,1,8,0:0:0:0:
256,192,173121,1,8,0:0:0:0:
256,192,173167,1,8,0:0:0:0:
256,192,173212,1,0,0:0:0:0:
256,192,173280,1,0,0:0:0:0:
256,192,173348,1,12,0:0:0:0:
256,192,173484,1,0,0:0:0:0:
256,192,173553,1,0,0:0:0:0:
256,192,173621,1,8,0:0:0:0:
256,192,173689,1,8,0:0:0:0:
256,192,173757,1,0,0:0:0:0:
256,192,173894,1,8,0:0:0:0:
256,192,173962,1,0,0:0:0:0:
256,192,174030,1,8,0:0:0:0:
256,192,174098,1,8,0:0:0:0:
256,192,174166,1,0,0:0:0:0:
256,192,174234,1,0,0:0:0:0:
256,192,174303,1,8,0:0:0:0:
256,192,174439,1,8,0:0:0:0:
256,192,174507,1,0,0:0:0:0:
256,192,174644,1,0,0:0:0:0:
256,192,174712,1,8,0:0:0:0:
256,192,174848,1,8,0:0:0:0:
256,192,174984,1,8,0:0:0:0:
256,192,175053,1,8,0:0:0:0:
256,192,175121,1,0,0:0:0:0:
256,192,175189,1,0,0:0:0:0:
256,192,175257,1,8,0:0:0:0:
256,192,175325,1,8,0:0:0:0:
256,192,175394,1,8,0:0:0:0:
256,192,175530,1,8,0:0:0:0:
256,192,175598,1,8,0:0:0:0:
256,192,175666,1,0,0:0:0:0:
256,192,175734,1,0,0:0:0:0:
256,192,175803,1,8,0:0:0:0:
256,192,175871,1,0,0:0:0:0:
256,192,175939,1,8,0:0:0:0:
256,192,176075,1,8,0:0:0:0:
256,192,176212,1,8,0:0:0:0:
256,192,176280,1,8,0:0:0:0:
256,192,176348,1,8,0:0:0:0:
256,192,176484,1,0,0:0:0:0:
256,192,176621,1,8,0:0:0:0:
256,192,176689,1,0,0:0:0:0:
256,192,176757,1,8,0:0:0:0:
256,192,176825,1,0,0:0:0:0:
256,192,176894,1,8,0:0:0:0:
256,192,176962,1,8,0:0:0:0:
256,192,177030,1,0,0:0:0:0:
256,192,177098,1,0,0:0:0:0:
256,192,177166,1,8,0:0:0:0:
256,192,177303,1,0,0:0:0:0:
256,192,177439,1,8,0:0:0:0:
256,192,177507,1,0,0:0:0:0:
256,192,177575,1,8,0:0:0:0:
256,192,177644,1,0,0:0:0:0:
256,192,177712,1,12,0:0:0:0:
256,192,177848,1,0,0:0:0:0:
256,192,177916,1,0,0:0:0:0:
256,192,177984,1,8,0:0:0:0:
256,192,178121,1,8,0:0:0:0:
256,192,178257,1,0,0:0:0:0:
256,192,178325,1,0,0:0:0:0:
256,192,178394,1,0,0:0:0:0:
256,192,178462,1,0,0:0:0:0:
256,192,178530,1,8,0:0:0:0:
256,192,178598,1,8,0:0:0:0:
256,192,178666,1,0,0:0:0:0:
256,192,178734,1,0,0:0:0:0:
256,192,178803,1,12,0:0:0:0:
256,192,178939,1,0,0:0:0:0:
256,192,179007,1,0,0:0:0:0:
256,192,179075,1,8,0:0:0:0:
256,192,179212,1,0,0:0:0:0:
256,192,179348,1,8,0:0:0:0:
256,192,179416,1,0,0:0:0:0:
256,192,179553,1,8,0:0:0:0:
256,192,179621,1,0,0:0:0:0:
256,192,179757,1,0,0:0:0:0:
256,192,179894,1,12,0:0:0:0:
256,192,180166,1,0,0:0:0:0:
256,192,180439,1,8,0:0:0:0:
256,192,180712,1,0,0:0:0:0:
256,192,180984,1,8,0:0:0:0:
256,192,181121,1,0,0:0:0:0:
256,192,181257,1,12,0:0:0:0:
256,192,181394,1,0,0:0:0:0:
256,192,181530,1,8,0:0:0:0:
256,192,181598,1,8,0:0:0:0:
256,192,181666,1,0,0:0:0:0:
256,192,181734,1,0,0:0:0:0:
256,192,181803,1,8,0:0:0:0:
256,192,181848,1,8,0:0:0:0:
256,192,181894,1,8,0:0:0:0:
256,192,181939,1,8,0:0:0:0:
256,192,181985,1,8,0:0:0:0:
256,192,182030,1,8,0:0:0:0:
256,192,182075,1,0,0:0:0:0:
256,192,182212,1,0,0:0:0:0:
256,192,182348,1,12,0:0:0:0:
256,192,182484,1,0,0:0:0:0:
256,192,182553,1,0,0:0:0:0:
256,192,182621,1,8,0:0:0:0:
256,192,182689,1,0,0:0:0:0:
256,192,182757,1,8,0:0:0:0:
256,192,182825,1,8,0:0:0:0:
256,192,182894,1,0,0:0:0:0:
256,192,182962,1,0,0:0:0:0:
256,192,183030,1,8,0:0:0:0:
256,192,183166,1,8,0:0:0:0:
256,192,183234,1,0,0:0:0:0:
256,192,183371,1,0,0:0:0:0:
256,192,183439,1,8,0:0:0:0:
256,192,183575,1,8,0:0:0:0:
256,192,183712,1,0,0:0:0:0:
256,192,183780,1,0,0:0:0:0:
256,192,183848,1,8,0:0:0:0:
256,192,183916,1,0,0:0:0:0:
256,192,183984,1,8,0:0:0:0:
256,192,184053,1,8,0:0:0:0:
256,192,184121,1,0,0:0:0:0:
256,192,184189,1,0,0:0:0:0:
256,192,184258,1,12,0:0:0:0:
256,192,184394,1,0,0:0:0:0:
256,192,184803,1,12,0:0:0:0:
256,192,184939,1,0,0:0:0:0:
256,192,185348,1,12,0:0:0:0:
256,192,185484,1,0,0:0:0:0:
256,192,185621,1,12,0:0:0:0:
256,192,185757,1,0,0:0:0:0:
256,192,185894,1,12,0:0:0:0:
256,192,186030,1,0,0:0:0:0:
256,192,186166,1,8,0:0:0:0:
256,192,186234,1,0,0:0:0:0:
256,192,186303,1,8,0:0:0:0:
256,192,186371,1,0,0:0:0:0:
256,192,186439,1,12,0:0:0:0:
256,192,186575,1,0,0:0:0:0:
256,192,186644,1,0,0:0:0:0:
256,192,186712,1,8,0:0:0:0:
256,192,186848,1,8,0:0:0:0:
256,192,186916,1,8,0:0:0:0:
256,192,186984,1,0,0:0:0:0:
256,192,187121,1,8,0:0:0:0:
256,192,187189,1,0,0:0:0:0:
256,192,187257,1,8,0:0:0:0:
256,192,187394,1,0,0:0:0:0:
256,192,187530,1,12,0:0:0:0:
256,192,187666,1,0,0:0:0:0:
256,192,187734,1,0,0:0:0:0:
256,192,187803,1,8,0:0:0:0:
256,192,187939,1,8,0:0:0:0:
256,192,188075,1,8,0:0:0:0:
256,192,188144,1,8,0:0:0:0:
256,192,188212,1,0,0:0:0:0:
256,192,188280,1,0,0:0:0:0:
256,192,188348,1,8,0:0:0:0:
256,192,188394,1,8,0:0:0:0:
256,192,188439,1,8,0:0:0:0:
256,192,188484,1,0,0:0:0:0:
256,192,188553,1,0,0:0:0:0:
256,192,188621,1,12,0:0:0:0:
256,192,188825,1,12,0:0:0:0:
256,192,189030,1,12,0:0:0:0:
256,192,189166,1,12,0:0:0:0:
256,192,189439,1,0,0:0:0:0:
256,192,189712,1,8,0:0:0:0:
256,192,189780,1,8,0:0:0:0:
256,192,189848,1,0,0:0:0:0:
256,192,189916,1,0,0:0:0:0:
256,192,189984,1,8,0:0:0:0:
256,192,190053,1,0,0:0:0:0:
256,192,190121,1,8,0:0:0:0:
256,192,190189,1,8,0:0:0:0:
256,192,190257,1,0,0:0:0:0:
256,192,190303,1,0,0:0:0:0:
256,192,190348,1,0,0:0:0:0:
256,192,190394,1,8,0:0:0:0:
256,192,190462,1,0,0:0:0:0:
256,192,190530,1,8,0:0:0:0:
256,192,190576,1,8,0:0:0:0:
256,192,190621,1,8,0:0:0:0:
256,192,190666,1,0,0:0:0:0:
256,192,190803,1,12,0:0:0:0:
256,192,191075,1,0,0:0:0:0:
256,192,191484,1,8,0:0:0:0:
256,192,191894,1,0,0:0:0:0:
256,192,192166,1,0,0:0:0:0:
256,192,192575,1,8,0:0:0:0:
256,192,192984,1,0,0:0:0:0:
256,192,193257,1,0,0:0:0:0:
256,192,193666,1,8,0:0:0:0:
256,192,194075,1,0,0:0:0:0:
256,192,194348,1,0,0:0:0:0:
256,192,194757,1,8,0:0:0:0:
256,192,195166,1,0,0:0:0:0:
256,192,195439,1,0,0:0:0:0:
256,192,195848,1,8,0:0:0:0:
256,192,196257,1,0,0:0:0:0:
256,192,196530,1,0,0:0:0:0:
256,192,196939,1,8,0:0:0:0:
256,192,197348,1,0,0:0:0:0:
256,192,197621,1,0,0:0:0:0:
256,192,198030,1,8,0:0:0:0:
256,192,198439,1,0,0:0:0:0:
256,192,198712,1,0,0:0:0:0:
256,192,199121,1,8,0:0:0:0:
256,192,199530,1,12,0:0:0:0:
256,192,199666,1,0,0:0:0:0:
256,192,199803,1,8,0:0:0:0:
256,192,199939,1,8,0:0:0:0:
256,192,200075,1,0,0:0:0:0:
256,192,200144,1,0,0:0:0:0:
256,192,200212,1,0,0:0:0:0:
256,192,200280,1,0,0:0:0:0:
256,192,200348,1,8,0:0:0:0:
256,192,200484,1,8,0:0:0:0:
256,192,200621,1,0,0:0:0:0:
256,192,200689,1,0,0:0:0:0:
256,192,200757,1,0,0:0:0:0:
256,192,200894,1,8,0:0:0:0:
256,192,201030,1,0,0:0:0:0:
256,192,201166,1,8,0:0:0:0:
256,192,201234,1,0,0:0:0:0:
256,192,201371,1,0,0:0:0:0:
256,192,201439,1,8,0:0:0:0:
256,192,201507,1,8,0:0:0:0:
256,192,201575,1,0,0:0:0:0:
256,192,201712,1,0,0:0:0:0:
256,192,201780,1,0,0:0:0:0:
256,192,201848,1,8,0:0:0:0:
256,192,201984,1,8,0:0:0:0:
256,192,202121,1,0,0:0:0:0:
256,192,202189,1,0,0:0:0:0:
256,192,202257,1,8,0:0:0:0:
256,192,202325,1,8,0:0:0:0:
256,192,202394,1,8,0:0:0:0:
256,192,202462,1,8,0:0:0:0:
256,192,202530,1,0,0:0:0:0:
256,192,202666,1,8,0:0:0:0:
256,192,202803,1,0,0:0:0:0:
256,192,202871,1,0,0:0:0:0:
256,192,202939,1,0,0:0:0:0:
256,192,203075,1,8,0:0:0:0:
256,192,203144,1,0,0:0:0:0:
256,192,203212,1,8,0:0:0:0:
256,192,203280,1,0,0:0:0:0:
256,192,203348,1,8,0:0:0:0:
256,192,203416,1,8,0:0:0:0:
256,192,203484,1,0,0:0:0:0:
256,192,203553,1,0,0:0:0:0:
256,192,203621,1,8,0:0:0:0:
256,192,203757,1,0,0:0:0:0:
256,192,203894,1,8,0:0:0:0:
256,192,203962,1,0,0:0:0:0:
256,192,204098,1,0,0:0:0:0:
256,192,204166,1,8,0:0:0:0:
256,192,204303,1,8,0:0:0:0:
256,192,204439,1,8,0:0:0:0:
256,192,204507,1,0,0:0:0:0:
256,192,204576,1,0,0:0:0:0:
256,192,204644,1,8,0:0:0:0:
256,192,204712,1,0,0:0:0:0:
256,192,204848,1,8,0:0:0:0:
256,192,204984,1,0,0:0:0:0:
256,192,205121,1,8,0:0:0:0:
256,192,205189,1,0,0:0:0:0:
256,192,205325,1,0,0:0:0:0:
256,192,205394,1,8,0:0:0:0:
256,192,205530,1,8,0:0:0:0:
256,192,205598,1,0,0:0:0:0:
256,192,205666,1,8,0:0:0:0:
256,192,205734,1,8,0:0:0:0:
256,192,205803,1,0,0:0:0:0:
256,192,205871,1,0,0:0:0:0:
256,192,205939,1,8,0:0:0:0:
256,192,206075,1,0,0:0:0:0:
256,192,206144,1,0,0:0:0:0:
256,192,206212,1,0,0:0:0:0:
256,192,206280,1,0,0:0:0:0:
256,192,206348,1,8,0:0:0:0:
256,192,206484,1,0,0:0:0:0:
256,192,206621,1,8,0:0:0:0:
256,192,206689,1,8,0:0:0:0:
256,192,206757,1,0,0:0:0:0:
256,192,206825,1,8,0:0:0:0:
256,192,206894,1,8,0:0:0:0:
256,192,207030,1,0,0:0:0:0:
256,192,207166,1,8,0:0:0:0:
256,192,207234,1,8,0:0:0:0:
256,192,207303,1,0,0:0:0:0:
256,192,207371,1,8,0:0:0:0:
256,192,207439,1,0,0:0:0:0:
256,192,207507,1,0,0:0:0:0:
256,192,207575,1,8,0:0:0:0:
256,192,207712,1,8,0:0:0:0:
256,192,207780,1,8,0:0:0:0:
256,192,207848,1,0,0:0:0:0:
256,192,207917,1,0,0:0:0:0:
256,192,207984,1,12,0:0:0:0:
256,192,208257,1,12,0:0:0:0:
256,192,208394,1,0,0:0:0:0:
256,192,208530,1,8,0:0:0:0:
256,192,208666,1,8,0:0:0:0:
256,192,208803,1,8,0:0:0:0:
256,192,208871,1,8,0:0:0:0:
256,192,208939,1,0,0:0:0:0:
256,192,209007,1,8,0:0:0:0:
256,192,209075,1,8,0:0:0:0:
256,192,209212,1,8,0:0:0:0:
256,192,209348,1,0,0:0:0:0:
256,192,209417,1,8,0:0:0:0:
256,192,209553,1,8,0:0:0:0:
256,192,209621,1,0,0:0:0:0:
256,192,209757,1,0,0:0:0:0:
256,192,209825,1,0,0:0:0:0:
256,192,209894,1,8,0:0:0:0:
256,192,209962,1,8,0:0:0:0:
256,192,210030,1,0,0:0:0:0:
256,192,210098,1,8,0:0:0:0:
256,192,210167,1,0,0:0:0:0:
256,192,210303,1,8,0:0:0:0:
256,192,210439,1,0,0:0:0:0:
256,192,210575,1,8,0:0:0:0:
256,192,210712,1,8,0:0:0:0:
256,192,210780,1,8,0:0:0:0:
256,192,210848,1,0,0:0:0:0:
256,192,210916,1,0,0:0:0:0:
256,192,210984,1,8,0:0:0:0:
256,192,211053,1,8,0:0:0:0:
256,192,211121,1,0,0:0:0:0:
256,192,211189,1,8,0:0:0:0:
256,192,211257,1,0,0:0:0:0:
256,192,211394,1,8,0:0:0:0:
256,192,211530,1,0,0:0:0:0:
256,192,211666,1,0,0:0:0:0:
256,192,211734,1,0,0:0:0:0:
256,192,211803,1,8,0:0:0:0:
256,192,211939,1,8,0:0:0:0:
256,192,212007,1,0,0:0:0:0:
256,192,212075,1,8,0:0:0:0:
256,192,212144,1,8,0:0:0:0:
256,192,212212,1,0,0:0:0:0:
256,192,212280,1,0,0:0:0:0:
256,192,212348,1,12,0:0:0:0:
256,192,212484,1,0,0:0:0:0:
256,192,212621,1,12,0:0:0:0:
256,192,212757,1,0,0:0:0:0:
256,192,212894,1,8,0:0:0:0:
256,192,213030,1,8,0:0:0:0:
256,192,213166,1,8,0:0:0:0:
256,192,213234,1,8,0:0:0:0:
256,192,213303,1,0,0:0:0:0:
256,192,213371,1,0,0:0:0:0:
256,192,213439,1,8,0:0:0:0:
256,192,213485,1,0,0:0:0:0:
256,192,213530,1,0,0:0:0:0:
256,192,213575,1,8,0:0:0:0:
256,192,213644,1,0,0:0:0:0:
256,192,213712,1,12,0:0:0:0:
256,192,213848,1,0,0:0:0:0:
256,192,213984,1,8,0:0:0:0:
256,192,214053,1,0,0:0:0:0:
256,192,214121,1,8,0:0:0:0:
256,192,214257,1,8,0:0:0:0:
256,192,214325,1,8,0:0:0:0:
256,192,214394,1,0,0:0:0:0:
256,192,214462,1,0,0:0:0:0:
256,192,214530,1,8,0:0:0:0:
256,192,214576,1,0,0:0:0:0:
256,192,214621,1,0,0:0:0:0:
256,192,214666,1,8,0:0:0:0:
256,192,214803,1,8,0:0:0:0:
256,192,214871,1,8,0:0:0:0:
256,192,214939,1,0,0:0:0:0:
256,192,215007,1,0,0:0:0:0:
256,192,215075,1,8,0:0:0:0:
256,192,215121,1,0,0:0:0:0:
256,192,215167,1,0,0:0:0:0:
256,192,215212,1,8,0:0:0:0:
256,192,215280,1,0,0:0:0:0:
256,192,215348,1,8,0:0:0:0:
256,192,215416,1,8,0:0:0:0:
256,192,215484,1,0,0:0:0:0:
256,192,215553,1,0,0:0:0:0:
256,192,215621,1,8,0:0:0:0:
256,192,215667,1,0,0:0:0:0:
256,192,215712,1,0,0:0:0:0:
256,192,215757,1,8,0:0:0:0:
256,192,215825,1,0,0:0:0:0:
256,192,215894,1,12,0:0:0:0:
256,192,216030,1,0,0:0:0:0:
256,192,216166,1,8,0:0:0:0:
256,192,216303,1,0,0:0:0:0:
256,192,216439,1,8,0:0:0:0:
256,192,216485,1,8,0:0:0:0:
256,192,216530,1,8,0:0:0:0:
256,192,216575,1,0,0:0:0:0:
256,192,216644,1,0,0:0:0:0:
256,192,216712,1,8,0:0:0:0:
256,192,216780,1,8,0:0:0:0:
256,192,216848,1,0,0:0:0:0:
256,192,216916,1,0,0:0:0:0:
256,192,216984,1,12,0:0:0:0:
256,192,217121,1,0,0:0:0:0:
256,192,217257,1,8,0:0:0:0:
256,192,217394,1,8,0:0:0:0:
256,192,217666,1,0,0:0:0:0:
256,192,217803,1,8,0:0:0:0:
256,192,217939,1,8,0:0:0:0:
256,192,218212,1,0,0:0:0:0:
256,192,218348,1,8,0:0:0:0:
256,192,218484,1,8,0:0:0:0:
256,192,218621,1,0,0:0:0:0:
256,192,218757,1,0,0:0:0:0:
256,192,218894,1,8,0:0:0:0:
256,192,219030,1,0,0:0:0:0:
256,192,219303,1,0,0:0:0:0:
256,192,219439,1,8,0:0:0:0:
256,192,219575,1,8,0:0:0:0:
256,192,219848,1,0,0:0:0:0:
256,192,219984,1,8,0:0:0:0:
256,192,220121,1,8,0:0:0:0:
256,192,220394,1,0,0:0:0:0:
256,192,220530,1,8,0:0:0:0:
256,192,220666,1,8,0:0:0:0:
256,192,220803,1,0,0:0:0:0:
256,192,220939,1,8,0:0:0:0:
256,192,221075,1,0,0:0:0:0:
256,192,221212,1,8,0:0:0:0:
256,192,221348,1,0,0:0:0:0:
256,192,221484,1,8,0:0:0:0:
256,192,221621,1,8,0:0:0:0:
256,192,221757,1,0,0:0:0:0:
256,192,222030,1,0,0:0:0:0:
256,192,222166,1,8,0:0:0:0:
256,192,222303,1,0,0:0:0:0:
256,192,222575,1,0,0:0:0:0:
256,192,222712,1,8,0:0:0:0:
256,192,222848,1,8,0:0:0:0:
256,192,222984,1,0,0:0:0:0:
256,192,223121,1,8,0:0:0:0:
256,192,223257,1,0,0:0:0:0:
256,192,223394,1,8,0:0:0:0:
256,192,223666,1,0,0:0:0:0:
256,192,223803,1,8,0:0:0:0:
256,192,223939,1,8,0:0:0:0:
256,192,224212,1,0,0:0:0:0:
256,192,224348,1,8,0:0:0:0:
256,192,224484,1,8,0:0:0:0:
256,192,224757,1,0,0:0:0:0:
256,192,224894,1,8,0:0:0:0:
256,192,225030,1,0,0:0:0:0:
256,192,225166,1,8,0:0:0:0:
256,192,225303,1,8,0:0:0:0:
256,192,225439,1,0,0:0:0:0:
256,192,225575,1,0,0:0:0:0:
256,192,225712,1,12,0:0:0:0:
256,192,226121,1,12,0:0:0:0:
256,192,226803,1,12,0:0:0:0:
256,192,227212,1,12,0:0:0:0:
256,192,227894,1,12,0:0:0:0:
256,192,228303,1,12,0:0:0:0:
256,192,228984,1,12,0:0:0:0:
256,192,229394,1,12,0:0:0:0:
256,192,229803,1,12,0:0:0:0:
256,192,230075,1,12,0:0:0:0:
256,192,230484,1,12,0:0:0:0:
256,192,230894,1,12,0:0:0:0:
256,192,231303,1,12,0:0:0:0:
256,192,231712,1,12,0:0:0:0:
256,192,231984,1,12,0:0:0:0:
256,192,232257,1,12,0:0:0:0:
256,192,232666,1,12,0:0:0:0:
256,192,233075,1,12,0:0:0:0:
256,192,233348,1,12,0:0:0:0:
256,192,233484,1,0,0:0:0:0:
256,192,233621,1,8,0:0:0:0:
256,192,233757,1,0,0:0:0:0:
256,192,233894,1,8,0:0:0:0:
256,192,233962,1,0,0:0:0:0:
256,192,234030,1,8,0:0:0:0:
256,192,234098,1,0,0:0:0:0:
256,192,234166,1,8,0:0:0:0:
256,192,234212,1,8,0:0:0:0:
256,192,234258,1,8,0:0:0:0:
256,192,234303,1,0,0:0:0:0:
256,192,234371,1,0,0:0:0:0:
256,192,234439,1,12,0:0:0:0:
256,192,234712,1,0,0:0:0:0:
256,192,235121,1,0,0:0:0:0:
256,192,235530,1,0,0:0:0:0:
256,192,235803,1,0,0:0:0:0:
256,192,236212,1,0,0:0:0:0:
256,192,236621,1,0,0:0:0:0:
256,192,236894,1,0,0:0:0:0:
256,192,237303,1,0,0:0:0:0:
256,192,237712,1,0,0:0:0:0:
256,192,237984,1,0,0:0:0:0:
256,192,238394,1,0,0:0:0:0:
256,192,238803,1,0,0:0:0:0:
256,192,239075,1,0,0:0:0:0:
256,192,239484,1,0,0:0:0:0:
256,192,239894,1,0,0:0:0:0:
256,192,240166,1,0,0:0:0:0:
256,192,240575,1,0,0:0:0:0:
256,192,240984,1,0,0:0:0:0:
256,192,241257,1,0,0:0:0:0:
256,192,241666,1,0,0:0:0:0:
256,192,242075,1,12,0:0:0:0:
256,192,242212,1,12,0:0:0:0:
256,192,242348,1,12,0:0:0:0:
256,192,242484,1,12,0:0:0:0:
256,192,242621,1,12,0:0:0:0:
256,192,242757,1,12,0:0:0:0:
256,192,243167,1,0,0:0:0:0:
256,192,243303,1,0,0:0:0:0:
256,192,243371,1,0,0:0:0:0:
256,192,243439,1,12,0:0:0:0:
256,192,243575,1,8,0:0:0:0:
256,192,243644,1,0,0:0:0:0:
256,192,243712,1,8,0:0:0:0:
256,192,243780,1,8,0:0:0:0:
256,192,243848,1,0,0:0:0:0:
256,192,243984,1,8,0:0:0:0:
256,192,244053,1,0,0:0:0:0:
256,192,244121,1,8,0:0:0:0:
256,192,244189,1,0,0:0:0:0:
256,192,244257,1,8,0:0:0:0:
256,192,244530,1,8,0:0:0:0:
256,192,244666,1,0,0:0:0:0:
256,192,244734,1,0,0:0:0:0:
256,192,244803,1,8,0:0:0:0:
256,192,244871,1,8,0:0:0:0:
256,192,244939,1,0,0:0:0:0:
256,192,245007,1,0,0:0:0:0:
256,192,245075,1,8,0:0:0:0:
256,192,245212,1,0,0:0:0:0:
256,192,245348,1,12,0:0:0:0:
256,192,245553,1,12,0:0:0:0:
256,192,245757,1,12,0:0:0:0:
256,192,245962,1,12,0:0:0:0:
256,192,246166,1,12,0:0:0:0:
256,192,246303,1,0,0:0:0:0:
256,192,246371,1,0,0:0:0:0:
256,192,246439,1,8,0:0:0:0:
256,192,246507,1,0,0:0:0:0:
256,192,246575,1,0,0:0:0:0:
256,192,246644,1,0,0:0:0:0:
256,192,246712,1,12,0:0:0:0:
256,192,246848,1,0,0:0:0:0:
256,192,246984,1,8,0:0:0:0:
256,192,247121,1,0,0:0:0:0:
256,192,247257,1,0,0:0:0:0:
256,192,247325,1,0,0:0:0:0:
256,192,247394,1,0,0:0:0:0:
256,192,247462,1,0,0:0:0:0:
256,192,247530,1,12,0:0:0:0:
256,192,247803,1,8,0:0:0:0:
256,192,248075,1,8,0:0:0:0:
256,192,248348,1,8,0:0:0:0:
256,192,248484,1,0,0:0:0:0:
256,192,248553,1,0,0:0:0:0:
256,192,248621,1,12,0:0:0:0:
256,192,248894,1,8,0:0:0:0:
256,192,249166,1,8,0:0:0:0:
256,192,249439,1,8,0:0:0:0:
256,192,249575,1,0,0:0:0:0:
256,192,249644,1,0,0:0:0:0:
256,192,249712,1,12,0:0:0:0:
256,192,249848,1,12,0:0:0:0:
256,192,250257,1,12,0:0:0:0:
256,192,250394,1,12,0:0:0:0:
256,192,250803,1,12,0:0:0:0:
256,192,251075,1,8,0:0:0:0:
256,192,251144,1,0,0:0:0:0:
256,192,251212,1,8,0:0:0:0:
256,192,251280,1,0,0:0:0:0:
256,192,251348,1,8,0:0:0:0:
256,192,251439,1,8,0:0:0:0:
256,192,251530,1,8,0:0:0:0:
256,192,251621,1,0,0:0:0:0:
256,192,251712,1,0,0:0:0:0:
256,192,251803,1,0,0:0:0:0:
256,192,251894,1,8,0:0:0:0:
256,192,251962,1,8,0:0:0:0:
256,192,252030,1,0,0:0:0:0:
256,192,252098,1,0,0:0:0:0:
256,192,252166,1,12,0:0:0:0:
256,192,252303,1,0,0:0:0:0:
256,192,252371,1,0,0:0:0:0:
256,192,252439,1,8,0:0:0:0:
256,192,252507,1,0,0:0:0:0:
256,192,252575,1,8,0:0:0:0:
256,192,252644,1,0,0:0:0:0:
256,192,252712,1,8,0:0:0:0:
256,192,252780,1,8,0:0:0:0:
256,192,252848,1,0,0:0:0:0:
256,192,252916,1,0,0:0:0:0:
256,192,252984,1,8,0:0:0:0:
256,192,253257,1,8,0:0:0:0:
256,192,253394,1,0,0:0:0:0:
256,192,253462,1,0,0:0:0:0:
256,192,253530,1,8,0:0:0:0:
256,192,253598,1,8,0:0:0:0:
256,192,253666,1,0,0:0:0:0:
256,192,253734,1,0,0:0:0:0:
256,192,253803,1,8,0:0:0:0:
256,192,253939,1,0,0:0:0:0:
256,192,254076,1,8,0:0:0:0:
256,192,254212,1,8,0:0:0:0:
256,192,254280,1,0,0:0:0:0:
256,192,254348,1,8,0:0:0:0:
256,192,254484,1,0,0:0:0:0:
256,192,254621,1,8,0:0:0:0:
256,192,254757,1,8,0:0:0:0:
256,192,254803,1,0,0:0:0:0:
256,192,254848,1,0,0:0:0:0:
256,192,254894,1,8,0:0:0:0:
256,192,255030,1,0,0:0:0:0:
256,192,255167,1,8,0:0:0:0:
256,192,255439,1,8,0:0:0:0:
256,192,255575,1,0,0:0:0:0:
256,192,255712,1,8,0:0:0:0:
256,192,255848,1,0,0:0:0:0:
256,192,255984,1,8,0:0:0:0:
256,192,256189,1,0,0:0:0:0:
256,192,256257,1,8,0:0:0:0:
256,192,256530,1,8,0:0:0:0:
256,192,256939,1,0,0:0:0:0:
256,192,257075,1,8,0:0:0:0:
256,192,257348,1,0,0:0:0:0:
256,192,257621,1,8,0:0:0:0:
256,192,258030,1,0,0:0:0:0:
256,192,258166,1,8,0:0:0:0:
256,192,258303,1,0,0:0:0:0:
256,192,258439,1,8,0:0:0:0:
256,192,258575,1,8,0:0:0:0:
256,192,258712,1,0,0:0:0:0:
256,192,258848,1,8,0:0:0:0:
256,192,258984,1,0,0:0:0:0:
256,192,259121,1,0,0:0:0:0:
256,192,259167,1,0,0:0:0:0:
256,192,259212,1,0,0:0:0:0:
256,192,259257,1,8,0:0:0:0:
256,192,259394,1,0,0:0:0:0:
256,192,259530,1,8,0:0:0:0:
256,192,259666,1,8,0:0:0:0:
256,192,259803,1,8,0:0:0:0:
256,192,259939,1,0,0:0:0:0:
256,192,260075,1,8,0:0:0:0:
256,192,260212,1,0,0:0:0:0:
256,192,260348,1,8,0:0:0:0:
256,192,260484,1,8,0:0:0:0:
256,192,260621,1,4,0:0:0:0:
256,192,260894,1,12,0:0:0:0:
256,192,261030,1,0,0:0:0:0:
256,192,261098,1,0,0:0:0:0:
256,192,261166,1,8,0:0:0:0:
256,192,261234,1,8,0:0:0:0:
256,192,261303,1,0,0:0:0:0:
256,192,261439,1,8,0:0:0:0:
256,192,261507,1,0,0:0:0:0:
256,192,261575,1,8,0:0:0:0:
256,192,261644,1,0,0:0:0:0:
256,192,261712,1,8,0:0:0:0:
256,192,261984,1,8,0:0:0:0:
256,192,262121,1,0,0:0:0:0:
256,192,262189,1,0,0:0:0:0:
256,192,262257,1,8,0:0:0:0:
256,192,262325,1,8,0:0:0:0:
256,192,262394,1,0,0:0:0:0:
256,192,262462,1,0,0:0:0:0:
256,192,262530,1,8,0:0:0:0:
256,192,262666,1,0,0:0:0:0:
256,192,262803,1,8,0:0:0:0:
256,192,262871,1,0,0:0:0:0:
256,192,263007,1,8,0:0:0:0:
256,192,263075,1,0,0:0:0:0:
256,192,263212,1,8,0:0:0:0:
256,192,263280,1,0,0:0:0:0:
256,192,263416,1,8,0:0:0:0:
256,192,263484,1,0,0:0:0:0:
256,192,263621,1,8,0:0:0:0:
256,192,263757,1,0,0:0:0:0:
256,192,263825,1,0,0:0:0:0:
256,192,263894,1,8,0:0:0:0:
256,192,264166,1,8,0:0:0:0:
256,192,264303,1,0,0:0:0:0:
256,192,264439,1,0,0:0:0:0:
256,192,264507,1,0,0:0:0:0:
256,192,264575,1,0,0:0:0:0:
256,192,264712,1,8,0:0:0:0:
256,192,264848,1,0,0:0:0:0:
256,192,264916,1,0,0:0:0:0:
256,192,264984,1,12,0:0:0:0:
256,192,265257,1,8,0:0:0:0:
256,192,265666,1,0,0:0:0:0:
256,192,265803,1,8,0:0:0:0:
256,192,266075,1,0,0:0:0:0:
256,192,266348,1,8,0:0:0:0:
256,192,266757,1,0,0:0:0:0:
256,192,266894,1,12,0:0:0:0:
256,192,267030,1,0,0:0:0:0:
256,192,267166,1,12,0:0:0:0:
256,192,267303,1,12,0:0:0:0:
256,192,267712,1,12,0:0:0:0:
256,192,267848,1,12,0:0:0:0:
256,192,268258,1,12,0:0:0:0:
256,192,268530,1,8,0:0:0:0:
256,192,268598,1,8,0:0:0:0:
256,192,268666,1,0,0:0:0:0:
256,192,268734,1,0,0:0:0:0:
256,192,268803,1,12,0:0:0:0:
256,192,268939,1,12,0:0:0:0:
256,192,269076,1,0,0:0:0:0:
256,192,269144,1,0,0:0:0:0:
256,192,269212,1,0,0:0:0:0:
256,192,269280,1,0,0:0:0:0:
256,192,269348,1,12,0:0:0:0:
256,192,269621,1,8,0:0:0:0:
256,192,269894,1,8,0:0:0:0:
256,192,270030,1,0,0:0:0:0:
256,192,270166,1,8,0:0:0:0:
256,192,270439,1,8,0:0:0:0:
256,192,270712,1,8,0:0:0:0:
256,192,270848,1,0,0:0:0:0:
256,192,270984,1,12,0:0:0:0:
256,192,271257,1,8,0:0:0:0:
256,192,271530,1,8,0:0:0:0:
256,192,271666,1,0,0:0:0:0:
256,192,271803,1,8,0:0:0:0:
256,192,271939,1,0,0:0:0:0:
256,192,272075,1,8,0:0:0:0:
256,192,272212,1,8,0:0:0:0:
256,192,272348,1,0,0:0:0:0:
256,192,272484,1,0,0:0:0:0:
256,192,272621,1,12,0:0:0:0:
256,192,272894,1,8,0:0:0:0:
256,192,273166,1,8,0:0:0:0:
256,192,273303,1,0,0:0:0:0:
256,192,273439,1,8,0:0:0:0:
256,192,273712,1,8,0:0:0:0:
256,192,273984,1,8,0:0:0:0:
256,192,274121,1,0,0:0:0:0:
256,192,274257,1,12,0:0:0:0:
256,192,274530,1,8,0:0:0:0:
256,192,274803,1,8,0:0:0:0:
256,192,274939,1,0,0:0:0:0:
256,192,275075,1,8,0:0:0:0:
256,192,275348,1,8,0:0:0:0:
256,192,275621,1,8,0:0:0:0:
256,192,275757,1,0,0:0:0:0:
256,192,275894,1,12,0:0:0:0:
256,192,276166,1,8,0:0:0:0:
256,192,276439,1,8,0:0:0:0:
256,192,276575,1,0,0:0:0:0:
256,192,276712,1,8,0:0:0:0:
256,192,276984,1,8,0:0:0:0:
256,192,277257,1,8,0:0:0:0:
256,192,277394,1,0,0:0:0:0:
256,192,277530,1,12,0:0:0:0:
256,192,277803,1,8,0:0:0:0:
256,192,278075,1,8,0:0:0:0:
256,192,278212,1,0,0:0:0:0:
256,192,278348,1,8,0:0:0:0:
256,192,278484,1,0,0:0:0:0:
256,192,278621,1,8,0:0:0:0:
256,192,278757,1,8,0:0:0:0:
256,192,278894,1,0,0:0:0:0:
256,192,279030,1,0,0:0:0:0:
256,192,279166,1,12,0:0:0:0:
256,192,279439,1,8,0:0:0:0:
256,192,279712,1,8,0:0:0:0:
256,192,279848,1,0,0:0:0:0:
256,192,279984,1,8,0:0:0:0:
256,192,280257,1,8,0:0:0:0:
256,192,280530,1,8,0:0:0:0:
256,192,280598,1,8,0:0:0:0:
256,192,280803,1,12,0:0:0:0:
256,192,281075,1,8,0:0:0:0:
256,192,281348,1,8,0:0:0:0:
256,192,281484,1,8,0:0:0:0:
256,192,281621,1,8,0:0:0:0:
256,192,281757,1,0,0:0:0:0:
256,192,281894,1,8,0:0:0:0:
256,192,282030,1,0,0:0:0:0:
256,192,282166,1,8,0:0:0:0:
256,192,282303,1,0,0:0:0:0:
256,192,282439,1,12,0:0:0:0:
256,192,282575,1,0,0:0:0:0:
256,192,282712,1,8,0:0:0:0:
256,192,282848,1,8,0:0:0:0:
256,192,282984,1,0,0:0:0:0:
256,192,283121,1,0,0:0:0:0:
256,192,283257,1,8,0:0:0:0:
256,192,283394,1,0,0:0:0:0:
256,192,283530,1,8,0:0:0:0:
256,192,283666,1,8,0:0:0:0:
256,192,283803,1,0,0:0:0:0:
256,192,283939,1,8,0:0:0:0:
256,192,284075,1,0,0:0:0:0:
256,192,284212,1,0,0:0:0:0:
256,192,284348,1,8,0:0:0:0:
256,192,284484,1,8,0:0:0:0:
256,192,284621,1,0,0:0:0:0:
256,192,284757,1,0,0:0:0:0:
256,192,284893,1,8,0:0:0:0:
256,192,285030,1,0,0:0:0:0:
256,192,285166,1,8,0:0:0:0:
256,192,285303,1,8,0:0:0:0:
256,192,285439,1,0,0:0:0:0:
256,192,285575,1,0,0:0:0:0:
256,192,285711,1,12,0:0:0:0:
256,192,285848,1,0,0:0:0:0:
256,192,285984,1,8,0:0:0:0:
256,192,286121,1,8,0:0:0:0:
256,192,286257,1,0,0:0:0:0:
256,192,286394,1,0,0:0:0:0:
256,192,286529,1,8,0:0:0:0:
256,192,286666,1,0,0:0:0:0:
256,192,286803,1,8,0:0:0:0:
256,192,286939,1,8,0:0:0:0:
256,192,287075,1,0,0:0:0:0:
256,192,287212,1,0,0:0:0:0:
256,192,287348,1,12,0:0:0:0:
256,192,287484,1,0,0:0:0:0:
256,192,287621,1,8,0:0:0:0:
256,192,287757,1,8,0:0:0:0:
256,192,287894,1,0,0:0:0:0:
256,192,288030,1,0,0:0:0:0:
256,192,288166,1,8,0:0:0:0:
256,192,288303,1,0,0:0:0:0:
256,192,288439,1,0,0:0:0:0:
256,192,288575,1,8,0:0:0:0:
256,192,288712,1,8,0:0:0:0:
256,192,288848,1,0,0:0:0:0:
256,192,288984,1,12,0:0:0:0:
256,192,289121,1,0,0:0:0:0:
256,192,289257,1,8,0:0:0:0:
256,192,289394,1,8,0:0:0:0:
256,192,289530,1,0,0:0:0:0:
256,192,289666,1,0,0:0:0:0:
256,192,289803,1,8,0:0:0:0:
256,192,289939,1,0,0:0:0:0:
256,192,290075,1,8,0:0:0:0:
256,192,290212,1,8,0:0:0:0:
256,192,290348,1,0,0:0:0:0:
256,192,290484,1,8,0:0:0:0:
256,192,290621,1,0,0:0:0:0:
256,192,290757,1,0,0:0:0:0:
256,192,290894,1,8,0:0:0:0:
256,192,291030,1,8,0:0:0:0:
256,192,291166,1,0,0:0:0:0:
256,192,291303,1,0,0:0:0:0:
256,192,291439,1,8,0:0:0:0:
256,192,291575,1,0,0:0:0:0:
256,192,291712,1,8,0:0:0:0:
256,192,291848,1,8,0:0:0:0:
256,192,291984,1,0,0:0:0:0:
256,192,292121,1,0,0:0:0:0:
256,192,292257,1,12,0:0:0:0:
256,192,292394,1,0,0:0:0:0:
256,192,292530,1,8,0:0:0:0:
256,192,292666,1,8,0:0:0:0:
256,192,292803,1,0,0:0:0:0:
256,192,292939,1,0,0:0:0:0:
256,192,293075,1,8,0:0:0:0:
256,192,293212,1,0,0:0:0:0:
256,192,293348,1,8,0:0:0:0:
256,192,293484,1,8,0:0:0:0:
256,192,293621,1,0,0:0:0:0:
256,192,293757,1,0,0:0:0:0:
256,192,293894,1,12,0:0:0:0:
256,192,294030,1,0,0:0:0:0:
256,192,294166,1,8,0:0:0:0:
256,192,294303,1,8,0:0:0:0:
256,192,294439,1,0,0:0:0:0:
256,192,294575,1,0,0:0:0:0:
256,192,294712,1,12,0:0:0:0:
256,192,294848,1,0,0:0:0:0:
256,192,294984,1,12,0:0:0:0:
256,192,295121,1,0,0:0:0:0:
256,192,295257,1,12,0:0:0:0:
256,192,295394,1,0,0:0:0:0:
256,192,295530,1,12,0:0:0:0:
256,192,295666,1,0,0:0:0:0:
256,192,295803,1,8,0:0:0:0:
256,192,295939,1,8,0:0:0:0:
256,192,296075,1,0,0:0:0:0:
256,192,296212,1,0,0:0:0:0:
256,192,296280,1,0,0:0:0:0:
256,192,296348,1,8,0:0:0:0:
256,192,296484,1,0,0:0:0:0:
256,192,296553,1,8,0:0:0:0:
256,192,296621,1,0,0:0:0:0:
256,192,296757,1,8,0:0:0:0:
256,192,296894,1,0,0:0:0:0:
256,192,297030,1,8,0:0:0:0:
256,192,297166,1,0,0:0:0:0:
256,192,297303,1,0,0:0:0:0:
256,192,297439,1,8,0:0:0:0:
256,192,297575,1,8,0:0:0:0:
256,192,297712,1,0,0:0:0:0:
256,192,297848,1,0,0:0:0:0:
256,192,297984,1,8,0:0:0:0:
256,192,298121,1,0,0:0:0:0:
256,192,298189,1,8,0:0:0:0:
256,192,298257,1,0,0:0:0:0:
256,192,298394,1,0,0:0:0:0:
256,192,298462,1,0,0:0:0:0:
256,192,298530,1,8,0:0:0:0:
256,192,298598,1,0,0:0:0:0:
256,192,298666,1,8,0:0:0:0:
256,192,298803,1,12,0:0:0:0:
256,192,298939,1,0,0:0:0:0:
256,192,299075,1,8,0:0:0:0:
256,192,299212,1,8,0:0:0:0:
256,192,299348,1,0,0:0:0:0:
256,192,299484,1,0,0:0:0:0:
256,192,299621,1,8,0:0:0:0:
256,192,299757,1,0,0:0:0:0:
256,192,299825,1,8,0:0:0:0:
256,192,299894,1,0,0:0:0:0:
256,192,300030,1,8,0:0:0:0:
256,192,300166,1,0,0:0:0:0:
256,192,300303,1,0,0:0:0:0:
256,192,300439,1,12,0:0:0:0:
256,192,300575,1,0,0:0:0:0:
256,192,300712,1,8,0:0:0:0:
256,192,300848,1,8,0:0:0:0:
256,192,300984,1,0,0:0:0:0:
256,192,301121,1,0,0:0:0:0:
256,192,301257,1,12,0:0:0:0:
256,192,301394,1,0,0:0:0:0:
256,192,301462,1,0,0:0:0:0:
256,192,301530,1,12,0:0:0:0:
256,192,301666,1,0,0:0:0:0:
256,192,301734,1,0,0:0:0:0:
256,192,301803,1,12,0:0:0:0:
256,192,301939,1,0,0:0:0:0:
256,192,302007,1,0,0:0:0:0:
256,192,302075,1,12,0:0:0:0:
256,192,302211,1,0,0:0:0:0:
256,192,302348,1,8,0:0:0:0:
256,192,302484,1,0,0:0:0:0:
256,192,302620,1,8,0:0:0:0:
256,192,302688,1,8,0:0:0:0:
256,192,302757,1,0,0:0:0:0:
256,192,302893,1,12,0:0:0:0:
256,192,303029,1,0,0:0:0:0:
256,192,303166,1,8,0:0:0:0:
256,192,303302,1,0,0:0:0:0:
256,192,303439,1,8,0:0:0:0:
256,192,303507,1,8,0:0:0:0:
256,192,303575,1,0,0:0:0:0:
256,192,303644,1,0,0:0:0:0:
256,192,303712,1,12,0:0:0:0:
256,192,303848,1,0,0:0:0:0:
256,192,303984,1,8,0:0:0:0:
256,192,304121,1,8,0:0:0:0:
256,192,304257,1,0,0:0:0:0:
256,192,304394,1,0,0:0:0:0:
256,192,304530,1,8,0:0:0:0:
256,192,304598,1,8,0:0:0:0:
256,192,304666,1,0,0:0:0:0:
256,192,304734,1,0,0:0:0:0:
256,192,304803,1,8,0:0:0:0:
256,192,304848,1,8,0:0:0:0:
256,192,304893,1,8,0:0:0:0:
256,192,304939,1,0,0:0:0:0:
256,192,305007,1,0,0:0:0:0:
256,192,305075,1,8,0:0:0:0:
256,192,305120,1,8,0:0:0:0:
256,192,305166,1,8,0:0:0:0:
256,192,305212,1,0,0:0:0:0:
256,192,305280,1,0,0:0:0:0:
256,192,305348,1,12,0:0:0:0:
256,192,306166,1,12,0:0:0:0:
256,192,306984,1,12,0:0:0:0:
256,192,308620,1,12,0:0:0:0:
256,192,309438,1,12,0:0:0:0:
256,192,310257,1,0,0:0:0:0:
256,192,310325,1,0,0:0:0:0:
256,192,310393,1,8,0:0:0:0:
256,192,311075,1,8,0:0:0:0:
256,192,311211,1,8,0:0:0:0:
256,192,311348,1,0,0:0:0:0:
256,192,311416,1,8,0:0:0:0:
256,192,311484,1,0,0:0:0:0:
256,192,311620,1,8,0:0:0:0:
256,192,311688,1,8,0:0:0:0:
256,192,311757,1,0,0:0:0:0:
256,192,311825,1,0,0:0:0:0:
256,192,311893,1,12,0:0:0:0:
256,192,312302,1,8,0:0:0:0:
256,192,312438,1,0,0:0:0:0:
256,192,312711,1,8,0:0:0:0:
256,192,313120,1,8,0:0:0:0:
256,192,313256,1,0,0:0:0:0:
256,192,313529,1,8,0:0:0:0:
256,192,313802,1,0,0:0:0:0:
256,192,314074,1,8,0:0:0:0:
256,192,314347,1,0,0:0:0:0:
256,192,314483,1,8,0:0:0:0:
256,192,314620,1,0,0:0:0:0:
256,192,314893,1,8,0:0:0:0:
256,192,315165,1,0,0:0:0:0:
256,192,315302,1,8,0:0:0:0:
256,192,315711,1,8,0:0:0:0:
256,192,315983,1,0,0:0:0:0:
256,192,316120,1,0,0:0:0:0:
256,192,316256,1,8,0:0:0:0:
256,192,316665,1,8,0:0:0:0:
256,192,316802,1,0,0:0:0:0:
256,192,317074,1,8,0:0:0:0:
256,192,317347,1,0,0:0:0:0:
256,192,317483,1,8,0:0:0:0:
256,192,317893,1,0,0:0:0:0:
256,192,318165,1,8,0:0:0:0:
256,192,318438,1,0,0:0:0:0:
256,192,318983,1,8,0:0:0:0:
256,192,319529,1,0,0:0:0:0:
256,192,319665,1,8,0:0:0:0:
256,192,319802,1,8,0:0:0:0:
256,192,319938,1,0,0:0:0:0:
256,192,320074,1,8,0:0:0:0:
256,192,320347,1,8,0:0:0:0:
256,192,320483,1,0,0:0:0:0:
256,192,320620,1,12,0:0:0:0:
256,192,320893,1,8,0:0:0:0:
256,192,321302,1,0,0:0:0:0:
256,192,321438,1,8,0:0:0:0:
256,192,321711,1,0,0:0:0:0:
256,192,321983,1,8,0:0:0:0:
256,192,322393,1,0,0:0:0:0:
256,192,322529,1,8,0:0:0:0:
256,192,322802,1,12,0:0:0:0:
256,192,323074,1,8,0:0:0:0:
256,192,323483,1,0,0:0:0:0:
256,192,323620,1,8,0:0:0:0:
256,192,323893,1,12,0:0:0:0:
256,192,324165,1,8,0:0:0:0:
256,192,324302,1,0,0:0:0:0:
256,192,324438,1,12,0:0:0:0:
256,192,324574,1,0,0:0:0:0:
256,192,324711,1,8,0:0:0:0:
256,192,324983,1,12,0:0:0:0:
256,192,325256,1,8,0:0:0:0:
256,192,325529,1,8,0:0:0:0:
256,192,325802,1,12,0:0:0:0:
256,192,325938,1,0,0:0:0:0:
256,192,326006,1,0,0:0:0:0:
256,192,326074,1,12,0:0:0:0:
256,192,326347,1,8,0:0:0:0:
256,192,326620,1,8,0:0:0:0:
256,192,326893,1,12,0:0:0:0:
256,192,327029,1,0,0:0:0:0:
256,192,327097,1,0,0:0:0:0:
256,192,327165,1,12,0:0:0:0:
256,192,327302,1,0,0:0:0:0:
256,192,327438,1,8,0:0:0:0:
256,192,327574,1,0,0:0:0:0:
256,192,327711,1,8,0:0:0:0:
256,192,327847,1,0,0:0:0:0:
256,192,327983,1,8,0:0:0:0:
256,192,328120,1,0,0:0:0:0:
256,192,328256,1,8,0:0:0:0:
256,192,328324,1,8,0:0:0:0:
256,192,328393,1,0,0:0:0:0:
256,192,328461,1,0,0:0:0:0:
256,192,328529,1,8,0:0:0:0:
256,192,328597,1,8,0:0:0:0:
256,192,328665,1,0,0:0:0:0:
256,192,328733,1,0,0:0:0:0:
256,192,328802,1,8,0:0:0:0:
256,192,328870,1,8,0:0:0:0:
256,192,328938,1,0,0:0:0:0:
256,192,329006,1,0,0:0:0:0:
256,192,329074,1,8,0:0:0:0:
256,192,329143,1,8,0:0:0:0:
256,192,329211,1,0,0:0:0:0:
256,192,329279,1,0,0:0:0:0:
256,192,329347,1,8,0:0:0:0:
256,192,329393,1,0,0:0:0:0:
256,192,329438,1,0,0:0:0:0:
256,192,329483,1,8,0:0:0:0:
256,192,329552,1,8,0:0:0:0:
256,192,329620,1,0,0:0:0:0:
256,192,329688,1,0,0:0:0:0:
256,192,329756,1,8,0:0:0:0:
256,192,329824,1,8,0:0:0:0:
256,192,329893,1,0,0:0:0:0:
256,192,329938,1,8,0:0:0:0:
256,192,329983,1,8,0:0:0:0:
256,192,330029,1,0,0:0:0:0:
256,192,330097,1,0,0:0:0:0:
256,192,330165,1,8,0:0:0:0:
256,192,330211,1,8,0:0:0:0:
256,192,330256,1,8,0:0:0:0:
256,192,330302,1,0,0:0:0:0:
256,192,330370,1,0,0:0:0:0:
256,192,330438,1,8,0:0:0:0:
256,192,330483,1,0,0:0:0:0:
256,192,330529,1,0,0:0:0:0:
256,192,330574,1,8,0:0:0:0:
256,192,330643,1,0,0:0:0:0:
256,192,330711,1,8,0:0:0:0:
256,192,330756,1,0,0:0:0:0:
256,192,330802,1,0,0:0:0:0:
256,192,330847,1,8,0:0:0:0:
256,192,330915,1,0,0:0:0:0:
256,192,330983,1,8,0:0:0:0:
256,192,331029,1,8,0:0:0:0:
256,192,331074,1,8,0:0:0:0:
256,192,331120,1,0,0:0:0:0:
256,192,331165,1,0,0:0:0:0:
256,192,331211,1,0,0:0:0:0:
256,192,331256,1,8,0:0:0:0:
256,192,331393,1,0,0:0:0:0:
256,192,331529,1,12,0:0:0:0:
256,192,331665,1,0,0:0:0:0:
256,192,331733,1,0,0:0:0:0:
256,192,331802,1,0,0:0:0:0:
256,192,331938,1,12,0:0:0:0:
256,192,332074,1,0,0:0:0:0:
256,192,332143,1,0,0:0:0:0:
256,192,332211,1,0,0:0:0:0:
256,192,332347,1,12,0:0:0:0:
256,192,332483,1,0,0:0:0:0:
256,192,332552,1,0,0:0:0:0:
256,192,332620,1,0,0:0:0:0:
256,192,332756,1,12,0:0:0:0:
256,192,332893,1,0,0:0:0:0:
256,192,332961,1,0,0:0:0:0:
256,192,333029,1,0,0:0:0:0:
256,192,333165,1,12,0:0:0:0:
256,192,333302,1,0,0:0:0:0:
256,192,333370,1,0,0:0:0:0:
256,192,333438,1,0,0:0:0:0:
256,192,333574,1,0,0:0:0:0:
256,192,333643,1,0,0:0:0:0:
256,192,333711,1,12,0:0:0:0:
256,192,333847,1,0,0:0:0:0:
256,192,333983,1,8,0:0:0:0:
256,192,334052,1,8,0:0:0:0:
256,192,334120,1,0,0:0:0:0:
256,192,334256,1,8,0:0:0:0:
256,192,334324,1,0,0:0:0:0:
256,192,334393,1,8,0:0:0:0:
256,192,334461,1,8,0:0:0:0:
256,192,334529,1,0,0:0:0:0:
256,192,334597,1,0,0:0:0:0:
256,192,334665,1,8,0:0:0:0:
256,192,334802,1,8,0:0:0:0:
256,192,334870,1,0,0:0:0:0:
256,192,335006,1,0,0:0:0:0:
256,192,335074,1,8,0:0:0:0:
256,192,335211,1,8,0:0:0:0:
256,192,335279,1,8,0:0:0:0:
256,192,335347,1,0,0:0:0:0:
256,192,335483,1,0,0:0:0:0:
256,192,335620,1,8,0:0:0:0:
256,192,335688,1,0,0:0:0:0:
256,192,335756,1,8,0:0:0:0:
256,192,335824,1,0,0:0:0:0:
256,192,335893,1,12,0:0:0:0:
256,192,336029,1,0,0:0:0:0:
256,192,336097,1,0,0:0:0:0:
256,192,336165,1,8,0:0:0:0:
256,192,336302,1,0,0:0:0:0:
256,192,336438,1,8,0:0:0:0:
256,192,336506,1,8,0:0:0:0:
256,192,336574,1,8,0:0:0:0:
256,192,336643,1,8,0:0:0:0:
256,192,336711,1,0,0:0:0:0:
256,192,336779,1,0,0:0:0:0:
256,192,336847,1,0,0:0:0:0:
256,192,336915,1,0,0:0:0:0:
256,192,336983,1,12,0:0:0:0:
256,192,337120,1,0,0:0:0:0:
256,192,337188,1,0,0:0:0:0:
256,192,337256,1,8,0:0:0:0:
256,192,337393,1,0,0:0:0:0:
256,192,337529,1,8,0:0:0:0:
256,192,337597,1,0,0:0:0:0:
256,192,337733,1,8,0:0:0:0:
256,192,337802,1,0,0:0:0:0:
256,192,337938,1,0,0:0:0:0:
256,192,338074,1,12,0:0:0:0:
256,192,338347,1,0,0:0:0:0:
256,192,338620,1,12,0:0:0:0:
256,192,338893,1,0,0:0:0:0:
256,192,339165,1,12,0:0:0:0:
256,192,339302,1,0,0:0:0:0:
256,192,339438,1,12,0:0:0:0:
256,192,339574,1,0,0:0:0:0:
256,192,339711,1,8,0:0:0:0:
256,192,339779,1,8,0:0:0:0:
256,192,339847,1,0,0:0:0:0:
256,192,339915,1,0,0:0:0:0:
256,192,339983,1,8,0:0:0:0:
256,192,340029,1,8,0:0:0:0:
256,192,340074,1,8,0:0:0:0:
256,192,340120,1,8,0:0:0:0:
256,192,340165,1,8,0:0:0:0:
256,192,340211,1,8,0:0:0:0:
256,192,340256,1,0,0:0:0:0:
256,192,340393,1,0,0:0:0:0:
256,192,340529,1,12,0:0:0:0:
256,192,340665,1,0,0:0:0:0:
256,192,340733,1,0,0:0:0:0:
256,192,340802,1,8,0:0:0:0:
256,192,340870,1,0,0:0:0:0:
256,192,340938,1,8,0:0:0:0:
256,192,341006,1,8,0:0:0:0:
256,192,341074,1,0,0:0:0:0:
256,192,341143,1,0,0:0:0:0:
256,192,341211,1,8,0:0:0:0:
256,192,341347,1,8,0:0:0:0:
256,192,341415,1,0,0:0:0:0:
256,192,341552,1,0,0:0:0:0:
256,192,341620,1,8,0:0:0:0:
256,192,341756,1,8,0:0:0:0:
256,192,341893,1,0,0:0:0:0:
256,192,341961,1,0,0:0:0:0:
256,192,342029,1,8,0:0:0:0:
256,192,342097,1,8,0:0:0:0:
256,192,342165,1,0,0:0:0:0:
256,192,342233,1,0,0:0:0:0:
256,192,342302,1,8,0:0:0:0:
256,192,342438,1,8,0:0:0:0:
256,192,342506,1,8,0:0:0:0:
256,192,342574,1,0,0:0:0:0:
256,192,342643,1,0,0:0:0:0:
256,192,342711,1,8,0:0:0:0:
256,192,342779,1,0,0:0:0:0:
256,192,342847,1,8,0:0:0:0:
256,192,342915,1,0,0:0:0:0:
256,192,342983,1,8,0:0:0:0:
256,192,343052,1,8,0:0:0:0:
256,192,343120,1,0,0:0:0:0:
256,192,343188,1,0,0:0:0:0:
256,192,343256,1,8,0:0:0:0:
256,192,343324,1,8,0:0:0:0:
256,192,343393,1,8,0:0:0:0:
256,192,343529,1,8,0:0:0:0:
256,192,343597,1,0,0:0:0:0:
256,192,343733,1,0,0:0:0:0:
256,192,343802,1,8,0:0:0:0:
256,192,343938,1,8,0:0:0:0:
256,192,344006,1,8,0:0:0:0:
256,192,344074,1,0,0:0:0:0:
256,192,344211,1,0,0:0:0:0:
256,192,344347,1,8,0:0:0:0:
256,192,344415,1,0,0:0:0:0:
256,192,344483,1,8,0:0:0:0:
256,192,344552,1,0,0:0:0:0:
256,192,344620,1,12,0:0:0:0:
256,192,344756,1,0,0:0:0:0:
256,192,344824,1,0,0:0:0:0:
256,192,344893,1,8,0:0:0:0:
256,192,345029,1,8,0:0:0:0:
256,192,345165,1,0,0:0:0:0:
256,192,345233,1,0,0:0:0:0:
256,192,345302,1,8,0:0:0:0:
256,192,345370,1,0,0:0:0:0:
256,192,345438,1,8,0:0:0:0:
256,192,345574,1,0,0:0:0:0:
256,192,345711,1,12,0:0:0:0:
256,192,345847,1,0,0:0:0:0:
256,192,345915,1,8,0:0:0:0:
256,192,345983,1,8,0:0:0:0:
256,192,346052,1,0,0:0:0:0:
256,192,346120,1,8,0:0:0:0:
256,192,346256,1,8,0:0:0:0:
256,192,346324,1,0,0:0:0:0:
256,192,346461,1,8,0:0:0:0:
256,192,346529,1,0,0:0:0:0:
256,192,346665,1,0,0:0:0:0:
256,192,346802,1,12,0:0:0:0:
256,192,347006,1,0,0:0:0:0:
256,192,347211,1,0,0:0:0:0:
256,192,347347,1,12,0:0:0:0:
256,192,347620,1,0,0:0:0:0:
256,192,347893,1,12,0:0:0:0:
256,192,348029,1,0,0:0:0:0:
256,192,348165,1,12,0:0:0:0:
256,192,348302,1,0,0:0:0:0:
256,192,348438,1,8,0:0:0:0:
256,192,348506,1,8,0:0:0:0:
256,192,348574,1,0,0:0:0:0:
256,192,348643,1,0,0:0:0:0:
256,192,348711,1,8,0:0:0:0:
256,192,348756,1,8,0:0:0:0:
256,192,348802,1,8,0:0:0:0:
256,192,348847,1,0,0:0:0:0:
256,192,348915,1,0,0:0:0:0:
256,192,348983,1,12,0:0:0:0:
256,192,349120,1,0,0:0:0:0:
256,192,349188,1,0,0:0:0:0:
256,192,349256,1,8,0:0:0:0:
256,192,349393,1,8,0:0:0:0:
256,192,349529,1,8,0:0:0:0:
256,192,349597,1,0,0:0:0:0:
256,192,349665,1,8,0:0:0:0:
256,192,349733,1,8,0:0:0:0:
256,192,349802,1,0,0:0:0:0:
256,192,349870,1,0,0:0:0:0:
256,192,349938,1,8,0:0:0:0:
256,192,350074,1,0,0:0:0:0:
256,192,350143,1,0,0:0:0:0:
256,192,350279,1,0,0:0:0:0:
256,192,350347,1,8,0:0:0:0:
256,192,350483,1,8,0:0:0:0:
256,192,350620,1,0,0:0:0:0:
256,192,350688,1,0,0:0:0:0:
256,192,350756,1,0,0:0:0:0:
256,192,350824,1,0,0:0:0:0:
256,192,350893,1,8,0:0:0:0:
256,192,350961,1,8,0:0:0:0:
256,192,351029,1,8,0:0:0:0:
256,192,351165,1,8,0:0:0:0:
256,192,351233,1,0,0:0:0:0:
256,192,351302,1,8,0:0:0:0:
256,192,351370,1,8,0:0:0:0:
256,192,351438,1,0,0:0:0:0:
256,192,351506,1,0,0:0:0:0:
256,192,351574,1,8,0:0:0:0:
256,192,351711,1,8,0:0:0:0:
256,192,351779,1,8,0:0:0:0:
256,192,351915,1,0,0:0:0:0:
256,192,351983,1,8,0:0:0:0:
256,192,352120,1,8,0:0:0:0:
256,192,352256,1,8,0:0:0:0:
256,192,352324,1,0,0:0:0:0:
256,192,352393,1,8,0:0:0:0:
256,192,352461,1,0,0:0:0:0:
256,192,352529,1,8,0:0:0:0:
256,192,352597,1,8,0:0:0:0:
256,192,352665,1,0,0:0:0:0:
256,192,352733,1,8,0:0:0:0:
256,192,352802,1,0,0:0:0:0:
256,192,352938,1,0,0:0:0:0:
256,192,353074,1,8,0:0:0:0:
256,192,353143,1,0,0:0:0:0:
256,192,353211,1,8,0:0:0:0:
256,192,353279,1,0,0:0:0:0:
256,192,353347,1,12,0:0:0:0:
256,192,353483,1,0,0:0:0:0:
256,192,353552,1,0,0:0:0:0:
256,192,353620,1,8,0:0:0:0:
256,192,353756,1,0,0:0:0:0:
256,192,353893,1,8,0:0:0:0:
256,192,353961,1,8,0:0:0:0:
256,192,354029,1,0,0:0:0:0:
256,192,354097,1,0,0:0:0:0:
256,192,354165,1,8,0:0:0:0:
256,192,354302,1,0,0:0:0:0:
256,192,354370,1,0,0:0:0:0:
256,192,354438,1,12,0:0:0:0:
256,192,354574,1,0,0:0:0:0:
256,192,354711,1,8,0:0:0:0:
256,192,354779,1,8,0:0:0:0:
256,192,354847,1,0,0:0:0:0:
256,192,354983,1,8,0:0:0:0:
256,192,355052,1,0,0:0:0:0:
256,192,355188,1,8,0:0:0:0:
256,192,355256,1,0,0:0:0:0:
256,192,355393,1,0,0:0:0:0:
256,192,355529,1,12,0:0:0:0:
256,192,355802,1,0,0:0:0:0:
256,192,356074,1,8,0:0:0:0:
256,192,356347,1,0,0:0:0:0:
256,192,356620,1,8,0:0:0:0:
256,192,356756,1,0,0:0:0:0:
256,192,356893,1,12,0:0:0:0:
256,192,357029,1,0,0:0:0:0:
256,192,357165,1,8,0:0:0:0:
256,192,357233,1,8,0:0:0:0:
256,192,357302,1,0,0:0:0:0:
256,192,357370,1,0,0:0:0:0:
256,192,357438,1,8,0:0:0:0:
256,192,357483,1,8,0:0:0:0:
256,192,357529,1,8,0:0:0:0:
256,192,357574,1,8,0:0:0:0:
256,192,357620,1,8,0:0:0:0:
256,192,357665,1,8,0:0:0:0:
256,192,357711,1,0,0:0:0:0:
256,192,357847,1,0,0:0:0:0:
256,192,357983,1,12,0:0:0:0:
256,192,358120,1,0,0:0:0:0:
256,192,358188,1,0,0:0:0:0:
256,192,358256,1,8,0:0:0:0:
256,192,358324,1,8,0:0:0:0:
256,192,358393,1,0,0:0:0:0:
256,192,358461,1,0,0:0:0:0:
256,192,358529,1,8,0:0:0:0:
256,192,358597,1,0,0:0:0:0:
256,192,358665,1,8,0:0:0:0:
256,192,358802,1,8,0:0:0:0:
256,192,358870,1,0,0:0:0:0:
256,192,358938,1,8,0:0:0:0:
256,192,359006,1,0,0:0:0:0:
256,192,359074,1,8,0:0:0:0:
256,192,359211,1,0,0:0:0:0:
256,192,359347,1,8,0:0:0:0:
256,192,359483,1,8,0:0:0:0:
256,192,359620,1,0,0:0:0:0:
256,192,359688,1,0,0:0:0:0:
256,192,359756,1,0,0:0:0:0:
256,192,359824,1,0,0:0:0:0:
256,192,359893,1,12,0:0:0:0:
256,192,360029,1,0,0:0:0:0:
256,192,360438,1,12,0:0:0:0:
256,192,360574,1,0,0:0:0:0:
256,192,360983,1,12,0:0:0:0:
256,192,361120,1,0,0:0:0:0:
256,192,361256,1,12,0:0:0:0:
256,192,361393,1,0,0:0:0:0:
256,192,361529,1,12,0:0:0:0:
256,192,361665,1,0,0:0:0:0:
256,192,361802,1,8,0:0:0:0:
256,192,361870,1,0,0:0:0:0:
256,192,361938,1,8,0:0:0:0:
256,192,362006,1,0,0:0:0:0:
256,192,362074,1,12,0:0:0:0:
256,192,362211,1,0,0:0:0:0:
256,192,362279,1,0,0:0:0:0:
256,192,362347,1,8,0:0:0:0:
256,192,362483,1,8,0:0:0:0:
256,192,362620,1,0,0:0:0:0:
256,192,362756,1,8,0:0:0:0:
256,192,362824,1,0,0:0:0:0:
256,192,362893,1,8,0:0:0:0:
256,192,363029,1,0,0:0:0:0:
256,192,363165,1,12,0:0:0:0:
256,192,363302,1,0,0:0:0:0:
256,192,363370,1,0,0:0:0:0:
256,192,363438,1,8,0:0:0:0:
256,192,363574,1,8,0:0:0:0:
256,192,363711,1,8,0:0:0:0:
256,192,363779,1,8,0:0:0:0:
256,192,363847,1,0,0:0:0:0:
256,192,363915,1,0,0:0:0:0:
256,192,363983,1,8,0:0:0:0:
256,192,364029,1,8,0:0:0:0:
256,192,364074,1,8,0:0:0:0:
256,192,364120,1,0,0:0:0:0:
256,192,364188,1,0,0:0:0:0:
256,192,364256,1,12,0:0:0:0:
256,192,364461,1,12,0:0:0:0:
256,192,364665,1,12,0:0:0:0:
256,192,364802,1,12,0:0:0:0:
256,192,365074,1,0,0:0:0:0:
256,192,365347,1,8,0:0:0:0:
256,192,365415,1,8,0:0:0:0:
256,192,365483,1,0,0:0:0:0:
256,192,365552,1,0,0:0:0:0:
256,192,365620,1,8,0:0:0:0:
256,192,365688,1,0,0:0:0:0:
256,192,365756,1,8,0:0:0:0:
256,192,365824,1,8,0:0:0:0:
256,192,365893,1,0,0:0:0:0:
256,192,365938,1,0,0:0:0:0:
256,192,365983,1,0,0:0:0:0:
256,192,366029,1,8,0:0:0:0:
256,192,366097,1,0,0:0:0:0:
256,192,366165,1,8,0:0:0:0:
256,192,366211,1,8,0:0:0:0:
256,192,366256,1,8,0:0:0:0:
256,192,366302,1,0,0:0:0:0:
256,192,366370,1,0,0:0:0:0:
256,192,366438,1,12,0:0:0:0:
256,192,366574,1,0,0:0:0:0:
256,192,366643,1,0,0:0:0:0:
256,192,366711,1,8,0:0:0:0:
256,192,366847,1,8,0:0:0:0:
256,192,366983,1,8,0:0:0:0:
256,192,367052,1,8,0:0:0:0:
256,192,367120,1,0,0:0:0:0:
256,192,367188,1,0,0:0:0:0:
256,192,367256,1,8,0:0:0:0:
256,192,367324,1,0,0:0:0:0:
256,192,367393,1,8,0:0:0:0:
256,192,367529,1,0,0:0:0:0:
256,192,367597,1,0,0:0:0:0:
256,192,367665,1,0,0:0:0:0:
256,192,367802,1,8,0:0:0:0:
256,192,367870,1,0,0:0:0:0:
256,192,367938,1,8,0:0:0:0:
256,192,368006,1,0,0:0:0:0:
256,192,368074,1,8,0:0:0:0:
256,192,368143,1,8,0:0:0:0:
256,192,368211,1,0,0:0:0:0:
256,192,368279,1,0,0:0:0:0:
256,192,368347,1,8,0:0:0:0:
256,192,368415,1,8,0:0:0:0:
256,192,368483,1,0,0:0:0:0:
256,192,368620,1,0,0:0:0:0:
256,192,368756,1,8,0:0:0:0:
256,192,368893,1,0,0:0:0:0:
256,192,369029,1,8,0:0:0:0:
256,192,369165,1,0,0:0:0:0:
256,192,369302,1,8,0:0:0:0:
256,192,369438,1,0,0:0:0:0:
256,192,369574,1,8,0:0:0:0:
256,192,369847,1,0,0:0:0:0:
256,192,369983,1,8,0:0:0:0:
256,192,370120,1,0,0:0:0:0:
256,192,370256,1,8,0:0:0:0:
256,192,370393,1,8,0:0:0:0:
256,192,370529,1,0,0:0:0:0:
256,192,370665,1,0,0:0:0:0:
256,192,370802,1,12,0:0:0:0:
256,192,370938,1,0,0:0:0:0:
256,192,371006,1,0,0:0:0:0:
256,192,371074,1,8,0:0:0:0:
256,192,371143,1,0,0:0:0:0:
256,192,371211,1,8,0:0:0:0:
256,192,371347,1,8,0:0:0:0:
256,192,371415,1,8,0:0:0:0:
256,192,371483,1,8,0:0:0:0:
256,192,371552,1,8,0:0:0:0:
256,192,371620,1,0,0:0:0:0:
256,192,371688,1,0,0:0:0:0:
256,192,371756,1,0,0:0:0:0:
256,192,371824,1,0,0:0:0:0:
256,192,371893,1,12,0:0:0:0:
256,192,372029,1,0,0:0:0:0:
256,192,372165,1,8,0:0:0:0:
256,192,372233,1,8,0:0:0:0:
256,192,372302,1,0,0:0:0:0:
256,192,372370,1,0,0:0:0:0:
256,192,372438,1,8,0:0:0:0:
256,192,372506,1,8,0:0:0:0:
256,192,372574,1,8,0:0:0:0:
256,192,372643,1,8,0:0:0:0:
256,192,372711,1,0,0:0:0:0:
256,192,372779,1,0,0:0:0:0:
256,192,372847,1,8,0:0:0:0:
256,192,372915,1,0,0:0:0:0:
256,192,372983,1,12,0:0:0:0:
256,192,373120,1,0,0:0:0:0:
256,192,373256,1,8,0:0:0:0:
256,192,373393,1,0,0:0:0:0:
256,192,373529,1,12,0:0:0:0:
256,192,373665,1,0,0:0:0:0:
256,192,373802,1,8,0:0:0:0:
256,192,373938,1,0,0:0:0:0:
256,192,374074,1,12,0:0:0:0:
256,192,374211,1,0,0:0:0:0:
256,192,374347,1,12,0:0:0:0:
256,192,374483,1,0,0:0:0:0:
256,192,374620,1,12,0:0:0:0:
256,192,374756,1,0,0:0:0:0:
256,192,374824,1,0,0:0:0:0:
256,192,374893,1,8,0:0:0:0:
256,192,374938,1,8,0:0:0:0:
256,192,374983,1,8,0:0:0:0:
256,192,375029,1,8,0:0:0:0:
256,192,375074,1,8,0:0:0:0:
256,192,375120,1,8,0:0:0:0:
256,192,375165,1,0,0:0:0:0:
256,192,375302,1,0,0:0:0:0:
256,192,375438,1,12,0:0:0:0:
256,192,375574,1,0,0:0:0:0:
256,192,375643,1,0,0:0:0:0:
256,192,375711,1,8,0:0:0:0:
256,192,375779,1,0,0:0:0:0:
256,192,375847,1,8,0:0:0:0:
256,192,375915,1,8,0:0:0:0:
256,192,375983,1,0,0:0:0:0:
256,192,376120,1,8,0:0:0:0:
256,192,376256,1,0,0:0:0:0:
256,192,376324,1,0,0:0:0:0:
256,192,376393,1,0,0:0:0:0:
256,192,376529,1,8,0:0:0:0:
256,192,376597,1,0,0:0:0:0:
256,192,376665,1,8,0:0:0:0:
256,192,376733,1,0,0:0:0:0:
256,192,376802,1,8,0:0:0:0:
256,192,376870,1,8,0:0:0:0:
256,192,376938,1,0,0:0:0:0:
256,192,377006,1,0,0:0:0:0:
256,192,377074,1,8,0:0:0:0:
256,192,377143,1,8,0:0:0:0:
256,192,377211,1,0,0:0:0:0:
256,192,377347,1,0,0:0:0:0:
256,192,377483,1,8,0:0:0:0:
256,192,377620,1,0,0:0:0:0:
256,192,377756,1,8,0:0:0:0:
256,192,377893,1,0,0:0:0:0:
256,192,378029,1,8,0:0:0:0:
256,192,378165,1,0,0:0:0:0:
256,192,378302,1,8,0:0:0:0:
256,192,378574,1,0,0:0:0:0:
256,192,378711,1,8,0:0:0:0:
256,192,378847,1,0,0:0:0:0:
256,192,378983,1,8,0:0:0:0:
256,192,379120,1,8,0:0:0:0:
256,192,379256,1,0,0:0:0:0:
256,192,379393,1,0,0:0:0:0:
256,192,379529,1,12,0:0:0:0:
256,192,379665,1,0,0:0:0:0:
256,192,379733,1,0,0:0:0:0:
256,192,379802,1,8,0:0:0:0:
256,192,379870,1,8,0:0:0:0:
256,192,379938,1,0,0:0:0:0:
256,192,380006,1,0,0:0:0:0:
256,192,380074,1,8,0:0:0:0:
256,192,380143,1,0,0:0:0:0:
256,192,380211,1,8,0:0:0:0:
256,192,380279,1,8,0:0:0:0:
256,192,380347,1,0,0:0:0:0:
256,192,380415,1,0,0:0:0:0:
256,192,380483,1,8,0:0:0:0:
256,192,380620,1,12,0:0:0:0:
256,192,380802,1,4,0:0:0:0:
256,192,380983,1,4,0:0:0:0:
256,192,381165,1,12,0:0:0:0:
256,192,381347,1,4,0:0:0:0:
256,192,381529,1,4,0:0:0:0:
256,192,381711,1,12,0:0:0:0:
256,192,381893,1,4,0:0:0:0:
256,192,382074,1,4,0:0:0:0:
256,192,382256,1,12,0:0:0:0:
256,192,382438,1,4,0:0:0:0:
256,192,382620,1,4,0:0:0:0:
256,192,383074,1,8,0:0:0:0:
256,192,383620,1,8,0:0:0:0:
256,192,383665,1,8,0:0:0:0:
256,192,383711,1,8,0:0:0:0:
256,192,383756,1,8,0:0:0:0:
256,192,383893,1,12,0:0:0:0:
256,192,384029,1,0,0:0:0:0:
256,192,384097,1,0,0:0:0:0:
256,192,384165,1,8,0:0:0:0:
256,192,384233,1,0,0:0:0:0:
256,192,384302,1,8,0:0:0:0:
256,192,384438,1,8,0:0:0:0:
256,192,384506,1,0,0:0:0:0:
256,192,384574,1,0,0:0:0:0:
256,192,384643,1,8,0:0:0:0:
256,192,384711,1,0,0:0:0:0:
256,192,384847,1,8,0:0:0:0:
256,192,384983,1,8,0:0:0:0:
256,192,385052,1,0,0:0:0:0:
256,192,385188,1,0,0:0:0:0:
256,192,385256,1,8,0:0:0:0:
256,192,385393,1,8,0:0:0:0:
256,192,385529,1,0,0:0:0:0:
256,192,385597,1,0,0:0:0:0:
256,192,385665,1,0,0:0:0:0:
256,192,385733,1,0,0:0:0:0:
256,192,385802,1,8,0:0:0:0:
256,192,385870,1,8,0:0:0:0:
256,192,385938,1,0,0:0:0:0:
256,192,386074,1,8,0:0:0:0:
256,192,386143,1,8,0:0:0:0:
256,192,386211,1,0,0:0:0:0:
256,192,386279,1,0,0:0:0:0:
256,192,386347,1,8,0:0:0:0:
256,192,386415,1,0,0:0:0:0:
256,192,386483,1,8,0:0:0:0:
256,192,386552,1,0,0:0:0:0:
256,192,386620,1,8,0:0:0:0:
256,192,386756,1,0,0:0:0:0:
256,192,386893,1,8,0:0:0:0:
256,192,386961,1,8,0:0:0:0:
256,192,387029,1,0,0:0:0:0:
256,192,387165,1,8,0:0:0:0:
256,192,387233,1,0,0:0:0:0:
256,192,387302,1,8,0:0:0:0:
256,192,387370,1,8,0:0:0:0:
256,192,387438,1,0,0:0:0:0:
256,192,387506,1,0,0:0:0:0:
256,192,387574,1,8,0:0:0:0:
256,192,387643,1,0,0:0:0:0:
256,192,387711,1,8,0:0:0:0:
256,192,387847,1,0,0:0:0:0:
256,192,387983,1,8,0:0:0:0:
256,192,388052,1,0,0:0:0:0:
256,192,388120,1,8,0:0:0:0:
256,192,388188,1,0,0:0:0:0:
256,192,388256,1,12,0:0:0:0:
256,192,388393,1,0,0:0:0:0:
256,192,388461,1,0,0:0:0:0:
256,192,388529,1,8,0:0:0:0:
256,192,388665,1,0,0:0:0:0:
256,192,388802,1,8,0:0:0:0:
256,192,388870,1,0,0:0:0:0:
256,192,388938,1,0,0:0:0:0:
256,192,389006,1,8,0:0:0:0:
256,192,389074,1,0,0:0:0:0:
256,192,389211,1,0,0:0:0:0:
256,192,389279,1,0,0:0:0:0:
256,192,389347,1,12,0:0:0:0:
256,192,389483,1,0,0:0:0:0:
256,192,389620,1,8,0:0:0:0:
256,192,389688,1,8,0:0:0:0:
256,192,389756,1,0,0:0:0:0:
256,192,389893,1,8,0:0:0:0:
256,192,389961,1,0,0:0:0:0:
256,192,390097,1,8,0:0:0:0:
256,192,390165,1,0,0:0:0:0:
256,192,390302,1,0,0:0:0:0:
256,192,390438,1,12,0:0:0:0:
256,192,390711,1,0,0:0:0:0:
256,192,390983,1,8,0:0:0:0:
256,192,391256,1,0,0:0:0:0:
256,192,391529,1,8,0:0:0:0:
256,192,391665,1,0,0:0:0:0:
256,192,391802,1,12,0:0:0:0:
256,192,391938,1,0,0:0:0:0:
256,192,392074,1,8,0:0:0:0:
256,192,392143,1,8,0:0:0:0:
256,192,392211,1,0,0:0:0:0:
256,192,392279,1,0,0:0:0:0:
256,192,392347,1,8,0:0:0:0:
256,192,392393,1,8,0:0:0:0:
256,192,392438,1,8,0:0:0:0:
256,192,392483,1,8,0:0:0:0:
256,192,392529,1,8,0:0:0:0:
256,192,392574,1,8,0:0:0:0:
256,192,392620,1,0,0:0:0:0:
256,192,392756,1,0,0:0:0:0:
256,192,392893,1,12,0:0:0:0:
256,192,393029,1,0,0:0:0:0:
256,192,393097,1,0,0:0:0:0:
256,192,393165,1,8,0:0:0:0:
256,192,393233,1,0,0:0:0:0:
256,192,393302,1,8,0:0:0:0:
256,192,393370,1,8,0:0:0:0:
256,192,393438,1,0,0:0:0:0:
256,192,393506,1,0,0:0:0:0:
256,192,393574,1,8,0:0:0:0:
256,192,393711,1,8,0:0:0:0:
256,192,393779,1,8,0:0:0:0:
256,192,393915,1,0,0:0:0:0:
256,192,393983,1,8,0:0:0:0:
256,192,394120,1,8,0:0:0:0:
256,192,394256,1,0,0:0:0:0:
256,192,394324,1,0,0:0:0:0:
256,192,394393,1,8,0:0:0:0:
256,192,394461,1,0,0:0:0:0:
256,192,394529,1,8,0:0:0:0:
256,192,394597,1,8,0:0:0:0:
256,192,394665,1,0,0:0:0:0:
256,192,394733,1,0,0:0:0:0:
256,192,394802,1,12,0:0:0:0:
256,192,394938,1,0,0:0:0:0:
256,192,395347,1,12,0:0:0:0:
256,192,395483,1,0,0:0:0:0:
256,192,395893,1,12,0:0:0:0:
256,192,396029,1,0,0:0:0:0:
256,192,396165,1,12,0:0:0:0:
256,192,396302,1,0,0:0:0:0:
256,192,396438,1,12,0:0:0:0:
256,192,396574,1,0,0:0:0:0:
256,192,396711,1,8,0:0:0:0:
256,192,396779,1,0,0:0:0:0:
256,192,396847,1,8,0:0:0:0:
256,192,396915,1,0,0:0:0:0:
256,192,396983,1,12,0:0:0:0:
256,192,397120,1,0,0:0:0:0:
256,192,397188,1,0,0:0:0:0:
256,192,397256,1,8,0:0:0:0:
256,192,397393,1,8,0:0:0:0:
256,192,397461,1,8,0:0:0:0:
256,192,397529,1,0,0:0:0:0:
256,192,397665,1,8,0:0:0:0:
256,192,397733,1,0,0:0:0:0:
256,192,397802,1,8,0:0:0:0:
256,192,397938,1,0,0:0:0:0:
256,192,398074,1,12,0:0:0:0:
256,192,398211,1,0,0:0:0:0:
256,192,398347,1,0,0:0:0:0:
256,192,398483,1,0,0:0:0:0:
256,192,398620,1,12,0:0:0:0:
256,192,398756,1,0,0:0:0:0:
256,192,398824,1,8,0:0:0:0:
256,192,398893,1,0,0:0:0:0:
256,192,399029,1,0,0:0:0:0:
256,192,399165,1,8,0:0:0:0:
256,192,399233,1,8,0:0:0:0:
256,192,399302,1,0,0:0:0:0:
256,192,399370,1,0,0:0:0:0:
256,192,399438,1,8,0:0:0:0:
256,192,399506,1,8,0:0:0:0:
256,192,399574,1,0,0:0:0:0:
256,192,399643,1,0,0:0:0:0:
256,192,399711,1,8,0:0:0:0:
256,192,399779,1,8,0:0:0:0:
256,192,399847,1,0,0:0:0:0:
256,192,399915,1,0,0:0:0:0:
256,192,399983,1,8,0:0:0:0:
256,192,400052,1,8,0:0:0:0:
256,192,400120,1,0,0:0:0:0:
256,192,400188,1,0,0:0:0:0:
256,192,400256,1,12,0:0:0:0:
256,192,400529,1,8,0:0:0:0:
256,192,400597,1,0,0:0:0:0:
256,192,400665,1,8,0:0:0:0:
256,192,400733,1,0,0:0:0:0:
256,192,400802,1,8,0:0:0:0:
256,192,400870,1,8,0:0:0:0:
256,192,400938,1,0,0:0:0:0:
256,192,401006,1,0,0:0:0:0:
256,192,401074,1,8,0:0:0:0:
256,192,401120,1,8,0:0:0:0:
256,192,401165,1,8,0:0:0:0:
256,192,401211,1,0,0:0:0:0:
256,192,401279,1,0,0:0:0:0:
256,192,401347,1,12,0:0:0:0:
256,192,401483,1,0,0:0:0:0:
256,192,401552,1,0,0:0:0:0:
256,192,401620,1,8,0:0:0:0:
256,192,401688,1,0,0:0:0:0:
256,192,401756,1,8,0:0:0:0:
256,192,401824,1,0,0:0:0:0:
256,192,401893,1,8,0:0:0:0:
256,192,401961,1,8,0:0:0:0:
256,192,402029,1,0,0:0:0:0:
256,192,402097,1,0,0:0:0:0:
256,192,402165,1,8,0:0:0:0:
256,192,402233,1,8,0:0:0:0:
256,192,402302,1,0,0:0:0:0:
256,192,402370,1,0,0:0:0:0:
256,192,402438,1,12,0:0:0:0:
256,192,402574,1,0,0:0:0:0:
256,192,402711,1,0,0:0:0:0:
256,192,402847,1,0,0:0:0:0:
256,192,402983,1,12,0:0:0:0:
256,192,403120,1,0,0:0:0:0:
256,192,403188,1,8,0:0:0:0:
256,192,403256,1,0,0:0:0:0:
256,192,403393,1,0,0:0:0:0:
256,192,403529,1,8,0:0:0:0:
256,192,403597,1,8,0:0:0:0:
256,192,403665,1,0,0:0:0:0:
256,192,403733,1,0,0:0:0:0:
256,192,403802,1,8,0:0:0:0:
256,192,403870,1,8,0:0:0:0:
256,192,403938,1,0,0:0:0:0:
256,192,404006,1,0,0:0:0:0:
256,192,404074,1,8,0:0:0:0:
256,192,404143,1,8,0:0:0:0:
256,192,404211,1,0,0:0:0:0:
256,192,404279,1,0,0:0:0:0:
256,192,404347,1,8,0:0:0:0:
256,192,404415,1,8,0:0:0:0:
256,192,404483,1,0,0:0:0:0:
256,192,404552,1,0,0:0:0:0:
256,192,404620,1,12,0:0:0:0:
256,192,404893,1,8,0:0:0:0:
256,192,404961,1,0,0:0:0:0:
256,192,405029,1,8,0:0:0:0:
256,192,405097,1,0,0:0:0:0:
256,192,405165,1,8,0:0:0:0:
256,192,405233,1,8,0:0:0:0:
256,192,405302,1,0,0:0:0:0:
256,192,405370,1,0,0:0:0:0:
256,192,405438,1,8,0:0:0:0:
256,192,405483,1,8,0:0:0:0:
256,192,405529,1,8,0:0:0:0:
256,192,405574,1,0,0:0:0:0:
256,192,405643,1,0,0:0:0:0:
256,192,405711,1,12,0:0:0:0:
256,192,406529,1,0,0:0:0:0:
256,192,406665,1,0,0:0:0:0:
256,192,406733,1,0,0:0:0:0:
256,192,406802,1,12,0:0:0:0:
256,192,407347,1,12,0:0:0:0:
256,192,407620,1,0,0:0:0:0:
256,192,407688,1,0,0:0:0:0:
256,192,407756,1,0,0:0:0:0:
256,192,407824,1,0,0:0:0:0:
256,192,407893,1,12,0:0:0:0:
256,192,408097,1,12,0:0:0:0:
256,192,408302,1,12,0:0:0:0:
256,192,408438,1,12,0:0:0:0:
256,192,408983,1,8,0:0:0:0:
256,192,409052,1,8,0:0:0:0:
256,192,409120,1,0,0:0:0:0:
256,192,409188,1,0,0:0:0:0:
256,192,409256,1,8,0:0:0:0:
256,192,409324,1,8,0:0:0:0:
256,192,409393,1,0,0:0:0:0:
256,192,409461,1,0,0:0:0:0:
256,192,409529,1,8,0:0:0:0:
256,192,409574,1,0,0:0:0:0:
256,192,409620,1,0,0:0:0:0:
256,192,409665,1,8,0:0:0:0:
256,192,409733,1,0,0:0:0:0:
256,192,409802,1,8,0:0:0:0:
256,192,409847,1,8,0:0:0:0:
256,192,409893,1,8,0:0:0:0:
256,192,409938,1,0,0:0:0:0:
256,192,410006,1,0,0:0:0:0:
256,192,410074,1,12,0:0:0:0:
256,192,410211,1,0,0:0:0:0:
256,192,410347,1,8,0:0:0:0:
256,192,410483,1,8,0:0:0:0:
256,192,410620,1,8,0:0:0:0:
256,192,410688,1,8,0:0:0:0:
256,192,410756,1,0,0:0:0:0:
256,192,410824,1,8,0:0:0:0:
256,192,410893,1,0,0:0:0:0:
256,192,410961,1,0,0:0:0:0:
256,192,411029,1,8,0:0:0:0:
256,192,411165,1,0,0:0:0:0:
256,192,411302,1,0,0:0:0:0:
256,192,411438,1,8,0:0:0:0:
256,192,411574,1,0,0:0:0:0:
256,192,411643,1,0,0:0:0:0:
256,192,411711,1,8,0:0:0:0:
256,192,411779,1,0,0:0:0:0:
256,192,411915,1,0,0:0:0:0:
256,192,411983,1,8,0:0:0:0:
256,192,412120,1,8,0:0:0:0:
256,192,412188,1,8,0:0:0:0:
256,192,412256,1,0,0:0:0:0:
256,192,412393,1,8,0:0:0:0:
256,192,412529,1,0,0:0:0:0:
256,192,412597,1,0,0:0:0:0:
256,192,412665,1,0,0:0:0:0:
256,192,412733,1,0,0:0:0:0:
256,192,412802,1,8,0:0:0:0:
256,192,412870,1,8,0:0:0:0:
256,192,412938,1,0,0:0:0:0:
256,192,413006,1,0,0:0:0:0:
256,192,413074,1,8,0:0:0:0:
256,192,413211,1,8,0:0:0:0:
256,192,413347,1,0,0:0:0:0:
256,192,413483,1,0,0:0:0:0:
256,192,413552,1,0,0:0:0:0:
256,192,413620,1,8,0:0:0:0:
256,192,413688,1,0,0:0:0:0:
256,192,413756,1,8,0:0:0:0:
256,192,413893,1,8,0:0:0:0:
256,192,413961,1,8,0:0:0:0:
256,192,414029,1,0,0:0:0:0:
256,192,414097,1,0,0:0:0:0:
256,192,414165,1,8,0:0:0:0:
256,192,414233,1,0,0:0:0:0:
256,192,414302,1,8,0:0:0:0:
256,192,414438,1,0,0:0:0:0:
256,192,414574,1,8,0:0:0:0:
256,192,414711,1,0,0:0:0:0:
256,192,414847,1,8,0:0:0:0:
256,192,414915,1,0,0:0:0:0:
256,192,414983,1,8,0:0:0:0:
256,192,415052,1,8,0:0:0:0:
256,192,415120,1,0,0:0:0:0:
256,192,415188,1,0,0:0:0:0:
256,192,415256,1,8,0:0:0:0:
256,192,415324,1,0,0:0:0:0:
256,192,415393,1,8,0:0:0:0:
256,192,415529,1,0,0:0:0:0:
256,192,415665,1,0,0:0:0:0:
256,192,415733,1,0,0:0:0:0:
256,192,415802,1,8,0:0:0:0:
256,192,415938,1,0,0:0:0:0:
256,192,416074,1,8,0:0:0:0:
256,192,416143,1,8,0:0:0:0:
256,192,416211,1,0,0:0:0:0:
256,192,416279,1,8,0:0:0:0:
256,192,416347,1,0,0:0:0:0:
256,192,416415,1,0,0:0:0:0:
256,192,416483,1,8,0:0:0:0:
256,192,416620,1,0,0:0:0:0:
256,192,416688,1,0,0:0:0:0:
256,192,416756,1,0,0:0:0:0:
256,192,416824,1,0,0:0:0:0:
256,192,416893,1,8,0:0:0:0:
256,192,417029,1,0,0:0:0:0:
256,192,417165,1,8,0:0:0:0:
256,192,417233,1,0,0:0:0:0:
256,192,417370,1,0,0:0:0:0:
256,192,417438,1,8,0:0:0:0:
256,192,417506,1,0,0:0:0:0:
256,192,417574,1,8,0:0:0:0:
256,192,417711,1,0,0:0:0:0:
256,192,417779,1,0,0:0:0:0:
256,192,417847,1,0,0:0:0:0:
256,192,417915,1,0,0:0:0:0:
256,192,417983,1,8,0:0:0:0:
256,192,418052,1,0,0:0:0:0:
256,192,418120,1,8,0:0:0:0:
256,192,418256,1,8,0:0:0:0:
256,192,418324,1,8,0:0:0:0:
256,192,418393,1,8,0:0:0:0:
256,192,418461,1,8,0:0:0:0:
256,192,418529,1,4,0:0:0:0:
256,192,418802,1,12,0:0:0:0:
256,192,418938,1,0,0:0:0:0:
256,192,419074,1,8,0:0:0:0:
256,192,419211,1,8,0:0:0:0:
256,192,419347,1,8,0:0:0:0:
256,192,419415,1,8,0:0:0:0:
256,192,419483,1,0,0:0:0:0:
256,192,419552,1,0,0:0:0:0:
256,192,419620,1,8,0:0:0:0:
256,192,419756,1,8,0:0:0:0:
256,192,419893,1,0,0:0:0:0:
256,192,420029,1,0,0:0:0:0:
256,192,420165,1,8,0:0:0:0:
256,192,420302,1,0,0:0:0:0:
256,192,420370,1,0,0:0:0:0:
256,192,420438,1,8,0:0:0:0:
256,192,420506,1,0,0:0:0:0:
256,192,420643,1,0,0:0:0:0:
256,192,420711,1,8,0:0:0:0:
256,192,420847,1,8,0:0:0:0:
256,192,420983,1,0,0:0:0:0:
256,192,421120,1,8,0:0:0:0:
256,192,421256,1,8,0:0:0:0:
256,192,421324,1,8,0:0:0:0:
256,192,421393,1,0,0:0:0:0:
256,192,421461,1,0,0:0:0:0:
256,192,421529,1,8,0:0:0:0:
256,192,421597,1,8,0:0:0:0:
256,192,421665,1,8,0:0:0:0:
256,192,421802,1,8,0:0:0:0:
256,192,421870,1,0,0:0:0:0:
256,192,421938,1,8,0:0:0:0:
256,192,422074,1,0,0:0:0:0:
256,192,422211,1,0,0:0:0:0:
256,192,422279,1,0,0:0:0:0:
256,192,422347,1,8,0:0:0:0:
256,192,422483,1,8,0:0:0:0:
256,192,422552,1,0,0:0:0:0:
256,192,422620,1,8,0:0:0:0:
256,192,422688,1,8,0:0:0:0:
256,192,422756,1,0,0:0:0:0:
256,192,422824,1,0,0:0:0:0:
256,192,422893,1,12,0:0:0:0:
256,192,423029,1,0,0:0:0:0:
256,192,423165,1,12,0:0:0:0:
256,192,423302,1,0,0:0:0:0:
256,192,423438,1,8,0:0:0:0:
256,192,423574,1,8,0:0:0:0:
256,192,423711,1,8,0:0:0:0:
256,192,423779,1,8,0:0:0:0:
256,192,423847,1,0,0:0:0:0:
256,192,423915,1,0,0:0:0:0:
256,192,423983,1,8,0:0:0:0:
256,192,424029,1,0,0:0:0:0:
256,192,424074,1,0,0:0:0:0:
256,192,424120,1,8,0:0:0:0:
256,192,424188,1,0,0:0:0:0:
256,192,424256,1,12,0:0:0:0:
256,192,424393,1,0,0:0:0:0:
256,192,424529,1,8,0:0:0:0:
256,192,424597,1,0,0:0:0:0:
256,192,424665,1,8,0:0:0:0:
256,192,424802,1,8,0:0:0:0:
256,192,424870,1,8,0:0:0:0:
256,192,424938,1,0,0:0:0:0:
256,192,425006,1,0,0:0:0:0:
256,192,425074,1,8,0:0:0:0:
256,192,425120,1,0,0:0:0:0:
256,192,425165,1,0,0:0:0:0:
256,192,425211,1,8,0:0:0:0:
256,192,425347,1,8,0:0:0:0:
256,192,425415,1,8,0:0:0:0:
256,192,425483,1,0,0:0:0:0:
256,192,425552,1,0,0:0:0:0:
256,192,425620,1,8,0:0:0:0:
256,192,425665,1,0,0:0:0:0:
256,192,425711,1,0,0:0:0:0:
256,192,425756,1,8,0:0:0:0:
256,192,425824,1,0,0:0:0:0:
256,192,425893,1,8,0:0:0:0:
256,192,425961,1,8,0:0:0:0:
256,192,426029,1,0,0:0:0:0:
256,192,426097,1,0,0:0:0:0:
256,192,426165,1,8,0:0:0:0:
256,192,426211,1,0,0:0:0:0:
256,192,426256,1,0,0:0:0:0:
256,192,426302,1,8,0:0:0:0:
256,192,426370,1,0,0:0:0:0:
256,192,426438,1,12,0:0:0:0:
256,192,426574,1,0,0:0:0:0:
256,192,426711,1,8,0:0:0:0:
256,192,426847,1,0,0:0:0:0:
256,192,426983,1,8,0:0:0:0:
256,192,427029,1,8,0:0:0:0:
256,192,427074,1,8,0:0:0:0:
256,192,427120,1,0,0:0:0:0:
256,192,427188,1,0,0:0:0:0:
256,192,427256,1,8,0:0:0:0:
256,192,427324,1,8,0:0:0:0:
256,192,427393,1,0,0:0:0:0:
256,192,427461,1,0,0:0:0:0:
256,192,427529,1,12,0:0:0:0:
256,192,427665,1,0,0:0:0:0:
256,192,427802,1,8,0:0:0:0:
256,192,427870,1,0,0:0:0:0:
256,192,427938,1,8,0:0:0:0:
256,192,428074,1,8,0:0:0:0:
256,192,428143,1,0,0:0:0:0:
256,192,428279,1,0,0:0:0:0:
256,192,428347,1,8,0:0:0:0:
256,192,428483,1,8,0:0:0:0:
256,192,428620,1,0,0:0:0:0:
256,192,428756,1,0,0:0:0:0:
256,192,428824,1,0,0:0:0:0:
256,192,428893,1,8,0:0:0:0:
256,192,429029,1,0,0:0:0:0:
256,192,429097,1,0,0:0:0:0:
256,192,429165,1,8,0:0:0:0:
256,192,429233,1,8,0:0:0:0:
256,192,429302,1,8,0:0:0:0:
256,192,429438,1,8,0:0:0:0:
256,192,429574,1,8,0:0:0:0:
256,192,429711,1,0,0:0:0:0:
256,192,429779,1,0,0:0:0:0:
256,192,429847,1,0,0:0:0:0:
256,192,429915,1,0,0:0:0:0:
256,192,429983,1,8,0:0:0:0:
256,192,430120,1,8,0:0:0:0:
256,192,430188,1,0,0:0:0:0:
256,192,430256,1,8,0:0:0:0:
256,192,430324,1,8,0:0:0:0:
256,192,430393,1,0,0:0:0:0:
256,192,430461,1,0,0:0:0:0:
256,192,430529,1,8,0:0:0:0:
256,192,430665,1,8,0:0:0:0:
256,192,430802,1,0,0:0:0:0:
256,192,430870,1,8,0:0:0:0:
256,192,430938,1,0,0:0:0:0:
256,192,431006,1,0,0:0:0:0:
256,192,431074,1,8,0:0:0:0:
256,192,431211,1,0,0:0:0:0:
256,192,431279,1,0,0:0:0:0:
256,192,431347,1,8,0:0:0:0:
256,192,431415,1,0,0:0:0:0:
256,192,431483,1,8,0:0:0:0:
256,192,431552,1,8,0:0:0:0:
256,192,431620,1,8,0:0:0:0:
256,192,431756,1,8,0:0:0:0:
256,192,431893,1,0,0:0:0:0:
256,192,431961,1,8,0:0:0:0:
256,192,432097,1,8,0:0:0:0:
256,192,432165,1,0,0:0:0:0:
256,192,432302,1,8,0:0:0:0:
256,192,432370,1,0,0:0:0:0:
256,192,432438,1,8,0:0:0:0:
256,192,432506,1,8,0:0:0:0:
256,192,432574,1,8,0:0:0:0:
256,192,432643,1,8,0:0:0:0:
256,192,432711,1,0,0:0:0:0:
256,192,432847,1,8,0:0:0:0:
256,192,432983,1,0,0:0:0:0:
256,192,433120,1,8,0:0:0:0:
256,192,433188,1,0,0:0:0:0:
256,192,433256,1,8,0:0:0:0:
256,192,433393,1,8,0:0:0:0:
256,192,433529,1,8,0:0:0:0:
256,192,433597,1,8,0:0:0:0:
256,192,433665,1,0,0:0:0:0:
256,192,433733,1,0,0:0:0:0:
256,192,433802,1,8,0:0:0:0:
256,192,433870,1,0,0:0:0:0:
256,192,433938,1,8,0:0:0:0:
256,192,434074,1,0,0:0:0:0:
256,192,434211,1,0,0:0:0:0:
256,192,434279,1,0,0:0:0:0:
256,192,434347,1,8,0:0:0:0:
256,192,434483,1,0,0:0:0:0:
256,192,434620,1,8,0:0:0:0:
256,192,434688,1,0,0:0:0:0:
256,192,434756,1,8,0:0:0:0:
256,192,434824,1,0,0:0:0:0:
256,192,434893,1,8,0:0:0:0:
256,192,435029,1,0,0:0:0:0:
256,192,435165,1,0,0:0:0:0:
256,192,435233,1,0,0:0:0:0:
256,192,435302,1,0,0:0:0:0:
256,192,435370,1,0,0:0:0:0:
256,192,435438,1,8,0:0:0:0:
256,192,435506,1,0,0:0:0:0:
256,192,435574,1,8,0:0:0:0:
256,192,435711,1,8,0:0:0:0:
256,192,435779,1,8,0:0:0:0:
256,192,435847,1,8,0:0:0:0:
256,192,435915,1,8,0:0:0:0:
256,192,435983,1,4,0:0:0:0:
256,192,436256,1,12,0:0:0:0:
256,192,436393,1,0,0:0:0:0:
256,192,436529,1,8,0:0:0:0:
256,192,436665,1,8,0:0:0:0:
256,192,436802,1,8,0:0:0:0:
256,192,436870,1,8,0:0:0:0:
256,192,436938,1,0,0:0:0:0:
256,192,437006,1,8,0:0:0:0:
256,192,437074,1,0,0:0:0:0:
256,192,437211,1,8,0:0:0:0:
256,192,437347,1,0,0:0:0:0:
256,192,437483,1,0,0:0:0:0:
256,192,437552,1,0,0:0:0:0:
256,192,437620,1,8,0:0:0:0:
256,192,437756,1,0,0:0:0:0:
256,192,437893,1,8,0:0:0:0:
256,192,437961,1,8,0:0:0:0:
256,192,438029,1,0,0:0:0:0:
256,192,438097,1,8,0:0:0:0:
256,192,438165,1,8,0:0:0:0:
256,192,438302,1,8,0:0:0:0:
256,192,438438,1,0,0:0:0:0:
256,192,438574,1,8,0:0:0:0:
256,192,438711,1,8,0:0:0:0:
256,192,438779,1,8,0:0:0:0:
256,192,438847,1,0,0:0:0:0:
256,192,438915,1,0,0:0:0:0:
256,192,438983,1,8,0:0:0:0:
256,192,439052,1,8,0:0:0:0:
256,192,439120,1,8,0:0:0:0:
256,192,439256,1,8,0:0:0:0:
256,192,439324,1,0,0:0:0:0:
256,192,439393,1,8,0:0:0:0:
256,192,439529,1,0,0:0:0:0:
256,192,439665,1,8,0:0:0:0:
256,192,439733,1,0,0:0:0:0:
256,192,439802,1,8,0:0:0:0:
256,192,439870,1,8,0:0:0:0:
256,192,439938,1,0,0:0:0:0:
256,192,440074,1,8,0:0:0:0:
256,192,440143,1,8,0:0:0:0:
256,192,440211,1,0,0:0:0:0:
256,192,440279,1,0,0:0:0:0:
256,192,440347,1,12,0:0:0:0:
256,192,440483,1,0,0:0:0:0:
256,192,440620,1,12,0:0:0:0:
256,192,440756,1,0,0:0:0:0:
256,192,440893,1,8,0:0:0:0:
256,192,441029,1,0,0:0:0:0:
256,192,441165,1,8,0:0:0:0:
256,192,441233,1,8,0:0:0:0:
256,192,441302,1,8,0:0:0:0:
256,192,441370,1,8,0:0:0:0:
256,192,441438,1,0,0:0:0:0:
256,192,441483,1,8,0:0:0:0:
256,192,441529,1,8,0:0:0:0:
256,192,441574,1,0,0:0:0:0:
256,192,441643,1,0,0:0:0:0:
256,192,441711,1,12,0:0:0:0:
256,192,441847,1,0,0:0:0:0:
256,192,441983,1,8,0:0:0:0:
256,192,442052,1,0,0:0:0:0:
256,192,442120,1,8,0:0:0:0:
256,192,442256,1,8,0:0:0:0:
256,192,442324,1,8,0:0:0:0:
256,192,442393,1,8,0:0:0:0:
256,192,442461,1,8,0:0:0:0:
256,192,442529,1,0,0:0:0:0:
256,192,442574,1,8,0:0:0:0:
256,192,442620,1,8,0:0:0:0:
256,192,442665,1,0,0:0:0:0:
256,192,442802,1,8,0:0:0:0:
256,192,442870,1,8,0:0:0:0:
256,192,442938,1,0,0:0:0:0:
256,192,443006,1,0,0:0:0:0:
256,192,443074,1,8,0:0:0:0:
256,192,443120,1,0,0:0:0:0:
256,192,443165,1,0,0:0:0:0:
256,192,443211,1,8,0:0:0:0:
256,192,443279,1,0,0:0:0:0:
256,192,443347,1,8,0:0:0:0:
256,192,443415,1,8,0:0:0:0:
256,192,443483,1,0,0:0:0:0:
256,192,443552,1,0,0:0:0:0:
256,192,443620,1,8,0:0:0:0:
256,192,443665,1,0,0:0:0:0:
256,192,443711,1,0,0:0:0:0:
256,192,443756,1,8,0:0:0:0:
256,192,443824,1,0,0:0:0:0:
256,192,443893,1,12,0:0:0:0:
256,192,444029,1,0,0:0:0:0:
256,192,444165,1,8,0:0:0:0:
256,192,444302,1,0,0:0:0:0:
256,192,444438,1,8,0:0:0:0:
256,192,444483,1,8,0:0:0:0:
256,192,444529,1,8,0:0:0:0:
256,192,444574,1,0,0:0:0:0:
256,192,444643,1,0,0:0:0:0:
256,192,444711,1,8,0:0:0:0:
256,192,444779,1,8,0:0:0:0:
256,192,444847,1,0,0:0:0:0:
256,192,444915,1,0,0:0:0:0:
256,192,444983,1,12,0:0:0:0:
256,192,445120,8,0,453711,0:0:0:0:
