osu file format v14

[General]
AudioFilename: audio.mp3
AudioLeadIn: 0
PreviewTime: 74781
Countdown: 0
SampleSet: Normal
StackLeniency: 0.7
Mode: 1
LetterboxInBreaks: 0
WidescreenStoryboard: 0

[Editor]
DistanceSpacing: 1
BeatDivisor: 4
GridSize: 4
TimelineZoom: 2

[Metadata]
Title:Teriqma(MRM Edit)
TitleUnicode:Teriqma(MRM Edit)
Artist:Morimori Atsushi
ArtistUnicode:モリモリあつし
Creator:Charlotte
Version:Inner Oni
Source:CHUNITHM
Tags:チュウニズム yuzu__rinrin Hanjamon
BeatmapID:1298825
BeatmapSetID:615774

[Difficulty]
HPDrainRate:6
CircleSize:5
OverallDifficulty:6
ApproachRate:5
SliderMultiplier:1.4
SliderTickRate:1

[Events]
//Background and Video events
0,0,"BG.jpg",0,70
//Break Periods
//Storyboard Layer 0 (Background)
//Storyboard Layer 1 (Fail)
//Storyboard Layer 2 (Pass)
//Storyboard Layer 3 (Foreground)
//Storyboard Sound Samples

[TimingPoints]
-42,352.941176470588,4,1,0,70,1,0
12663,-100,4,1,0,80,0,1
34899,-100,4,1,0,80,0,0
35252,-100,4,1,0,70,0,0
74781,-100,4,1,0,80,0,1
81399,-50,4,1,0,80,0,1
81575,-100,4,1,0,80,0,1
108310,-100,4,1,0,80,0,0

[HitObjects]
256,192,1016,5,8,0:0:0:0:
256,192,1193,1,8,0:0:0:0:
256,192,1369,1,4,0:0:0:0:
256,192,1546,1,0,0:0:0:0:
256,192,1634,1,0,0:0:0:0:
256,192,1722,1,8,0:0:0:0:
256,192,1899,1,8,0:0:0:0:
256,192,2075,1,0,0:0:0:0:
256,192,2605,1,8,0:0:0:0:
256,192,2781,1,0,0:0:0:0:
256,192,2957,1,8,0:0:0:0:
256,192,3134,1,0,0:0:0:0:
256,192,3222,1,0,0:0:0:0:
256,192,3310,1,8,0:0:0:0:
256,192,3487,1,0,0:0:0:0:
256,192,3840,1,8,0:0:0:0:
256,192,4016,1,8,0:0:0:0:
256,192,4105,1,8,0:0:0:0:
256,192,4193,1,0,0:0:0:0:
256,192,4546,1,0,0:0:0:0:
256,192,4899,1,8,0:0:0:0:
256,192,5428,1,0,0:0:0:0:
256,192,5605,1,8,0:0:0:0:
256,192,5781,1,8,0:0:0:0:
256,192,5957,1,0,0:0:0:0:
256,192,6016,1,8,0:0:0:0:
256,192,6075,1,8,0:0:0:0:
256,192,6134,1,0,0:0:0:0:
256,192,6310,1,8,0:0:0:0:
256,192,6663,1,0,0:0:0:0:
256,192,6840,1,8,0:0:0:0:
256,192,7016,1,0,0:0:0:0:
256,192,7193,1,0,0:0:0:0:
256,192,7281,1,0,0:0:0:0:
256,192,7369,1,8,0:0:0:0:
256,192,7546,1,8,0:0:0:0:
256,192,7722,1,8,0:0:0:0:
256,192,7810,1,8,0:0:0:0:
256,192,7899,1,0,0:0:0:0:
256,192,7987,1,0,0:0:0:0:
256,192,8075,1,8,0:0:0:0:
256,192,8252,1,8,0:0:0:0:
256,192,8340,1,0,0:0:0:0:
256,192,8428,1,0,0:0:0:0:
256,192,8605,1,8,0:0:0:0:
256,192,8781,1,0,0:0:0:0:
256,192,8869,1,0,0:0:0:0:
256,192,8957,1,8,0:0:0:0:
256,192,9134,1,0,0:0:0:0:
256,192,9310,1,8,0:0:0:0:
256,192,9487,1,8,0:0:0:0:
256,192,9575,1,0,0:0:0:0:
256,192,9663,1,8,0:0:0:0:
256,192,9752,1,8,0:0:0:0:
256,192,9840,1,0,0:0:0:0:
256,192,10193,1,0,0:0:0:0:
256,192,10369,1,0,0:0:0:0:
256,192,10546,1,8,0:0:0:0:
256,192,10899,1,0,0:0:0:0:
256,192,11075,1,8,0:0:0:0:
256,192,11252,1,0,0:0:0:0:
256,192,11340,1,0,0:0:0:0:
256,192,11428,1,8,0:0:0:0:
256,192,11605,1,8,0:0:0:0:
256,192,11693,1,0,0:0:0:0:
256,192,11781,1,8,0:0:0:0:
256,192,11957,1,0,0:0:0:0:
256,192,12046,1,0,0:0:0:0:
256,192,12134,1,8,0:0:0:0:
256,192,12310,1,4,0:0:0:0:
256,192,12663,1,8,0:0:0:0:
256,192,12840,1,0,0:0:0:0:
256,192,12928,1,0,0:0:0:0:
256,192,13016,1,8,0:0:0:0:
256,192,13193,1,8,0:0:0:0:
256,192,13369,1,0,0:0:0:0:
256,192,13457,1,0,0:0:0:0:
256,192,13546,1,8,0:0:0:0:
256,192,13634,1,8,0:0:0:0:
256,192,13722,1,0,0:0:0:0:
256,192,13899,1,8,0:0:0:0:
256,192,14075,1,8,0:0:0:0:
256,192,14163,1,8,0:0:0:0:
256,192,14252,1,0,0:0:0:0:
256,192,14340,1,8,0:0:0:0:
256,192,14428,1,0,0:0:0:0:
256,192,14516,1,0,0:0:0:0:
256,192,14605,1,8,0:0:0:0:
256,192,14781,1,8,0:0:0:0:
256,192,14869,1,0,0:0:0:0:
256,192,14957,1,0,0:0:0:0:
256,192,15134,1,12,0:0:0:0:
256,192,15487,1,8,0:0:0:0:
256,192,15663,1,0,0:0:0:0:
256,192,15752,1,0,0:0:0:0:
256,192,15840,1,8,0:0:0:0:
256,192,16016,1,8,0:0:0:0:
256,192,16193,1,0,0:0:0:0:
256,192,16281,1,8,0:0:0:0:
256,192,16369,1,0,0:0:0:0:
256,192,16546,1,8,0:0:0:0:
256,192,16634,1,8,0:0:0:0:
256,192,16722,1,0,0:0:0:0:
256,192,16810,1,0,0:0:0:0:
256,192,16899,1,8,0:0:0:0:
256,192,17075,1,0,0:0:0:0:
256,192,17252,1,8,0:0:0:0:
256,192,17310,1,8,0:0:0:0:
256,192,17369,1,8,0:0:0:0:
256,192,17428,1,0,0:0:0:0:
256,192,17605,1,0,0:0:0:0:
256,192,17781,1,8,0:0:0:0:
256,192,17957,1,12,0:0:0:0:
256,192,18310,1,8,0:0:0:0:
256,192,18487,1,0,0:0:0:0:
256,192,18575,1,0,0:0:0:0:
256,192,18663,1,8,0:0:0:0:
256,192,18840,1,8,0:0:0:0:
256,192,19016,1,0,0:0:0:0:
256,192,19105,1,8,0:0:0:0:
256,192,19281,1,8,0:0:0:0:
256,192,19369,1,0,0:0:0:0:
256,192,19457,1,0,0:0:0:0:
256,192,19546,1,8,0:0:0:0:
256,192,19722,1,8,0:0:0:0:
256,192,19810,1,8,0:0:0:0:
256,192,19899,1,0,0:0:0:0:
256,192,19987,1,0,0:0:0:0:
256,192,20075,1,8,0:0:0:0:
256,192,20163,1,0,0:0:0:0:
256,192,20252,1,8,0:0:0:0:
256,192,20428,1,0,0:0:0:0:
256,192,20516,1,8,0:0:0:0:
256,192,20605,1,0,0:0:0:0:
256,192,20781,1,12,0:0:0:0:
256,192,21134,1,8,0:0:0:0:
256,192,21310,1,0,0:0:0:0:
256,192,21399,1,0,0:0:0:0:
256,192,21487,1,8,0:0:0:0:
256,192,21663,1,8,0:0:0:0:
256,192,21752,1,0,0:0:0:0:
256,192,21840,1,0,0:0:0:0:
256,192,21928,1,8,0:0:0:0:
256,192,22105,1,0,0:0:0:0:
256,192,22193,1,8,0:0:0:0:
256,192,22369,1,0,0:0:0:0:
256,192,22457,1,0,0:0:0:0:
256,192,22546,1,8,0:0:0:0:
256,192,22722,1,0,0:0:0:0:
256,192,22899,1,8,0:0:0:0:
256,192,22957,1,8,0:0:0:0:
256,192,23016,1,8,0:0:0:0:
256,192,23075,1,0,0:0:0:0:
256,192,23252,1,0,0:0:0:0:
256,192,23428,1,8,0:0:0:0:
256,192,23605,1,12,0:0:0:0:
256,192,23957,1,0,0:0:0:0:
256,192,24134,1,0,0:0:0:0:
256,192,24222,1,0,0:0:0:0:
256,192,24310,1,8,0:0:0:0:
256,192,24487,1,0,0:0:0:0:
256,192,24663,1,8,0:0:0:0:
256,192,24752,1,0,0:0:0:0:
256,192,24928,1,0,0:0:0:0:
256,192,25016,1,8,0:0:0:0:
256,192,25105,1,8,0:0:0:0:
256,192,25193,1,0,0:0:0:0:
256,192,25369,1,8,0:0:0:0:
256,192,25546,1,0,0:0:0:0:
256,192,25634,1,0,0:0:0:0:
256,192,25722,1,8,0:0:0:0:
256,192,25899,1,8,0:0:0:0:
256,192,25987,1,0,0:0:0:0:
256,192,26075,1,0,0:0:0:0:
256,192,26163,1,8,0:0:0:0:
256,192,26340,1,0,0:0:0:0:
256,192,26428,1,8,0:0:0:0:
256,192,26516,1,8,0:0:0:0:
256,192,26605,1,0,0:0:0:0:
256,192,26781,1,0,0:0:0:0:
256,192,26957,1,0,0:0:0:0:
256,192,27046,1,0,0:0:0:0:
256,192,27134,1,8,0:0:0:0:
256,192,27310,1,0,0:0:0:0:
256,192,27487,1,8,0:0:0:0:
256,192,27575,1,0,0:0:0:0:
256,192,27752,1,0,0:0:0:0:
256,192,27840,1,8,0:0:0:0:
256,192,27928,1,8,0:0:0:0:
256,192,28016,1,0,0:0:0:0:
256,192,28193,1,8,0:0:0:0:
256,192,28369,1,0,0:0:0:0:
256,192,28457,1,0,0:0:0:0:
256,192,28546,1,8,0:0:0:0:
256,192,28722,1,0,0:0:0:0:
256,192,28899,1,8,0:0:0:0:
256,192,28987,1,0,0:0:0:0:
256,192,29163,1,0,0:0:0:0:
256,192,29252,1,8,0:0:0:0:
256,192,29428,1,8,0:0:0:0:
256,192,29605,1,0,0:0:0:0:
256,192,29781,1,0,0:0:0:0:
256,192,29869,1,0,0:0:0:0:
256,192,29957,1,8,0:0:0:0:
256,192,30134,1,8,0:0:0:0:
256,192,30310,1,0,0:0:0:0:
256,192,30399,1,8,0:0:0:0:
256,192,30575,1,8,0:0:0:0:
256,192,30663,1,0,0:0:0:0:
256,192,30752,1,0,0:0:0:0:
256,192,30840,1,8,0:0:0:0:
256,192,31016,1,0,0:0:0:0:
256,192,31193,1,0,0:0:0:0:
256,192,31281,1,0,0:0:0:0:
256,192,31369,1,8,0:0:0:0:
256,192,31546,1,8,0:0:0:0:
256,192,31634,1,8,0:0:0:0:
256,192,31722,1,0,0:0:0:0:
256,192,31810,1,8,0:0:0:0:
256,192,31899,1,0,0:0:0:0:
256,192,32075,1,8,0:0:0:0:
256,192,32163,1,0,0:0:0:0:
256,192,32252,1,8,0:0:0:0:
256,192,32428,1,0,0:0:0:0:
256,192,32516,1,8,0:0:0:0:
256,192,32605,1,0,0:0:0:0:
256,192,32693,1,0,0:0:0:0:
256,192,32781,1,8,0:0:0:0:
256,192,32869,1,8,0:0:0:0:
256,192,32957,1,0,0:0:0:0:
256,192,33046,1,8,0:0:0:0:
256,192,33134,1,0,0:0:0:0:
256,192,33310,1,8,0:0:0:0:
256,192,33369,1,8,0:0:0:0:
256,192,33428,1,8,0:0:0:0:
256,192,33487,1,0,0:0:0:0:
256,192,33663,1,0,0:0:0:0:
256,192,33722,1,0,0:0:0:0:
256,192,33781,1,0,0:0:0:0:
256,192,33840,1,8,0:0:0:0:
256,192,34016,1,8,0:0:0:0:
256,192,34105,1,0,0:0:0:0:
256,192,34193,1,0,0:0:0:0:
256,192,34369,1,8,0:0:0:0:
256,192,34457,1,8,0:0:0:0:
256,192,34546,1,0,0:0:0:0:
256,192,34605,1,0,0:0:0:0:
256,192,34663,1,0,0:0:0:0:
256,192,34722,1,0,0:0:0:0:
256,192,34899,1,12,0:0:0:0:
256,192,35252,1,0,0:0:0:0:
256,192,35605,1,0,0:0:0:0:
256,192,35957,1,0,0:0:0:0:
256,192,36222,1,0,0:0:0:0:
256,192,36487,1,0,0:0:0:0:
256,192,36663,1,0,0:0:0:0:
256,192,36928,1,0,0:0:0:0:
256,192,37193,1,0,0:0:0:0:
256,192,37369,1,0,0:0:0:0:
256,192,37546,1,0,0:0:0:0:
256,192,37722,1,0,0:0:0:0:
256,192,37899,1,8,0:0:0:0:
256,192,38075,1,0,0:0:0:0:
256,192,38428,1,0,0:0:0:0:
256,192,38781,1,0,0:0:0:0:
256,192,39046,1,0,0:0:0:0:
256,192,39310,1,0,0:0:0:0:
256,192,39487,1,0,0:0:0:0:
256,192,39752,1,0,0:0:0:0:
256,192,40016,1,0,0:0:0:0:
256,192,40193,1,4,0:0:0:0:
256,192,40369,1,4,0:0:0:0:
256,192,40546,1,8,0:0:0:0:
256,192,40634,1,0,0:0:0:0:
256,192,40722,1,8,0:0:0:0:
256,192,40899,1,0,0:0:0:0:
256,192,41163,1,8,0:0:0:0:
256,192,41252,1,0,0:0:0:0:
256,192,41428,1,8,0:0:0:0:
256,192,41605,1,0,0:0:0:0:
256,192,41869,1,0,0:0:0:0:
256,192,41957,1,8,0:0:0:0:
256,192,42134,1,0,0:0:0:0:
256,192,42310,1,8,0:0:0:0:
256,192,42428,1,8,0:0:0:0:
256,192,42487,1,8,0:0:0:0:
256,192,42605,1,8,0:0:0:0:
256,192,42663,1,8,0:0:0:0:
256,192,42781,1,8,0:0:0:0:
256,192,42840,1,8,0:0:0:0:
256,192,42957,1,8,0:0:0:0:
256,192,43016,1,0,0:0:0:0:
256,192,43134,1,8,0:0:0:0:
256,192,43193,1,0,0:0:0:0:
256,192,43310,1,8,0:0:0:0:
256,192,43369,1,0,0:0:0:0:
256,192,43546,1,8,0:0:0:0:
256,192,43722,1,0,0:0:0:0:
256,192,43987,1,8,0:0:0:0:
256,192,44075,1,0,0:0:0:0:
256,192,44252,1,8,0:0:0:0:
256,192,44428,1,0,0:0:0:0:
256,192,44605,1,8,0:0:0:0:
256,192,44693,1,0,0:0:0:0:
256,192,44781,1,8,0:0:0:0:
256,192,44957,1,8,0:0:0:0:
256,192,45134,1,0,0:0:0:0:
256,192,45310,1,8,0:0:0:0:
256,192,45399,1,0,0:0:0:0:
256,192,45487,1,8,0:0:0:0:
256,192,45546,1,8,0:0:0:0:
256,192,45605,1,8,0:0:0:0:
256,192,45663,1,0,0:0:0:0:
256,192,45840,1,4,0:0:0:0:
256,192,46016,1,4,0:0:0:0:
256,192,46193,1,0,0:0:0:0:
256,192,46281,1,8,0:0:0:0:
256,192,46369,1,0,0:0:0:0:
256,192,46546,1,12,0:0:0:0:
256,192,46899,1,4,0:0:0:0:
256,192,47252,1,8,0:0:0:0:
256,192,47428,1,0,0:0:0:0:
256,192,47516,1,8,0:0:0:0:
256,192,47693,1,8,0:0:0:0:
256,192,47781,1,0,0:0:0:0:
256,192,47869,1,8,0:0:0:0:
256,192,47957,1,0,0:0:0:0:
256,192,48134,1,8,0:0:0:0:
256,192,48222,1,0,0:0:0:0:
256,192,48399,1,0,0:0:0:0:
256,192,48487,1,8,0:0:0:0:
256,192,48663,1,0,0:0:0:0:
256,192,48840,1,0,0:0:0:0:
256,192,48928,1,8,0:0:0:0:
256,192,49016,1,0,0:0:0:0:
256,192,49105,1,0,0:0:0:0:
256,192,49193,1,8,0:0:0:0:
256,192,49281,1,8,0:0:0:0:
256,192,49369,1,0,0:0:0:0:
256,192,49722,1,8,0:0:0:0:
256,192,49987,1,8,0:0:0:0:
256,192,50075,1,0,0:0:0:0:
256,192,50252,1,8,0:0:0:0:
256,192,50428,1,0,0:0:0:0:
256,192,50605,1,0,0:0:0:0:
256,192,50693,1,8,0:0:0:0:
256,192,50869,1,8,0:0:0:0:
256,192,50957,1,0,0:0:0:0:
256,192,51134,1,0,0:0:0:0:
256,192,51310,1,8,0:0:0:0:
256,192,51399,1,8,0:0:0:0:
256,192,51487,1,0,0:0:0:0:
256,192,51575,1,8,0:0:0:0:
256,192,51752,1,8,0:0:0:0:
256,192,51840,1,0,0:0:0:0:
256,192,51928,1,0,0:0:0:0:
256,192,52016,1,8,0:0:0:0:
256,192,52193,1,8,0:0:0:0:
256,192,52457,1,0,0:0:0:0:
256,192,52546,1,8,0:0:0:0:
256,192,52722,1,0,0:0:0:0:
256,192,52899,1,8,0:0:0:0:
256,192,52987,1,8,0:0:0:0:
256,192,53075,1,0,0:0:0:0:
256,192,53252,1,8,0:0:0:0:
256,192,53428,1,0,0:0:0:0:
256,192,53516,1,0,0:0:0:0:
256,192,53605,1,8,0:0:0:0:
256,192,53869,1,0,0:0:0:0:
256,192,53957,1,8,0:0:0:0:
256,192,54134,1,0,0:0:0:0:
256,192,54310,1,8,0:0:0:0:
256,192,54399,1,8,0:0:0:0:
256,192,54487,1,0,0:0:0:0:
256,192,54575,1,0,0:0:0:0:
256,192,54663,1,8,0:0:0:0:
256,192,54840,1,0,0:0:0:0:
256,192,54928,1,0,0:0:0:0:
256,192,55016,1,8,0:0:0:0:
256,192,55105,1,8,0:0:0:0:
256,192,55193,1,0,0:0:0:0:
256,192,55369,1,8,0:0:0:0:
256,192,55457,1,8,0:0:0:0:
256,192,55546,1,0,0:0:0:0:
256,192,55722,1,8,0:0:0:0:
256,192,55810,1,8,0:0:0:0:
256,192,55899,1,0,0:0:0:0:
256,192,56075,1,8,0:0:0:0:
256,192,56163,1,8,0:0:0:0:
256,192,56252,1,0,0:0:0:0:
256,192,56428,1,0,0:0:0:0:
256,192,56605,1,8,0:0:0:0:
256,192,56781,1,0,0:0:0:0:
256,192,56869,1,0,0:0:0:0:
256,192,56957,1,8,0:0:0:0:
256,192,57134,1,0,0:0:0:0:
256,192,57310,1,8,0:0:0:0:
256,192,57399,1,0,0:0:0:0:
256,192,57575,1,8,0:0:0:0:
256,192,57663,1,0,0:0:0:0:
256,192,57840,1,4,0:0:0:0:
256,192,58193,1,0,0:0:0:0:
256,192,58369,1,0,0:0:0:0:
256,192,58546,1,8,0:0:0:0:
256,192,58899,1,8,0:0:0:0:
256,192,59075,1,8,0:0:0:0:
256,192,59252,1,0,0:0:0:0:
256,192,59428,1,0,0:0:0:0:
256,192,59516,1,0,0:0:0:0:
256,192,59605,1,8,0:0:0:0:
256,192,59781,1,0,0:0:0:0:
256,192,59957,1,8,0:0:0:0:
256,192,60046,1,0,0:0:0:0:
256,192,60134,1,0,0:0:0:0:
256,192,60310,1,12,0:0:0:0:
256,192,60663,1,0,0:0:0:0:
256,192,61016,1,0,0:0:0:0:
256,192,61193,1,0,0:0:0:0:
256,192,61369,1,8,0:0:0:0:
256,192,61722,1,8,0:0:0:0:
256,192,61899,1,8,0:0:0:0:
256,192,62075,1,0,0:0:0:0:
256,192,62252,1,8,0:0:0:0:
256,192,62340,1,0,0:0:0:0:
256,192,62516,1,0,0:0:0:0:
256,192,62605,1,8,0:0:0:0:
256,192,62781,1,8,0:0:0:0:
256,192,62869,1,0,0:0:0:0:
256,192,62957,1,0,0:0:0:0:
256,192,63134,1,12,0:0:0:0:
256,192,63310,1,0,0:0:0:0:
256,192,63487,1,0,0:0:0:0:
256,192,63840,1,8,0:0:0:0:
256,192,64016,1,0,0:0:0:0:
256,192,64105,1,0,0:0:0:0:
256,192,64193,1,0,0:0:0:0:
256,192,64369,1,8,0:0:0:0:
256,192,64546,1,0,0:0:0:0:
256,192,64722,1,0,0:0:0:0:
256,192,64810,1,0,0:0:0:0:
256,192,64899,1,8,0:0:0:0:
256,192,65075,1,0,0:0:0:0:
256,192,65163,1,8,0:0:0:0:
256,192,65252,1,0,0:0:0:0:
256,192,65428,1,8,0:0:0:0:
256,192,65605,1,8,0:0:0:0:
256,192,65693,1,8,0:0:0:0:
256,192,65781,1,0,0:0:0:0:
256,192,65957,1,8,0:0:0:0:
256,192,66134,1,0,0:0:0:0:
256,192,66310,1,8,0:0:0:0:
256,192,66487,1,0,0:0:0:0:
256,192,66575,1,0,0:0:0:0:
256,192,66663,1,8,0:0:0:0:
256,192,66840,1,0,0:0:0:0:
256,192,67016,1,8,0:0:0:0:
256,192,67105,1,8,0:0:0:0:
256,192,67193,1,0,0:0:0:0:
256,192,67281,1,0,0:0:0:0:
256,192,67369,1,8,0:0:0:0:
256,192,67546,1,0,0:0:0:0:
256,192,67722,1,8,0:0:0:0:
256,192,67810,1,0,0:0:0:0:
256,192,67899,1,0,0:0:0:0:
256,192,68075,1,8,0:0:0:0:
256,192,68163,1,0,0:0:0:0:
256,192,68252,1,0,0:0:0:0:
256,192,68340,1,0,0:0:0:0:
256,192,68428,1,8,0:0:0:0:
256,192,68516,1,0,0:0:0:0:
256,192,68693,1,0,0:0:0:0:
256,192,68781,1,8,0:0:0:0:
256,192,69134,1,0,0:0:0:0:
256,192,69310,1,8,0:0:0:0:
256,192,69399,1,8,0:0:0:0:
256,192,69487,1,0,0:0:0:0:
256,192,69663,1,8,0:0:0:0:
256,192,69752,1,8,0:0:0:0:
256,192,69840,1,0,0:0:0:0:
256,192,70016,1,8,0:0:0:0:
256,192,70105,1,8,0:0:0:0:
256,192,70193,1,0,0:0:0:0:
256,192,70369,1,8,0:0:0:0:
256,192,70457,1,8,0:0:0:0:
256,192,70546,1,0,0:0:0:0:
256,192,70634,1,8,0:0:0:0:
256,192,70722,1,0,0:0:0:0:
256,192,70810,1,0,0:0:0:0:
256,192,70899,1,8,0:0:0:0:
256,192,70987,1,0,0:0:0:0:
256,192,71075,1,8,0:0:0:0:
256,192,71163,1,0,0:0:0:0:
256,192,71252,1,8,0:0:0:0:
256,192,71340,1,8,0:0:0:0:
256,192,71428,1,0,0:0:0:0:
256,192,71516,1,8,0:0:0:0:
256,192,71605,1,0,0:0:0:0:
256,192,71693,1,0,0:0:0:0:
256,192,71781,1,8,0:0:0:0:
256,192,71869,1,8,0:0:0:0:
256,192,71957,1,0,0:0:0:0:
256,192,72134,1,0,0:0:0:0:
256,192,72193,1,0,0:0:0:0:
256,192,72252,1,0,0:0:0:0:
256,192,72310,1,8,0:0:0:0:
256,192,72487,1,8,0:0:0:0:
256,192,72546,1,8,0:0:0:0:
256,192,72605,1,8,0:0:0:0:
256,192,72663,1,0,0:0:0:0:
256,192,72840,1,8,0:0:0:0:
256,192,72899,1,0,0:0:0:0:
256,192,72957,1,0,0:0:0:0:
256,192,73016,1,8,0:0:0:0:
256,192,73193,1,0,0:0:0:0:
256,192,73252,1,8,0:0:0:0:
256,192,73310,1,8,0:0:0:0:
256,192,73369,1,0,0:0:0:0:
256,192,73546,1,8,0:0:0:0:
256,192,73722,1,8,0:0:0:0:
256,192,73810,1,8,0:0:0:0:
256,192,73899,1,0,0:0:0:0:
256,192,74075,1,0,0:0:0:0:
256,192,74163,1,0,0:0:0:0:
256,192,74252,1,8,0:0:0:0:
256,192,74428,1,4,0:0:0:0:
256,192,74781,1,8,0:0:0:0:
256,192,74957,1,0,0:0:0:0:
256,192,75046,1,0,0:0:0:0:
256,192,75134,1,8,0:0:0:0:
256,192,75310,1,8,0:0:0:0:
256,192,75487,1,0,0:0:0:0:
256,192,75575,1,0,0:0:0:0:
256,192,75663,1,8,0:0:0:0:
256,192,75752,1,0,0:0:0:0:
256,192,75840,1,8,0:0:0:0:
256,192,75928,1,0,0:0:0:0:
256,192,76016,1,8,0:0:0:0:
256,192,76105,1,8,0:0:0:0:
256,192,76193,1,0,0:0:0:0:
256,192,76369,1,8,0:0:0:0:
256,192,76457,1,8,0:0:0:0:
256,192,76546,1,0,0:0:0:0:
256,192,76634,1,0,0:0:0:0:
256,192,76722,1,8,0:0:0:0:
256,192,76899,1,8,0:0:0:0:
256,192,76987,1,0,0:0:0:0:
256,192,77075,1,0,0:0:0:0:
256,192,77252,1,12,0:0:0:0:
256,192,77605,1,8,0:0:0:0:
256,192,77781,1,0,0:0:0:0:
256,192,77869,1,0,0:0:0:0:
256,192,77957,1,8,0:0:0:0:
256,192,78134,1,8,0:0:0:0:
256,192,78310,1,0,0:0:0:0:
256,192,78399,1,8,0:0:0:0:
256,192,78487,1,0,0:0:0:0:
256,192,78575,1,0,0:0:0:0:
256,192,78663,1,8,0:0:0:0:
256,192,78752,1,8,0:0:0:0:
256,192,78840,1,0,0:0:0:0:
256,192,78928,1,0,0:0:0:0:
256,192,79016,1,8,0:0:0:0:
256,192,79193,1,0,0:0:0:0:
256,192,79369,1,8,0:0:0:0:
256,192,79428,1,8,0:0:0:0:
256,192,79487,1,8,0:0:0:0:
256,192,79546,1,0,0:0:0:0:
256,192,79634,1,8,0:0:0:0:
256,192,79722,1,0,0:0:0:0:
256,192,79810,1,0,0:0:0:0:
256,192,79899,1,8,0:0:0:0:
256,192,80075,1,12,0:0:0:0:
256,192,80428,1,8,0:0:0:0:
256,192,80605,1,0,0:0:0:0:
256,192,80693,1,0,0:0:0:0:
256,192,80781,1,8,0:0:0:0:
256,192,80957,1,8,0:0:0:0:
256,192,81134,1,0,0:0:0:0:
256,192,81487,1,12,0:0:0:0:
256,192,81840,1,0,0:0:0:0:
256,192,82016,1,8,0:0:0:0:
256,192,82105,1,0,0:0:0:0:
256,192,82193,1,0,0:0:0:0:
256,192,82281,1,8,0:0:0:0:
256,192,82369,1,8,0:0:0:0:
256,192,82546,1,8,0:0:0:0:
256,192,82634,1,0,0:0:0:0:
256,192,82722,1,0,0:0:0:0:
256,192,82899,1,12,0:0:0:0:
256,192,83252,1,8,0:0:0:0:
256,192,83428,1,0,0:0:0:0:
256,192,83516,1,0,0:0:0:0:
256,192,83605,1,8,0:0:0:0:
256,192,83781,1,8,0:0:0:0:
256,192,83869,1,0,0:0:0:0:
256,192,83958,1,0,0:0:0:0:
256,192,84046,1,8,0:0:0:0:
256,192,84222,1,0,0:0:0:0:
256,192,84310,1,8,0:0:0:0:
256,192,84399,1,8,0:0:0:0:
256,192,84487,1,0,0:0:0:0:
256,192,84575,1,0,0:0:0:0:
256,192,84663,1,8,0:0:0:0:
256,192,84840,1,0,0:0:0:0:
256,192,85016,1,8,0:0:0:0:
256,192,85075,1,8,0:0:0:0:
256,192,85134,1,8,0:0:0:0:
256,192,85193,1,0,0:0:0:0:
256,192,85281,1,8,0:0:0:0:
256,192,85369,1,0,0:0:0:0:
256,192,85457,1,0,0:0:0:0:
256,192,85546,1,8,0:0:0:0:
256,192,85722,1,12,0:0:0:0:
256,192,85899,1,0,0:0:0:0:
256,192,86075,1,4,0:0:0:0:
256,192,86605,1,8,0:0:0:0:
256,192,86781,1,0,0:0:0:0:
256,192,86957,1,0,0:0:0:0:
256,192,87134,1,8,0:0:0:0:
256,192,87310,1,8,0:0:0:0:
256,192,87487,1,0,0:0:0:0:
256,192,87663,1,8,0:0:0:0:
256,192,87840,1,8,0:0:0:0:
256,192,87899,1,8,0:0:0:0:
256,192,87957,1,8,0:0:0:0:
256,192,88016,1,0,0:0:0:0:
256,192,88193,1,12,0:0:0:0:
256,192,88546,1,0,0:0:0:0:
256,192,88722,1,8,0:0:0:0:
256,192,88899,1,4,0:0:0:0:
256,192,89428,1,0,0:0:0:0:
256,192,89605,1,8,0:0:0:0:
256,192,89781,1,8,0:0:0:0:
256,192,89957,1,0,0:0:0:0:
256,192,90134,1,8,0:0:0:0:
256,192,90310,1,0,0:0:0:0:
256,192,90487,1,0,0:0:0:0:
256,192,90575,1,0,0:0:0:0:
256,192,90663,1,8,0:0:0:0:
256,192,90840,1,8,0:0:0:0:
256,192,91016,1,0,0:0:0:0:
256,192,91134,1,0,0:0:0:0:
256,192,91252,1,0,0:0:0:0:
256,192,91369,1,8,0:0:0:0:
256,192,91487,1,8,0:0:0:0:
256,192,91605,1,8,0:0:0:0:
256,192,91722,1,0,0:0:0:0:
256,192,91899,1,8,0:0:0:0:
256,192,92075,1,0,0:0:0:0:
256,192,92134,1,0,0:0:0:0:
256,192,92193,1,0,0:0:0:0:
256,192,92252,1,8,0:0:0:0:
256,192,92428,1,0,0:0:0:0:
256,192,92605,1,8,0:0:0:0:
256,192,92693,1,8,0:0:0:0:
256,192,92781,1,0,0:0:0:0:
256,192,92869,1,0,0:0:0:0:
256,192,92957,1,8,0:0:0:0:
256,192,93134,1,0,0:0:0:0:
256,192,93310,1,8,0:0:0:0:
256,192,93487,1,0,0:0:0:0:
256,192,93546,1,0,0:0:0:0:
256,192,93605,1,0,0:0:0:0:
256,192,93663,1,8,0:0:0:0:
256,192,93840,1,0,0:0:0:0:
256,192,94016,1,0,0:0:0:0:
256,192,94105,1,8,0:0:0:0:
256,192,94193,1,0,0:0:0:0:
256,192,94369,1,8,0:0:0:0:
256,192,94546,1,0,0:0:0:0:
256,192,94722,1,8,0:0:0:0:
256,192,94899,1,0,0:0:0:0:
256,192,95075,1,8,0:0:0:0:
256,192,95252,1,0,0:0:0:0:
256,192,95340,1,0,0:0:0:0:
256,192,95428,1,8,0:0:0:0:
256,192,95516,1,0,0:0:0:0:
256,192,95605,1,8,0:0:0:0:
256,192,95693,1,8,0:0:0:0:
256,192,95781,1,0,0:0:0:0:
256,192,95869,1,0,0:0:0:0:
256,192,96134,1,8,0:0:0:0:
256,192,96222,1,8,0:0:0:0:
256,192,96310,1,0,0:0:0:0:
256,192,96369,1,0,0:0:0:0:
256,192,96428,1,0,0:0:0:0:
256,192,96487,1,8,0:0:0:0:
256,192,96663,1,0,0:0:0:0:
256,192,96840,1,0,0:0:0:0:
256,192,97016,1,12,0:0:0:0:
256,192,97369,1,0,0:0:0:0:
256,192,97546,1,0,0:0:0:0:
256,192,97634,1,0,0:0:0:0:
256,192,97722,1,8,0:0:0:0:
256,192,97899,1,0,0:0:0:0:
256,192,98075,1,8,0:0:0:0:
256,192,98163,1,0,0:0:0:0:
256,192,98340,1,0,0:0:0:0:
256,192,98428,1,8,0:0:0:0:
256,192,98516,1,8,0:0:0:0:
256,192,98605,1,0,0:0:0:0:
256,192,98781,1,8,0:0:0:0:
256,192,98957,1,0,0:0:0:0:
256,192,99046,1,0,0:0:0:0:
256,192,99134,1,8,0:0:0:0:
256,192,99310,1,8,0:0:0:0:
256,192,99399,1,0,0:0:0:0:
256,192,99487,1,0,0:0:0:0:
256,192,99575,1,8,0:0:0:0:
256,192,99752,1,0,0:0:0:0:
256,192,99840,1,8,0:0:0:0:
256,192,99928,1,8,0:0:0:0:
256,192,100016,1,0,0:0:0:0:
256,192,100193,1,0,0:0:0:0:
256,192,100369,1,0,0:0:0:0:
256,192,100457,1,0,0:0:0:0:
256,192,100546,1,8,0:0:0:0:
256,192,100722,1,0,0:0:0:0:
256,192,100899,1,8,0:0:0:0:
256,192,100987,1,0,0:0:0:0:
256,192,101163,1,0,0:0:0:0:
256,192,101252,1,8,0:0:0:0:
256,192,101340,1,8,0:0:0:0:
256,192,101428,1,0,0:0:0:0:
256,192,101605,1,8,0:0:0:0:
256,192,101781,1,0,0:0:0:0:
256,192,101869,1,0,0:0:0:0:
256,192,101957,1,8,0:0:0:0:
256,192,102134,1,0,0:0:0:0:
256,192,102310,1,8,0:0:0:0:
256,192,102399,1,0,0:0:0:0:
256,192,102575,1,0,0:0:0:0:
256,192,102663,1,8,0:0:0:0:
256,192,102840,1,8,0:0:0:0:
256,192,103016,1,0,0:0:0:0:
256,192,103193,1,0,0:0:0:0:
256,192,103281,1,0,0:0:0:0:
256,192,103369,1,8,0:0:0:0:
256,192,103546,1,8,0:0:0:0:
256,192,103722,1,0,0:0:0:0:
256,192,103810,1,0,0:0:0:0:
256,192,103899,1,8,0:0:0:0:
256,192,103987,1,0,0:0:0:0:
256,192,104075,1,0,0:0:0:0:
256,192,104163,1,0,0:0:0:0:
256,192,104252,1,8,0:0:0:0:
256,192,104428,1,0,0:0:0:0:
256,192,104605,1,0,0:0:0:0:
256,192,104693,1,0,0:0:0:0:
256,192,104781,1,8,0:0:0:0:
256,192,104957,1,8,0:0:0:0:
256,192,105046,1,8,0:0:0:0:
256,192,105134,1,0,0:0:0:0:
256,192,105222,1,8,0:0:0:0:
256,192,105310,1,0,0:0:0:0:
256,192,105399,1,0,0:0:0:0:
256,192,105487,1,8,0:0:0:0:
256,192,105575,1,0,0:0:0:0:
256,192,105663,1,8,0:0:0:0:
256,192,105840,1,0,0:0:0:0:
256,192,105928,1,8,0:0:0:0:
256,192,106016,1,0,0:0:0:0:
256,192,106105,1,0,0:0:0:0:
256,192,106193,1,8,0:0:0:0:
256,192,106281,1,0,0:0:0:0:
256,192,106369,1,0,0:0:0:0:
256,192,106457,1,8,0:0:0:0:
256,192,106546,1,0,0:0:0:0:
256,192,106634,1,0,0:0:0:0:
256,192,106722,1,8,0:0:0:0:
256,192,106781,1,8,0:0:0:0:
256,192,106840,1,8,0:0:0:0:
256,192,106899,1,0,0:0:0:0:
256,192,106987,1,8,0:0:0:0:
256,192,107075,1,0,0:0:0:0:
256,192,107134,1,0,0:0:0:0:
256,192,107193,1,0,0:0:0:0:
256,192,107252,1,8,0:0:0:0:
256,192,107428,1,8,0:0:0:0:
256,192,107516,1,0,0:0:0:0:
256,192,107605,1,0,0:0:0:0:
256,192,107781,1,8,0:0:0:0:
256,192,107869,1,8,0:0:0:0:
256,192,107957,1,0,0:0:0:0:
256,192,108016,1,0,0:0:0:0:
256,192,108075,1,0,0:0:0:0:
256,192,108134,1,0,0:0:0:0:
256,192,108310,1,12,0:0:0:0:
256,192,108663,1,4,0:0:0:0:
