osu file format v14

[General]
AudioFilename: audio.mp3
AudioLeadIn: 0
PreviewTime: 169769
Countdown: 0
SampleSet: Normal
StackLeniency: 0.7
Mode: 1
LetterboxInBreaks: 0
WidescreenStoryboard: 0

[Editor]
DistanceSpacing: 1
BeatDivisor: 4
GridSize: 32
TimelineZoom: 3.099999

[Metadata]
Title:Spear of Justice (MRM REMIX)
TitleUnicode:Spear of Justice (MRM REMIX)
Artist:Morimori Atsushi
ArtistUnicode:モリモリあつし
Creator:Kunieda
Version:VEIL
Source:UNDERTALE
Tags:underveil cover
BeatmapID:1479762
BeatmapSetID:698717

[Difficulty]
HPDrainRate:6
CircleSize:2
OverallDifficulty:7
ApproachRate:7
SliderMultiplier:1.4
SliderTickRate:1

[Events]
//Background and Video events
0,0,"undertale___royal_spear_undyne_by_hellknight10-d9ipuam.jpg",0,0
//Break Periods
//Storyboard Layer 0 (Background)
//Storyboard Layer 1 (Fail)
//Storyboard Layer 2 (Pass)
//Storyboard Layer 3 (Foreground)
//Storyboard Sound Samples

[TimingPoints]
2006,250,3,1,0,100,1,0
14007,-100,3,1,0,100,0,1
29758,-100,3,1,0,100,0,0
46506,-25,3,1,0,100,0,0
47756,-100,3,1,0,100,0,0
75506,-133.333333333333,3,1,0,60,0,0
81012,-100,3,1,0,60,0,0
81881,-95.2380952380952,3,1,0,60,0,0
82131,-90.9090909090909,3,1,0,60,0,0
82256,-86.9565217391304,3,1,0,60,0,0
82506,-83.3333333333333,3,1,0,60,0,0
82756,-80,3,1,0,60,0,0
83006,-76.9230769230769,3,1,0,60,0,0
83068,-74.0740740740741,3,1,0,60,0,0
86006,-153.846153846153,3,2,0,45,0,0
87006,-100,3,1,0,100,0,0
87506,-100,3,1,0,100,0,1
99506,-100,3,1,0,100,0,0
144006,-25,3,1,0,100,0,0
146006,-133.333333333333,3,1,0,100,0,0
158019,-100,3,1,0,100,0,0
164019,-90.9090909090909,3,1,0,100,0,0
164269,-83.3333333333333,3,1,0,100,0,0
164519,-76.9230769230769,3,1,0,100,0,0
164769,-71.4285714285714,3,1,0,100,0,0
164894,-66.6666666666667,3,1,0,100,0,0
165019,-62.5,3,1,0,100,0,0
165144,-58.8235294117647,3,1,0,100,0,0
165269,-55.5555555555556,3,1,0,100,0,0
165394,-52.6315789473684,3,1,0,100,0,0
165519,-50,3,1,0,100,0,0
165644,-47.6190476190476,3,1,0,100,0,0
165769,-45.4545454545455,3,1,0,100,0,0
165894,-43.4782608695652,3,1,0,100,0,0
166019,-41.6666666666667,3,1,0,100,0,0
166082,-40,3,1,0,100,0,0
166144,-38.4615384615385,3,1,0,100,0,0
166207,-37.037037037037,3,1,0,100,0,0
166269,-35.7142857142857,3,1,0,100,0,0
166332,-34.4827586206897,3,1,0,100,0,0
166394,-33.3333333333333,3,1,0,100,0,0
166457,-32.258064516129,3,1,0,100,0,0
166519,-31.25,3,1,0,100,0,0
166582,-30.3030303030303,3,1,0,100,0,0
166644,-29.4117647058824,3,1,0,100,0,0
166707,-28.5714285714286,3,1,0,100,0,0
166769,-27.7777777777778,3,1,0,100,0,0
166832,-27.027027027027,3,1,0,100,0,0
166894,-26.3157894736842,3,1,0,100,0,0
166957,-25.6410256410256,3,1,0,100,0,0
167019,-25,3,1,0,100,0,0
168519,-133.333333333333,3,1,0,60,0,0
169519,-100,3,1,0,100,0,0
170020,-100,3,1,0,100,0,1
182021,-86.9565217391304,3,1,0,100,0,1
194022,-100,3,1,0,100,0,0
206023,-100,3,1,0,100,0,1
218024,-100,3,1,0,100,0,0
222524,-40,3,1,0,100,0,0

[HitObjects]
256,192,2006,5,12,0:0:0:0:
256,192,2381,1,0,0:0:0:0:
256,192,2631,1,8,0:0:0:0:
256,192,2756,1,0,0:0:0:0:
256,192,3006,1,0,0:0:0:0:
256,192,3256,1,0,0:0:0:0:
256,192,3505,1,12,0:0:0:0:
256,192,3880,1,0,0:0:0:0:
256,192,4130,1,8,0:0:0:0:
256,192,4255,1,0,0:0:0:0:
256,192,4505,1,0,0:0:0:0:
256,192,4755,1,0,0:0:0:0:
256,192,5005,1,12,0:0:0:0:
256,192,5381,1,0,0:0:0:0:
256,192,5631,1,8,0:0:0:0:
256,192,5756,1,0,0:0:0:0:
256,192,6006,1,0,0:0:0:0:
256,192,6256,1,0,0:0:0:0:
256,192,6506,1,12,0:0:0:0:
256,192,6631,1,0,0:0:0:0:
256,192,6756,1,0,0:0:0:0:
256,192,7006,1,0,0:0:0:0:
256,192,7256,1,12,0:0:0:0:
256,192,7381,1,0,0:0:0:0:
256,192,7506,1,8,0:0:0:0:
256,192,7756,1,8,0:0:0:0:
256,192,8006,1,12,0:0:0:0:
256,192,8381,1,0,0:0:0:0:
256,192,8631,1,8,0:0:0:0:
256,192,8756,1,0,0:0:0:0:
256,192,9006,1,0,0:0:0:0:
256,192,9256,1,0,0:0:0:0:
256,192,9506,1,12,0:0:0:0:
256,192,9881,1,0,0:0:0:0:
256,192,10131,1,8,0:0:0:0:
256,192,10256,1,0,0:0:0:0:
256,192,10506,1,0,0:0:0:0:
256,192,10756,1,0,0:0:0:0:
256,192,11006,1,12,0:0:0:0:
256,192,11381,1,0,0:0:0:0:
256,192,11631,1,8,0:0:0:0:
256,192,11756,1,0,0:0:0:0:
256,192,12006,1,0,0:0:0:0:
256,192,12256,1,0,0:0:0:0:
256,192,12506,1,12,0:0:0:0:
256,192,12631,1,0,0:0:0:0:
256,192,12756,1,0,0:0:0:0:
256,192,13006,1,0,0:0:0:0:
256,192,13256,1,12,0:0:0:0:
256,192,13381,1,0,0:0:0:0:
256,192,13506,1,8,0:0:0:0:
256,192,13756,1,8,0:0:0:0:
256,192,14006,1,12,0:0:0:0:
256,192,14256,1,8,0:0:0:0:
256,192,14381,1,0,0:0:0:0:
256,192,14443,1,0,0:0:0:0:
256,192,14506,1,8,0:0:0:0:
256,192,14631,1,0,0:0:0:0:
256,192,14756,1,8,0:0:0:0:
256,192,14881,1,0,0:0:0:0:
256,192,15006,1,8,0:0:0:0:
256,192,15068,1,8,0:0:0:0:
256,192,15131,1,0,0:0:0:0:
256,192,15193,1,0,0:0:0:0:
256,192,15256,1,8,0:0:0:0:
256,192,15381,1,0,0:0:0:0:
256,192,15506,1,8,0:0:0:0:
256,192,15756,1,0,0:0:0:0:
256,192,15881,1,0,0:0:0:0:
256,192,15943,1,0,0:0:0:0:
256,192,16006,1,8,0:0:0:0:
256,192,16131,1,0,0:0:0:0:
256,192,16256,1,8,0:0:0:0:
256,192,16318,1,0,0:0:0:0:
256,192,16381,1,0,0:0:0:0:
256,192,16443,1,0,0:0:0:0:
256,192,16506,1,8,0:0:0:0:
256,192,16631,1,8,0:0:0:0:
256,192,16693,1,8,0:0:0:0:
256,192,16756,1,0,0:0:0:0:
256,192,16881,1,0,0:0:0:0:
256,192,17006,1,8,0:0:0:0:
256,192,17256,1,0,0:0:0:0:
256,192,17381,1,0,0:0:0:0:
256,192,17443,1,0,0:0:0:0:
256,192,17506,1,8,0:0:0:0:
256,192,17631,1,8,0:0:0:0:
256,192,17756,1,0,0:0:0:0:
256,192,17818,1,8,0:0:0:0:
256,192,17881,1,0,0:0:0:0:
256,192,17943,1,0,0:0:0:0:
256,192,18006,1,8,0:0:0:0:
256,192,18131,1,0,0:0:0:0:
256,192,18256,1,8,0:0:0:0:
256,192,18381,1,0,0:0:0:0:
256,192,18443,1,0,0:0:0:0:
256,192,18506,1,8,0:0:0:0:
256,192,18631,1,8,0:0:0:0:
256,192,18756,1,0,0:0:0:0:
256,192,19006,1,8,0:0:0:0:
256,192,19256,1,8,0:0:0:0:
256,192,19381,1,0,0:0:0:0:
256,192,19443,1,0,0:0:0:0:
256,192,19506,1,8,0:0:0:0:
256,192,19568,1,8,0:0:0:0:
256,192,19631,1,0,0:0:0:0:
256,192,19756,1,8,0:0:0:0:
256,192,20006,1,4,0:0:0:0:
256,192,20131,1,0,0:0:0:0:
256,192,20193,1,0,0:0:0:0:
256,192,20256,1,8,0:0:0:0:
256,192,20381,1,0,0:0:0:0:
256,192,20506,1,8,0:0:0:0:
256,192,20568,1,0,0:0:0:0:
256,192,20631,1,0,0:0:0:0:
256,192,20693,1,8,0:0:0:0:
256,192,20756,1,0,0:0:0:0:
256,192,20881,1,0,0:0:0:0:
256,192,21006,1,8,0:0:0:0:
256,192,21131,1,0,0:0:0:0:
256,192,21193,1,0,0:0:0:0:
256,192,21256,1,8,0:0:0:0:
256,192,21381,1,0,0:0:0:0:
256,192,21506,1,8,0:0:0:0:
256,192,21568,1,8,0:0:0:0:
256,192,21631,1,0,0:0:0:0:
256,192,21756,1,0,0:0:0:0:
256,192,21881,1,0,0:0:0:0:
256,192,21943,1,0,0:0:0:0:
256,192,22006,1,8,0:0:0:0:
256,192,22131,1,8,0:0:0:0:
256,192,22256,1,0,0:0:0:0:
256,192,22318,1,0,0:0:0:0:
256,192,22381,1,0,0:0:0:0:
256,192,22506,1,8,0:0:0:0:
256,192,22631,1,0,0:0:0:0:
256,192,22756,1,0,0:0:0:0:
256,192,22818,1,0,0:0:0:0:
256,192,22881,1,0,0:0:0:0:
256,192,22943,1,0,0:0:0:0:
256,192,23006,1,8,0:0:0:0:
256,192,23256,1,0,0:0:0:0:
256,192,23381,1,8,0:0:0:0:
256,192,23506,1,0,0:0:0:0:
256,192,23568,1,0,0:0:0:0:
256,192,23631,1,8,0:0:0:0:
256,192,23756,1,8,0:0:0:0:
256,192,23818,1,8,0:0:0:0:
256,192,23881,1,0,0:0:0:0:
256,192,23943,1,0,0:0:0:0:
256,192,24006,1,8,0:0:0:0:
256,192,24068,1,8,0:0:0:0:
256,192,24131,1,0,0:0:0:0:
256,192,24256,1,0,0:0:0:0:
256,192,24318,1,0,0:0:0:0:
256,192,24381,1,8,0:0:0:0:
256,192,24506,1,8,0:0:0:0:
256,192,24631,1,0,0:0:0:0:
256,192,24693,1,0,0:0:0:0:
256,192,24756,1,0,0:0:0:0:
256,192,24881,1,0,0:0:0:0:
256,192,25006,1,8,0:0:0:0:
256,192,25068,1,8,0:0:0:0:
256,192,25131,1,0,0:0:0:0:
256,192,25256,1,0,0:0:0:0:
256,192,25381,1,0,0:0:0:0:
256,192,25506,1,8,0:0:0:0:
256,192,25631,1,0,0:0:0:0:
256,192,25756,1,0,0:0:0:0:
256,192,25818,1,0,0:0:0:0:
256,192,25881,1,0,0:0:0:0:
256,192,25943,1,0,0:0:0:0:
256,192,26006,1,8,0:0:0:0:
256,192,26131,1,0,0:0:0:0:
256,192,26193,1,0,0:0:0:0:
256,192,26256,1,8,0:0:0:0:
256,192,26381,1,0,0:0:0:0:
256,192,26506,1,8,0:0:0:0:
256,192,26631,1,0,0:0:0:0:
256,192,26693,1,0,0:0:0:0:
256,192,26756,1,8,0:0:0:0:
256,192,26818,1,8,0:0:0:0:
256,192,26881,1,0,0:0:0:0:
256,192,26943,1,0,0:0:0:0:
256,192,27006,1,8,0:0:0:0:
256,192,27068,1,0,0:0:0:0:
256,192,27131,1,0,0:0:0:0:
256,192,27193,1,0,0:0:0:0:
256,192,27256,1,8,0:0:0:0:
256,192,27506,1,4,0:0:0:0:
256,192,27631,1,4,0:0:0:0:
256,192,27756,1,4,0:0:0:0:
256,192,27881,1,4,0:0:0:0:
256,192,28006,1,8,0:0:0:0:
256,192,28131,1,0,0:0:0:0:
256,192,28172,1,0,0:0:0:0:
256,192,28214,1,0,0:0:0:0:
256,192,28256,1,8,0:0:0:0:
256,192,28318,1,8,0:0:0:0:
256,192,28381,1,0,0:0:0:0:
256,192,28506,1,0,0:0:0:0:
256,192,28568,1,0,0:0:0:0:
256,192,28631,1,8,0:0:0:0:
256,192,28693,1,0,0:0:0:0:
256,192,28756,1,8,0:0:0:0:
256,192,28797,1,8,0:0:0:0:
256,192,28839,1,8,0:0:0:0:
256,192,28881,1,8,0:0:0:0:
256,192,29006,1,12,0:0:0:0:
256,192,29256,1,12,0:0:0:0:
256,192,29506,1,12,0:0:0:0:
256,192,29756,1,12,0:0:0:0:
256,192,30256,1,0,0:0:0:0:
256,192,30339,1,0,0:0:0:0:
256,192,30422,1,0,0:0:0:0:
256,192,30506,1,8,0:0:0:0:
256,192,30631,1,0,0:0:0:0:
256,192,30694,1,0,0:0:0:0:
256,192,30756,1,0,0:0:0:0:
256,192,30881,1,8,0:0:0:0:
256,192,31006,1,0,0:0:0:0:
256,192,31069,1,0,0:0:0:0:
256,192,31131,1,8,0:0:0:0:
256,192,31194,1,0,0:0:0:0:
256,192,31256,1,8,0:0:0:0:
256,192,31507,1,8,0:0:0:0:
256,192,31631,1,0,0:0:0:0:
256,192,31693,1,0,0:0:0:0:
256,192,31756,1,8,0:0:0:0:
256,192,31881,1,0,0:0:0:0:
256,192,32006,1,8,0:0:0:0:
256,192,32068,1,8,0:0:0:0:
256,192,32131,1,0,0:0:0:0:
256,192,32256,1,0,0:0:0:0:
256,192,32381,1,8,0:0:0:0:
256,192,32506,1,0,0:0:0:0:
256,192,32631,1,8,0:0:0:0:
256,192,32693,1,0,0:0:0:0:
256,192,32756,1,8,0:0:0:0:
256,192,33006,1,8,0:0:0:0:
256,192,33089,1,0,0:0:0:0:
256,192,33172,1,0,0:0:0:0:
256,192,33256,1,8,0:0:0:0:
256,192,33381,1,0,0:0:0:0:
256,192,33443,1,0,0:0:0:0:
256,192,33507,1,8,0:0:0:0:
256,192,33568,1,8,0:0:0:0:
256,192,33631,1,0,0:0:0:0:
256,192,33756,1,0,0:0:0:0:
256,192,33881,1,8,0:0:0:0:
256,192,34131,1,0,0:0:0:0:
256,192,34256,1,8,0:0:0:0:
256,192,34339,1,0,0:0:0:0:
256,192,34422,1,0,0:0:0:0:
256,192,34506,1,8,0:0:0:0:
256,192,34589,1,0,0:0:0:0:
256,192,34672,1,0,0:0:0:0:
256,192,34756,1,8,0:0:0:0:
256,192,34881,1,8,0:0:0:0:
256,192,35006,1,0,0:0:0:0:
256,192,35131,1,0,0:0:0:0:
256,192,35193,1,0,0:0:0:0:
256,192,35256,1,8,0:0:0:0:
256,192,35381,1,0,0:0:0:0:
256,192,35631,1,0,0:0:0:0:
256,192,35756,1,8,0:0:0:0:
256,192,36006,1,12,0:0:0:0:
256,192,36256,1,8,0:0:0:0:
256,192,36339,1,8,0:0:0:0:
256,192,36422,1,0,0:0:0:0:
256,192,36506,1,8,0:0:0:0:
256,192,36631,1,0,0:0:0:0:
256,192,36693,1,0,0:0:0:0:
256,192,36756,1,0,0:0:0:0:
256,192,36881,1,8,0:0:0:0:
256,192,37006,1,0,0:0:0:0:
256,192,37068,1,0,0:0:0:0:
256,192,37131,1,8,0:0:0:0:
256,192,37193,1,0,0:0:0:0:
256,192,37256,1,8,0:0:0:0:
256,192,37506,1,8,0:0:0:0:
256,192,37631,1,0,0:0:0:0:
256,192,37693,1,0,0:0:0:0:
256,192,37756,1,8,0:0:0:0:
256,192,37881,1,0,0:0:0:0:
256,192,38006,1,8,0:0:0:0:
256,192,38068,1,8,0:0:0:0:
256,192,38131,1,0,0:0:0:0:
256,192,38256,1,0,0:0:0:0:
256,192,38381,1,8,0:0:0:0:
256,192,38506,1,0,0:0:0:0:
256,192,38631,1,8,0:0:0:0:
256,192,38693,1,0,0:0:0:0:
256,192,38756,1,8,0:0:0:0:
256,192,39006,1,8,0:0:0:0:
256,192,39089,1,0,0:0:0:0:
256,192,39172,1,0,0:0:0:0:
256,192,39256,1,8,0:0:0:0:
256,192,39381,1,0,0:0:0:0:
256,192,39443,1,0,0:0:0:0:
256,192,39506,1,8,0:0:0:0:
256,192,39568,1,8,0:0:0:0:
256,192,39631,1,0,0:0:0:0:
256,192,39756,1,0,0:0:0:0:
256,192,39881,1,8,0:0:0:0:
256,192,40131,1,0,0:0:0:0:
256,192,40256,1,8,0:0:0:0:
256,192,40339,1,0,0:0:0:0:
256,192,40422,1,0,0:0:0:0:
256,192,40506,1,8,0:0:0:0:
256,192,40589,1,0,0:0:0:0:
256,192,40672,1,0,0:0:0:0:
256,192,40756,1,8,0:0:0:0:
256,192,40881,1,8,0:0:0:0:
256,192,41006,1,0,0:0:0:0:
256,192,41131,1,0,0:0:0:0:
256,192,41193,1,0,0:0:0:0:
256,192,41256,1,8,0:0:0:0:
256,192,41381,1,0,0:0:0:0:
256,192,41631,1,0,0:0:0:0:
256,192,41756,1,8,0:0:0:0:
256,192,42006,1,12,0:0:0:0:
256,192,42256,1,8,0:0:0:0:
256,192,42318,1,0,0:0:0:0:
256,192,42381,1,0,0:0:0:0:
256,192,42506,1,12,0:0:0:0:
256,192,42756,1,12,0:0:0:0:
256,192,42881,1,12,0:0:0:0:
256,192,43006,1,12,0:0:0:0:
256,192,43130,1,12,0:0:0:0:
256,192,43255,1,4,0:0:0:0:
256,192,43506,1,0,0:0:0:0:
256,192,43568,1,0,0:0:0:0:
256,192,43631,1,0,0:0:0:0:
256,192,43693,1,8,0:0:0:0:
256,192,43756,1,0,0:0:0:0:
256,192,43881,1,0,0:0:0:0:
256,192,44006,1,12,0:0:0:0:
256,192,44131,1,0,0:0:0:0:
256,192,44193,1,0,0:0:0:0:
256,192,44256,1,0,0:0:0:0:
256,192,44381,1,12,0:0:0:0:
256,192,44506,1,0,0:0:0:0:
256,192,44568,1,0,0:0:0:0:
256,192,44631,1,0,0:0:0:0:
256,192,44756,1,12,0:0:0:0:
256,192,45256,1,0,0:0:0:0:
256,192,45318,1,0,0:0:0:0:
256,192,45381,1,0,0:0:0:0:
256,192,45443,1,0,0:0:0:0:
256,192,45506,1,12,0:0:0:0:
256,192,45756,1,12,0:0:0:0:
256,192,45881,1,12,0:0:0:0:
256,192,46006,1,12,0:0:0:0:
256,192,46131,1,12,0:0:0:0:
256,192,46255,1,4,0:0:0:0:
256,192,46506,2,4,L|128:288,18,140
256,192,48256,1,0,0:0:0:0:
256,192,48339,1,0,0:0:0:0:
256,192,48422,1,0,0:0:0:0:
256,192,48506,1,8,0:0:0:0:
256,192,48631,1,0,0:0:0:0:
256,192,48694,1,0,0:0:0:0:
256,192,48756,1,0,0:0:0:0:
256,192,48881,1,8,0:0:0:0:
256,192,49006,1,0,0:0:0:0:
256,192,49069,1,0,0:0:0:0:
256,192,49131,1,8,0:0:0:0:
256,192,49194,1,0,0:0:0:0:
256,192,49256,1,8,0:0:0:0:
256,192,49507,1,8,0:0:0:0:
256,192,49631,1,0,0:0:0:0:
256,192,49693,1,0,0:0:0:0:
256,192,49756,1,8,0:0:0:0:
256,192,49881,1,0,0:0:0:0:
256,192,50006,1,8,0:0:0:0:
256,192,50068,1,8,0:0:0:0:
256,192,50131,1,0,0:0:0:0:
256,192,50256,1,0,0:0:0:0:
256,192,50381,1,8,0:0:0:0:
256,192,50506,1,0,0:0:0:0:
256,192,50631,1,8,0:0:0:0:
256,192,50693,1,0,0:0:0:0:
256,192,50756,1,8,0:0:0:0:
256,192,51006,1,8,0:0:0:0:
256,192,51089,1,0,0:0:0:0:
256,192,51172,1,0,0:0:0:0:
256,192,51256,1,8,0:0:0:0:
256,192,51381,1,0,0:0:0:0:
256,192,51443,1,0,0:0:0:0:
256,192,51507,1,8,0:0:0:0:
256,192,51568,1,8,0:0:0:0:
256,192,51631,1,0,0:0:0:0:
256,192,51756,1,0,0:0:0:0:
256,192,51881,1,8,0:0:0:0:
256,192,52131,1,0,0:0:0:0:
256,192,52256,1,8,0:0:0:0:
256,192,52339,1,0,0:0:0:0:
256,192,52422,1,0,0:0:0:0:
256,192,52506,1,8,0:0:0:0:
256,192,52589,1,0,0:0:0:0:
256,192,52672,1,0,0:0:0:0:
256,192,52756,1,8,0:0:0:0:
256,192,52881,1,8,0:0:0:0:
256,192,53006,1,0,0:0:0:0:
256,192,53131,1,0,0:0:0:0:
256,192,53193,1,0,0:0:0:0:
256,192,53256,1,8,0:0:0:0:
256,192,53381,1,0,0:0:0:0:
256,192,53631,1,0,0:0:0:0:
256,192,53756,1,8,0:0:0:0:
256,192,54006,1,12,0:0:0:0:
256,192,54256,1,8,0:0:0:0:
256,192,54339,1,8,0:0:0:0:
256,192,54422,1,0,0:0:0:0:
256,192,54506,1,8,0:0:0:0:
256,192,54631,1,0,0:0:0:0:
256,192,54693,1,0,0:0:0:0:
256,192,54756,1,0,0:0:0:0:
256,192,54881,1,8,0:0:0:0:
256,192,55006,1,0,0:0:0:0:
256,192,55068,1,0,0:0:0:0:
256,192,55131,1,8,0:0:0:0:
256,192,55193,1,0,0:0:0:0:
256,192,55256,1,8,0:0:0:0:
256,192,55506,1,8,0:0:0:0:
256,192,55631,1,0,0:0:0:0:
256,192,55693,1,0,0:0:0:0:
256,192,55756,1,8,0:0:0:0:
256,192,55881,1,0,0:0:0:0:
256,192,56006,1,8,0:0:0:0:
256,192,56068,1,8,0:0:0:0:
256,192,56131,1,0,0:0:0:0:
256,192,56256,1,0,0:0:0:0:
256,192,56381,1,8,0:0:0:0:
256,192,56506,1,0,0:0:0:0:
256,192,56631,1,8,0:0:0:0:
256,192,56693,1,0,0:0:0:0:
256,192,56756,1,8,0:0:0:0:
256,192,57006,1,8,0:0:0:0:
256,192,57089,1,0,0:0:0:0:
256,192,57172,1,0,0:0:0:0:
256,192,57256,1,8,0:0:0:0:
256,192,57381,1,0,0:0:0:0:
256,192,57443,1,0,0:0:0:0:
256,192,57506,1,8,0:0:0:0:
256,192,57568,1,8,0:0:0:0:
256,192,57631,1,0,0:0:0:0:
256,192,57756,1,0,0:0:0:0:
256,192,57881,1,8,0:0:0:0:
256,192,58131,1,0,0:0:0:0:
256,192,58256,1,8,0:0:0:0:
256,192,58339,1,0,0:0:0:0:
256,192,58422,1,0,0:0:0:0:
256,192,58506,1,8,0:0:0:0:
256,192,58589,1,0,0:0:0:0:
256,192,58672,1,0,0:0:0:0:
256,192,58756,1,8,0:0:0:0:
256,192,58881,1,8,0:0:0:0:
256,192,59006,1,0,0:0:0:0:
256,192,59131,1,0,0:0:0:0:
256,192,59193,1,0,0:0:0:0:
256,192,59256,1,8,0:0:0:0:
256,192,59381,1,0,0:0:0:0:
256,192,59631,1,0,0:0:0:0:
256,192,59756,1,8,0:0:0:0:
256,192,60006,1,12,0:0:0:0:
256,192,60256,1,8,0:0:0:0:
256,192,60318,1,0,0:0:0:0:
256,192,60381,1,0,0:0:0:0:
256,192,60506,1,12,0:0:0:0:
256,192,60756,1,12,0:0:0:0:
256,192,60881,1,12,0:0:0:0:
256,192,61006,1,12,0:0:0:0:
256,192,61130,1,12,0:0:0:0:
256,192,61255,1,4,0:0:0:0:
256,192,61506,1,0,0:0:0:0:
256,192,61568,1,0,0:0:0:0:
256,192,61631,1,0,0:0:0:0:
256,192,61693,1,8,0:0:0:0:
256,192,61756,1,0,0:0:0:0:
256,192,61881,1,0,0:0:0:0:
256,192,62006,1,12,0:0:0:0:
256,192,62131,1,0,0:0:0:0:
256,192,62193,1,0,0:0:0:0:
256,192,62256,1,0,0:0:0:0:
256,192,62381,1,12,0:0:0:0:
256,192,62506,1,0,0:0:0:0:
256,192,62568,1,0,0:0:0:0:
256,192,62631,1,0,0:0:0:0:
256,192,62756,1,12,0:0:0:0:
256,192,63256,1,0,0:0:0:0:
256,192,63318,1,0,0:0:0:0:
256,192,63381,1,0,0:0:0:0:
256,192,63443,1,0,0:0:0:0:
256,192,63506,1,12,0:0:0:0:
256,192,63756,1,12,0:0:0:0:
256,192,63881,1,12,0:0:0:0:
256,192,64006,1,12,0:0:0:0:
256,192,64131,1,12,0:0:0:0:
256,192,64255,1,4,0:0:0:0:
256,192,64506,1,0,0:0:0:0:
256,192,64568,1,0,0:0:0:0:
256,192,64631,1,0,0:0:0:0:
256,192,64693,1,8,0:0:0:0:
256,192,64756,1,0,0:0:0:0:
256,192,64881,1,0,0:0:0:0:
256,192,65006,1,12,0:0:0:0:
256,192,65131,1,0,0:0:0:0:
256,192,65193,1,0,0:0:0:0:
256,192,65256,1,0,0:0:0:0:
256,192,65381,1,12,0:0:0:0:
256,192,65506,1,0,0:0:0:0:
256,192,65568,1,0,0:0:0:0:
256,192,65631,1,0,0:0:0:0:
256,192,65756,1,12,0:0:0:0:
256,192,65881,1,0,0:0:0:0:
256,192,65943,1,0,0:0:0:0:
256,192,66006,1,0,0:0:0:0:
256,192,66131,1,12,0:0:0:0:
256,192,66256,1,0,0:0:0:0:
256,192,66318,1,0,0:0:0:0:
256,192,66381,1,0,0:0:0:0:
256,192,66443,1,0,0:0:0:0:
256,192,66506,1,12,0:0:0:0:
256,192,66756,1,12,0:0:0:0:
256,192,66881,1,12,0:0:0:0:
256,192,67006,1,12,0:0:0:0:
256,192,67131,1,12,0:0:0:0:
256,192,67255,1,4,0:0:0:0:
256,192,67506,1,0,0:0:0:0:
256,192,67568,1,0,0:0:0:0:
256,192,67631,1,0,0:0:0:0:
256,192,67693,1,8,0:0:0:0:
256,192,67756,1,0,0:0:0:0:
256,192,67881,1,0,0:0:0:0:
256,192,68006,1,12,0:0:0:0:
256,192,68131,1,0,0:0:0:0:
256,192,68193,1,0,0:0:0:0:
256,192,68256,1,0,0:0:0:0:
256,192,68381,1,12,0:0:0:0:
256,192,68506,1,0,0:0:0:0:
256,192,68568,1,0,0:0:0:0:
256,192,68631,1,0,0:0:0:0:
256,192,68756,1,12,0:0:0:0:
256,192,69256,1,0,0:0:0:0:
256,192,69318,1,0,0:0:0:0:
256,192,69381,1,0,0:0:0:0:
256,192,69443,1,0,0:0:0:0:
256,192,69506,1,12,0:0:0:0:
256,192,69756,1,12,0:0:0:0:
256,192,69881,1,12,0:0:0:0:
256,192,70006,1,12,0:0:0:0:
256,192,70131,1,12,0:0:0:0:
256,192,70255,1,4,0:0:0:0:
256,192,70506,1,0,0:0:0:0:
256,192,70568,1,0,0:0:0:0:
256,192,70631,1,0,0:0:0:0:
256,192,70693,1,8,0:0:0:0:
256,192,70756,1,0,0:0:0:0:
256,192,70881,1,0,0:0:0:0:
256,192,71006,1,12,0:0:0:0:
256,192,71131,1,0,0:0:0:0:
256,192,71193,1,0,0:0:0:0:
256,192,71256,1,0,0:0:0:0:
256,192,71381,1,12,0:0:0:0:
256,192,71506,1,0,0:0:0:0:
256,192,71568,1,0,0:0:0:0:
256,192,71631,1,0,0:0:0:0:
256,192,71756,1,12,0:0:0:0:
256,192,72131,1,12,0:0:0:0:
256,192,72506,1,12,0:0:0:0:
256,192,72756,1,0,0:0:0:0:
256,192,73006,1,0,0:0:0:0:
256,192,73256,1,4,0:0:0:0:
256,192,73506,1,0,0:0:0:0:
256,192,73756,1,0,0:0:0:0:
256,192,74006,12,0,75256,0:0:0:0:
256,192,75506,5,4,0:0:0:0:
256,192,75881,1,8,0:0:0:0:
256,192,76131,1,0,0:0:0:0:
256,192,76256,1,8,0:0:0:0:
256,192,76506,1,8,0:0:0:0:
256,192,76631,1,8,0:0:0:0:
256,192,76756,1,0,0:0:0:0:
256,192,76881,1,0,0:0:0:0:
256,192,77006,1,8,0:0:0:0:
256,192,77381,1,0,0:0:0:0:
256,192,77631,1,0,0:0:0:0:
256,192,77693,1,0,0:0:0:0:
256,192,77756,1,8,0:0:0:0:
256,192,78006,1,0,0:0:0:0:
256,192,78131,1,8,0:0:0:0:
256,192,78256,1,8,0:0:0:0:
256,192,78381,1,0,0:0:0:0:
256,192,78506,1,8,0:0:0:0:
256,192,78881,1,8,0:0:0:0:
256,192,79131,1,8,0:0:0:0:
256,192,79256,1,0,0:0:0:0:
256,192,79506,1,0,0:0:0:0:
256,192,79756,1,0,0:0:0:0:
256,192,80006,1,8,0:0:0:0:
256,192,80131,1,8,0:0:0:0:
256,192,80256,1,0,0:0:0:0:
256,192,80381,1,0,0:0:0:0:
256,192,80631,1,0,0:0:0:0:
256,192,80756,1,8,0:0:0:0:
256,192,81256,1,0,0:0:0:0:
256,192,81339,1,0,0:0:0:0:
256,192,81422,1,0,0:0:0:0:
256,192,81506,1,8,0:0:0:0:
256,192,81881,1,0,0:0:0:0:
256,192,82131,1,8,0:0:0:0:
256,192,82256,1,0,0:0:0:0:
256,192,82506,1,8,0:0:0:0:
256,192,82631,1,8,0:0:0:0:
256,192,82756,1,0,0:0:0:0:
256,192,82881,1,0,0:0:0:0:
256,192,83006,1,8,0:0:0:0:
256,192,83381,1,0,0:0:0:0:
256,192,83631,1,0,0:0:0:0:
256,192,83693,1,0,0:0:0:0:
256,192,83756,1,8,0:0:0:0:
256,192,84006,1,0,0:0:0:0:
256,192,84131,1,8,0:0:0:0:
256,192,84256,1,8,0:0:0:0:
256,192,84381,1,0,0:0:0:0:
256,192,84506,1,8,0:0:0:0:
256,192,84881,1,8,0:0:0:0:
256,192,85131,1,8,0:0:0:0:
256,192,85256,1,0,0:0:0:0:
256,192,85506,1,0,0:0:0:0:
256,192,85756,1,0,0:0:0:0:
256,192,86006,1,8,0:0:0:0:
256,192,86131,1,0,0:0:0:0:
256,192,86256,1,0,0:0:0:0:
256,192,86381,1,0,0:0:0:0:
256,192,86631,1,0,0:0:0:0:
256,192,86756,1,8,0:0:0:0:
256,192,87256,1,0,0:0:0:0:
256,192,87339,1,0,0:0:0:0:
256,192,87422,1,0,0:0:0:0:
256,192,87506,1,8,0:0:0:0:
256,192,87631,1,0,0:0:0:0:
256,192,87693,1,0,0:0:0:0:
256,192,87756,1,0,0:0:0:0:
256,192,87881,1,8,0:0:0:0:
256,192,88006,1,0,0:0:0:0:
256,192,88131,1,8,0:0:0:0:
256,192,88193,1,0,0:0:0:0:
256,192,88256,1,8,0:0:0:0:
256,192,88506,1,8,0:0:0:0:
256,192,88631,1,0,0:0:0:0:
256,192,88693,1,0,0:0:0:0:
256,192,88756,1,8,0:0:0:0:
256,192,88881,1,0,0:0:0:0:
256,192,89006,1,8,0:0:0:0:
256,192,89068,1,8,0:0:0:0:
256,192,89131,1,0,0:0:0:0:
256,192,89256,1,0,0:0:0:0:
256,192,89381,1,8,0:0:0:0:
256,192,89506,1,0,0:0:0:0:
256,192,89631,1,8,0:0:0:0:
256,192,89693,1,0,0:0:0:0:
256,192,89756,1,8,0:0:0:0:
256,192,90006,1,0,0:0:0:0:
256,192,90068,1,8,0:0:0:0:
256,192,90131,1,0,0:0:0:0:
256,192,90193,1,0,0:0:0:0:
256,192,90256,1,8,0:0:0:0:
256,192,90381,1,0,0:0:0:0:
256,192,90506,1,8,0:0:0:0:
256,192,90631,1,0,0:0:0:0:
256,192,90881,1,8,0:0:0:0:
256,192,91131,1,8,0:0:0:0:
256,192,91256,1,0,0:0:0:0:
256,192,91318,1,0,0:0:0:0:
256,192,91381,1,8,0:0:0:0:
256,192,91506,1,8,0:0:0:0:
256,192,91631,1,8,0:0:0:0:
256,192,91756,1,8,0:0:0:0:
256,192,91818,1,8,0:0:0:0:
256,192,91881,1,8,0:0:0:0:
256,192,91943,1,8,0:0:0:0:
256,192,92006,1,0,0:0:0:0:
256,192,92131,1,0,0:0:0:0:
256,192,92256,1,8,0:0:0:0:
256,192,92381,1,0,0:0:0:0:
256,192,92506,1,8,0:0:0:0:
256,192,92568,1,8,0:0:0:0:
256,192,92630,1,8,0:0:0:0:
256,192,92693,1,8,0:0:0:0:
256,192,92755,1,0,0:0:0:0:
256,192,92881,1,0,0:0:0:0:
256,192,93006,1,0,0:0:0:0:
256,192,93256,1,8,0:0:0:0:
256,160,93339,1,0,0:0:0:0:
256,192,93422,1,0,0:0:0:0:
256,192,93506,1,8,0:0:0:0:
256,192,93631,1,0,0:0:0:0:
256,192,93693,1,0,0:0:0:0:
256,192,93756,1,0,0:0:0:0:
256,192,93881,1,8,0:0:0:0:
256,192,94006,1,0,0:0:0:0:
256,192,94131,1,8,0:0:0:0:
256,192,94193,1,0,0:0:0:0:
256,192,94256,1,8,0:0:0:0:
256,192,94506,1,8,0:0:0:0:
256,192,94631,1,0,0:0:0:0:
256,192,94693,1,0,0:0:0:0:
256,192,94756,1,8,0:0:0:0:
256,192,94881,1,0,0:0:0:0:
256,192,95006,1,8,0:0:0:0:
256,192,95068,1,8,0:0:0:0:
256,192,95131,1,0,0:0:0:0:
256,192,95256,1,0,0:0:0:0:
256,192,95381,1,8,0:0:0:0:
256,192,95506,1,0,0:0:0:0:
256,192,95631,1,8,0:0:0:0:
256,192,95693,1,0,0:0:0:0:
256,192,95756,1,8,0:0:0:0:
256,192,96006,1,8,0:0:0:0:
256,192,96068,1,0,0:0:0:0:
256,192,96131,1,0,0:0:0:0:
256,192,96193,1,0,0:0:0:0:
256,192,96256,1,8,0:0:0:0:
256,192,96381,1,8,0:0:0:0:
256,192,96506,1,0,0:0:0:0:
256,192,96631,1,8,0:0:0:0:
256,192,96756,1,0,0:0:0:0:
256,192,96881,1,8,0:0:0:0:
256,192,97006,1,0,0:0:0:0:
256,192,97131,1,8,0:0:0:0:
256,192,97256,1,8,0:0:0:0:
256,192,97297,1,0,0:0:0:0:
256,192,97339,1,0,0:0:0:0:
256,192,97381,1,0,0:0:0:0:
256,192,97506,1,0,0:0:0:0:
256,192,97547,1,0,0:0:0:0:
256,192,97589,1,0,0:0:0:0:
256,192,97631,1,8,0:0:0:0:
256,192,97693,1,8,0:0:0:0:
256,192,97756,1,8,0:0:0:0:
256,192,97881,1,8,0:0:0:0:
256,192,98006,1,4,0:0:0:0:
256,192,98131,1,0,0:0:0:0:
256,192,98193,1,0,0:0:0:0:
256,192,98256,1,8,0:0:0:0:
256,192,98381,1,12,0:0:0:0:
256,192,98631,1,4,0:0:0:0:
256,192,98756,1,12,0:0:0:0:
256,192,99506,1,4,0:0:0:0:
256,192,99756,1,8,0:0:0:0:
256,192,99881,1,0,0:0:0:0:
256,192,99943,1,0,0:0:0:0:
256,192,100006,1,8,0:0:0:0:
256,192,100131,1,0,0:0:0:0:
256,192,100256,1,8,0:0:0:0:
256,192,100381,1,0,0:0:0:0:
256,192,100506,1,8,0:0:0:0:
256,192,100568,1,8,0:0:0:0:
256,192,100631,1,0,0:0:0:0:
256,192,100693,1,0,0:0:0:0:
256,192,100756,1,8,0:0:0:0:
256,192,100881,1,0,0:0:0:0:
256,192,101006,1,8,0:0:0:0:
256,192,101256,1,0,0:0:0:0:
256,192,101381,1,0,0:0:0:0:
256,192,101443,1,0,0:0:0:0:
256,192,101506,1,8,0:0:0:0:
256,192,101631,1,0,0:0:0:0:
256,192,101756,1,8,0:0:0:0:
256,192,101818,1,0,0:0:0:0:
256,192,101881,1,0,0:0:0:0:
256,192,101943,1,0,0:0:0:0:
256,192,102006,1,8,0:0:0:0:
256,192,102131,1,8,0:0:0:0:
256,192,102193,1,8,0:0:0:0:
256,192,102256,1,0,0:0:0:0:
256,192,102381,1,0,0:0:0:0:
256,192,102506,1,8,0:0:0:0:
256,192,102756,1,0,0:0:0:0:
256,192,102881,1,0,0:0:0:0:
256,192,102943,1,0,0:0:0:0:
256,192,103006,1,8,0:0:0:0:
256,192,103131,1,8,0:0:0:0:
256,192,103256,1,0,0:0:0:0:
256,192,103318,1,8,0:0:0:0:
256,192,103381,1,0,0:0:0:0:
256,192,103443,1,0,0:0:0:0:
256,192,103506,1,8,0:0:0:0:
256,192,103631,1,0,0:0:0:0:
256,192,103756,1,8,0:0:0:0:
256,192,103881,1,0,0:0:0:0:
256,192,103943,1,0,0:0:0:0:
256,192,104006,1,8,0:0:0:0:
256,192,104131,1,8,0:0:0:0:
256,192,104256,1,0,0:0:0:0:
256,192,104506,1,8,0:0:0:0:
256,192,104756,1,8,0:0:0:0:
256,192,104881,1,0,0:0:0:0:
256,192,104943,1,0,0:0:0:0:
256,192,105006,1,8,0:0:0:0:
256,192,105068,1,8,0:0:0:0:
256,192,105131,1,0,0:0:0:0:
256,192,105256,1,8,0:0:0:0:
256,192,105506,1,4,0:0:0:0:
256,192,105756,1,8,0:0:0:0:
256,192,105881,1,0,0:0:0:0:
256,192,105943,1,0,0:0:0:0:
256,192,106006,1,8,0:0:0:0:
256,192,106131,1,0,0:0:0:0:
256,192,106256,1,8,0:0:0:0:
256,192,106381,1,0,0:0:0:0:
256,192,106506,1,8,0:0:0:0:
256,192,106568,1,8,0:0:0:0:
256,192,106631,1,0,0:0:0:0:
256,192,106693,1,0,0:0:0:0:
256,192,106756,1,8,0:0:0:0:
256,192,106881,1,0,0:0:0:0:
256,192,107006,1,8,0:0:0:0:
256,192,107256,1,0,0:0:0:0:
256,192,107381,1,0,0:0:0:0:
256,192,107443,1,0,0:0:0:0:
256,192,107506,1,8,0:0:0:0:
256,192,107631,1,0,0:0:0:0:
256,192,107756,1,8,0:0:0:0:
256,192,107818,1,0,0:0:0:0:
256,192,107881,1,0,0:0:0:0:
256,192,107943,1,0,0:0:0:0:
256,192,108006,1,8,0:0:0:0:
256,192,108131,1,8,0:0:0:0:
256,192,108193,1,8,0:0:0:0:
256,192,108256,1,0,0:0:0:0:
256,192,108381,1,0,0:0:0:0:
256,192,108506,1,8,0:0:0:0:
256,192,108756,1,0,0:0:0:0:
256,192,108881,1,0,0:0:0:0:
256,192,108943,1,0,0:0:0:0:
256,192,109006,1,8,0:0:0:0:
256,192,109131,1,0,0:0:0:0:
256,192,109256,1,8,0:0:0:0:
256,192,109381,1,8,0:0:0:0:
256,192,109443,1,0,0:0:0:0:
256,192,109506,1,0,0:0:0:0:
256,192,109756,1,8,0:0:0:0:
256,192,109839,1,8,0:0:0:0:
256,192,109922,1,8,0:0:0:0:
256,192,110006,1,4,0:0:0:0:
256,192,110131,1,8,0:0:0:0:
256,192,110256,1,4,0:0:0:0:
256,192,110506,1,8,0:0:0:0:
256,192,110756,1,8,0:0:0:0:
256,192,110881,1,0,0:0:0:0:
256,192,110943,1,0,0:0:0:0:
256,192,111006,1,8,0:0:0:0:
256,192,111068,1,8,0:0:0:0:
256,192,111131,1,0,0:0:0:0:
256,192,111256,1,8,0:0:0:0:
256,192,111506,1,12,0:0:0:0:
