osu file format v14

[General]
AudioFilename: audio.mp3
AudioLeadIn: 0
PreviewTime: 72832
Countdown: 0
SampleSet: Soft
StackLeniency: 0.7
Mode: 3
LetterboxInBreaks: 0
SpecialStyle: 0
WidescreenStoryboard: 0

[Editor]
Bookmarks: 1764,10039,17074,29901,43143,49764,56384,63005,67970,72936,85350,86177,92591,93212,98591,111005
DistanceSpacing: 0.4
BeatDivisor: 4
GridSize: 32
TimelineZoom: 1.4

[Metadata]
Title:Paradigm Shift
TitleUnicode:Paradigm Shift
Artist:Morimori Atsushi
ArtistUnicode:モリモリあつし
Creator:eiri-
Version:Beginner
Source:
Tags:Ayyri K-Shoot Mania KSM Starter Pack Charlotte Noffy Critical_Star CS Critical Star
BeatmapID:1608660
BeatmapSetID:765055

[Difficulty]
HPDrainRate:6.5
CircleSize:4
OverallDifficulty:6.5
ApproachRate:5
SliderMultiplier:1.4
SliderTickRate:1

[Events]
//Background and Video events
0,0,"Paradigm Shift.png",0,0
//Break Periods
//Storyboard Layer 0 (Background)
//Storyboard Layer 1 (Fail)
//Storyboard Layer 2 (Pass)
//Storyboard Layer 3 (Foreground)
//Storyboard Sound Samples

[TimingPoints]
1764,413.793103448276,4,2,1,40,1,0
72936,-100,4,2,1,40,0,1
85350,-100,4,2,1,40,0,0
86177,-100,4,2,1,40,0,1
92591,-100,4,2,1,40,0,0
93212,-100,4,2,1,40,0,1
98591,-100,4,2,1,40,0,0

[HitObjects]
448,192,1764,5,0,0:0:0:0:
192,192,2177,1,0,0:0:0:0:
448,192,2591,128,0,3212:0:0:0:0:
192,192,3419,1,2,0:0:0:0:
64,192,3419,1,4,0:0:0:0:
448,192,3832,1,2,0:0:0:0:
64,192,4246,1,2,0:0:0:0:
320,192,4660,1,2,0:0:0:0:
192,192,4867,1,0,0:0:0:0:
448,192,5074,1,2,0:0:0:0:
64,192,5488,1,2,0:0:0:0:
320,192,5901,1,2,0:0:0:0:
64,192,6315,1,2,0:0:0:0:
448,192,6522,1,0,0:0:0:0:
192,192,6729,1,2,0:0:0:0:
320,192,7143,1,2,0:0:0:0:
64,192,7557,1,2,0:0:0:0:
448,192,7970,1,2,0:0:0:0:
192,192,8384,1,2,0:0:0:0:
64,192,8798,1,2,0:0:0:0:
320,192,9212,1,2,0:0:0:0:
192,192,9626,1,2,0:0:0:0:
448,192,9832,1,0,0:0:0:0:
192,192,10039,1,2,0:0:0:0:
64,192,10039,1,4,0:0:0:0:
320,192,10453,1,2,0:0:0:0:
448,192,10867,1,2,0:0:0:0:
64,192,11281,1,2,0:0:0:0:
448,192,11695,1,6,0:0:0:0:
320,192,11695,1,0,0:0:0:0:
192,192,12108,1,2,0:0:0:0:
448,192,12315,1,2,0:0:0:0:
64,192,12522,1,4,0:0:0:0:
192,192,12522,1,0,0:0:0:0:
320,192,12936,1,2,0:0:0:0:
192,192,13143,1,2,0:0:0:0:
320,192,13350,128,2,13764:0:0:0:0:
448,192,13350,1,4,0:0:0:0:
192,192,13764,128,6,14177:0:0:0:0:
64,192,13764,1,0,0:0:0:0:
448,192,14177,128,6,14591:0:0:0:0:
320,192,14177,1,0,0:0:0:0:
64,192,14591,128,6,15005:0:0:0:0:
192,192,14591,1,0,0:0:0:0:
320,192,15005,128,6,15832:0:0:0:0:
448,192,15005,1,0,0:0:0:0:
192,192,15419,128,2,15832:0:0:0:0:
448,192,15832,1,4,0:0:0:0:
64,192,15832,1,2,0:0:0:0:
320,192,16143,1,6,0:0:0:0:
192,192,16453,1,6,0:0:0:0:
448,192,17074,1,2,0:0:0:0:
64,192,17074,1,4,0:0:0:0:
192,192,17488,1,2,0:0:0:0:
448,192,17901,1,2,0:0:0:0:
448,192,18108,1,0,0:0:0:0:
64,192,18315,1,2,0:0:0:0:
320,192,18729,1,2,0:0:0:0:
192,192,19143,1,2,0:0:0:0:
64,192,19557,1,2,0:0:0:0:
64,192,19764,1,0,0:0:0:0:
448,192,19970,1,2,0:0:0:0:
64,192,20384,1,2,0:0:0:0:
320,192,20798,1,2,0:0:0:0:
192,192,21005,1,0,0:0:0:0:
448,192,21212,1,2,0:0:0:0:
448,192,21419,1,0,0:0:0:0:
192,192,21626,1,2,0:0:0:0:
64,192,21626,1,4,0:0:0:0:
448,192,22039,1,2,0:0:0:0:
320,192,22453,1,2,0:0:0:0:
64,192,22660,1,0,0:0:0:0:
192,192,22867,1,2,0:0:0:0:
448,192,23074,1,4,0:0:0:0:
320,192,23074,1,0,0:0:0:0:
64,192,23281,1,2,0:0:0:0:
448,192,23695,1,2,0:0:0:0:
192,192,24108,1,2,0:0:0:0:
64,192,24522,1,2,0:0:0:0:
64,192,24729,1,0,0:0:0:0:
448,192,24936,1,2,0:0:0:0:
320,192,25350,1,2,0:0:0:0:
192,192,25557,1,0,0:0:0:0:
64,192,25764,1,2,0:0:0:0:
448,192,26177,1,2,0:0:0:0:
448,192,26384,1,0,0:0:0:0:
192,192,26591,1,2,0:0:0:0:
448,192,27005,1,2,0:0:0:0:
192,192,27419,1,2,0:0:0:0:
320,192,27626,1,0,0:0:0:0:
64,192,27832,1,2,0:0:0:0:
64,192,28039,1,0,0:0:0:0:
448,192,28246,1,4,0:0:0:0:
320,192,28246,1,2,0:0:0:0:
448,192,28660,1,0,0:0:0:0:
64,192,29074,1,0,0:0:0:0:
320,192,29281,1,0,0:0:0:0:
448,192,29488,1,2,0:0:0:0:
192,192,29695,1,0,0:0:0:0:
448,192,29901,1,4,0:0:0:0:
64,192,29901,1,2,0:0:0:0:
192,192,30315,1,2,0:0:0:0:
64,192,30729,1,2,0:0:0:0:
448,192,31143,1,2,0:0:0:0:
448,192,31350,1,0,0:0:0:0:
192,192,31557,1,2,0:0:0:0:
64,192,31970,1,2,0:0:0:0:
320,192,32384,128,6,32798:0:0:0:0:
192,192,32798,1,6,0:0:0:0:
448,192,33212,1,2,0:0:0:0:
64,192,33212,1,4,0:0:0:0:
320,192,33626,1,2,0:0:0:0:
448,192,34039,1,2,0:0:0:0:
192,192,34453,1,2,0:0:0:0:
448,192,34660,1,0,0:0:0:0:
64,192,34867,1,6,0:0:0:0:
192,192,34867,1,0,0:0:0:0:
320,192,35281,1,6,0:0:0:0:
64,192,35695,1,6,0:0:0:0:
448,192,36005,1,6,0:0:0:0:
192,192,36315,1,6,0:0:0:0:
64,192,36522,1,6,0:0:0:0:
448,192,36522,1,0,0:0:0:0:
192,192,36936,1,2,0:0:0:0:
320,192,36936,1,0,0:0:0:0:
448,192,37350,1,2,0:0:0:0:
320,192,37350,1,0,0:0:0:0:
64,192,37557,1,2,0:0:0:0:
448,192,37764,128,2,38177:0:0:0:0:
192,192,38177,1,2,0:0:0:0:
64,192,38177,1,6,0:0:0:0:
320,192,38591,1,2,0:0:0:0:
448,192,38591,1,0,0:0:0:0:
192,192,39005,1,2,0:0:0:0:
64,192,39005,1,0,0:0:0:0:
448,192,39212,1,2,0:0:0:0:
192,192,39419,128,2,39832:0:0:0:0:
64,192,39832,1,4,0:0:0:0:
448,192,39832,1,2,0:0:0:0:
320,192,40246,1,6,0:0:0:0:
192,192,40246,1,0,0:0:0:0:
64,192,40660,1,6,0:0:0:0:
448,192,40660,1,0,0:0:0:0:
320,192,40867,128,2,41074:0:0:0:0:
192,192,41074,1,6,0:0:0:0:
448,192,41281,128,2,41488:0:0:0:0:
320,192,41488,1,4,0:0:0:0:
64,192,41488,1,2,0:0:0:0:
192,192,41695,1,6,0:0:0:0:
320,192,41901,1,6,0:0:0:0:
448,192,42108,1,6,0:0:0:0:
64,192,42212,1,6,0:0:0:0:
320,192,42729,128,2,43143:0:0:0:0:
192,192,43143,1,4,0:0:0:0:
448,192,43143,128,2,43970:0:0:0:0:
64,192,43970,128,0,44798:0:0:0:0:
320,192,44798,128,0,46453:0:0:0:0:
192,192,46246,1,2,0:0:0:0:
448,192,46453,1,6,0:0:0:0:
64,192,46453,128,0,47281:0:0:0:0:
320,192,47281,128,0,48108:0:0:0:0:
192,192,48108,128,0,49764:0:0:0:0:
320,192,48729,1,2,0:0:0:0:
448,192,48936,1,2,0:0:0:0:
448,192,49350,1,0,0:0:0:0:
64,192,49764,1,4,0:0:0:0:
448,192,49764,128,2,50591:0:0:0:0:
192,192,50591,128,0,51419:0:0:0:0:
448,192,51212,1,2,0:0:0:0:
64,192,51419,1,6,0:0:0:0:
320,192,51419,128,0,52246:0:0:0:0:
448,192,52246,1,6,0:0:0:0:
64,192,52246,128,0,53074:0:0:0:0:
448,192,52557,1,6,0:0:0:0:
448,192,52867,1,6,0:0:0:0:
320,192,53074,1,2,0:0:0:0:
192,192,53074,1,4,0:0:0:0:
448,192,53488,1,0,0:0:0:0:
192,192,53901,1,6,0:0:0:0:
320,192,54315,1,0,0:0:0:0:
64,192,54522,1,2,0:0:0:0:
448,192,54729,128,2,55143:0:0:0:0:
64,192,55143,1,6,0:0:0:0:
320,192,55143,1,0,0:0:0:0:
192,192,55557,1,6,0:0:0:0:
448,192,55557,1,0,0:0:0:0:
64,192,55970,1,6,0:0:0:0:
320,192,55970,1,0,0:0:0:0:
448,192,56384,128,2,57212:0:0:0:0:
64,192,56384,1,4,0:0:0:0:
192,192,57212,1,0,0:0:0:0:
320,192,57832,1,2,0:0:0:0:
448,192,58039,128,2,58867:0:0:0:0:
64,192,58039,1,4,0:0:0:0:
192,192,58867,1,0,0:0:0:0:
320,192,59488,1,2,0:0:0:0:
448,192,59695,128,0,60522:0:0:0:0:
64,192,59695,1,6,0:0:0:0:
192,192,60522,1,0,0:0:0:0:
320,192,61143,1,2,0:0:0:0:
448,192,61350,128,2,62177:0:0:0:0:
64,192,61350,1,4,0:0:0:0:
64,192,61970,1,0,0:0:0:0:
192,192,62177,1,6,0:0:0:0:
320,192,62591,1,6,0:0:0:0:
448,192,63005,1,2,0:0:0:0:
64,192,63005,1,4,0:0:0:0:
192,192,63626,1,2,0:0:0:0:
448,192,63832,1,4,0:0:0:0:
64,192,63832,1,2,0:0:0:0:
320,192,64453,1,2,0:0:0:0:
448,192,64660,1,4,0:0:0:0:
64,192,64660,1,2,0:0:0:0:
192,192,65281,1,2,0:0:0:0:
64,192,65488,1,6,0:0:0:0:
448,192,65488,1,0,0:0:0:0:
320,192,66108,1,2,0:0:0:0:
448,192,66315,1,2,0:0:0:0:
64,192,66315,1,4,0:0:0:0:
64,192,66729,1,6,0:0:0:0:
448,192,66729,1,0,0:0:0:0:
448,192,67143,1,4,0:0:0:0:
64,192,67143,1,2,0:0:0:0:
64,192,67557,1,4,0:0:0:0:
448,192,67557,1,2,0:0:0:0:
320,192,67970,1,4,0:0:0:0:
448,192,67970,1,2,0:0:0:0:
64,192,68177,1,6,0:0:0:0:
448,192,68384,1,6,0:0:0:0:
64,192,68591,1,6,0:0:0:0:
448,192,68798,128,6,69212:0:0:0:0:
64,192,69212,128,2,69626:0:0:0:0:
320,192,69626,1,4,0:0:0:0:
448,192,69626,1,2,0:0:0:0:
64,192,72108,1,4,0:0:0:0:
192,192,72108,1,2,0:0:0:0:
320,192,72522,1,4,0:0:0:0:
448,192,72522,128,2,72936:0:0:0:0:
192,192,72936,1,2,0:0:0:0:
64,192,72936,1,4,0:0:0:0:
320,192,73350,1,2,0:0:0:0:
448,192,73350,1,0,0:0:0:0:
64,192,73764,1,2,0:0:0:0:
448,192,74177,1,2,0:0:0:0:
192,192,74177,1,0,0:0:0:0:
320,192,74591,1,2,0:0:0:0:
64,192,75005,1,2,0:0:0:0:
192,192,75005,1,0,0:0:0:0:
448,192,75212,1,0,0:0:0:0:
192,192,75419,1,2,0:0:0:0:
448,192,75832,1,2,0:0:0:0:
64,192,75832,1,0,0:0:0:0:
320,192,76039,1,0,0:0:0:0:
192,192,76246,1,2,0:0:0:0:
448,192,76660,1,2,0:0:0:0:
64,192,76660,1,0,0:0:0:0:
320,192,77074,1,2,0:0:0:0:
192,192,77488,1,2,0:0:0:0:
64,192,77488,1,0,0:0:0:0:
320,192,77901,1,2,0:0:0:0:
448,192,78315,1,2,0:0:0:0:
192,192,78315,1,0,0:0:0:0:
320,192,78522,1,0,0:0:0:0:
64,192,78729,1,2,0:0:0:0:
64,192,79143,1,4,0:0:0:0:
448,192,79143,1,2,0:0:0:0:
320,192,79557,1,4,0:0:0:0:
192,192,79557,1,2,0:0:0:0:
64,192,79970,1,2,0:0:0:0:
448,192,79970,1,0,0:0:0:0:
192,192,80384,1,2,0:0:0:0:
64,192,80798,1,2,0:0:0:0:
320,192,80798,1,0,0:0:0:0:
448,192,81212,1,2,0:0:0:0:
192,192,81626,1,2,0:0:0:0:
64,192,81626,1,0,0:0:0:0:
448,192,81832,1,0,0:0:0:0:
320,192,82039,1,2,0:0:0:0:
64,192,82453,1,2,0:0:0:0:
320,192,82660,1,0,0:0:0:0:
448,192,82867,1,4,0:0:0:0:
64,192,82867,1,2,0:0:0:0:
320,192,83281,1,2,0:0:0:0:
192,192,83281,1,0,0:0:0:0:
64,192,83695,1,2,0:0:0:0:
192,192,84108,1,2,0:0:0:0:
448,192,84108,1,0,0:0:0:0:
448,192,84522,1,2,0:0:0:0:
192,192,84936,128,2,85350:0:0:0:0:
64,192,85350,1,4,0:0:0:0:
448,192,85350,1,2,0:0:0:0:
320,192,85970,128,0,86177:0:0:0:0:
64,192,86177,1,2,0:0:0:0:
448,192,86177,1,4,0:0:0:0:
192,192,86591,1,2,0:0:0:0:
64,192,87005,1,2,0:0:0:0:
192,192,87212,1,0,0:0:0:0:
320,192,87419,1,2,0:0:0:0:
448,192,87832,1,2,0:0:0:0:
320,192,88246,1,2,0:0:0:0:
64,192,88453,1,0,0:0:0:0:
448,192,88660,1,2,0:0:0:0:
64,192,89074,1,2,0:0:0:0:
192,192,89281,1,0,0:0:0:0:
448,192,89488,1,6,0:0:0:0:
320,192,89488,1,0,0:0:0:0:
192,192,89695,1,0,0:0:0:0:
64,192,89901,1,2,0:0:0:0:
448,192,90315,1,6,0:0:0:0:
320,192,90315,1,0,0:0:0:0:
192,192,90522,1,0,0:0:0:0:
64,192,90729,1,2,0:0:0:0:
448,192,91143,1,6,0:0:0:0:
320,192,91143,1,0,0:0:0:0:
192,192,91350,1,0,0:0:0:0:
64,192,91557,1,2,0:0:0:0:
320,192,91764,1,0,0:0:0:0:
448,192,91970,1,4,0:0:0:0:
64,192,91970,1,2,0:0:0:0:
320,192,92281,1,4,0:0:0:0:
192,192,92281,1,2,0:0:0:0:
64,192,92591,1,4,0:0:0:0:
448,192,92591,1,2,0:0:0:0:
192,192,93212,1,2,0:0:0:0:
320,192,93212,1,4,0:0:0:0:
448,192,93626,1,2,0:0:0:0:
64,192,93832,1,2,0:0:0:0:
320,192,94039,1,2,0:0:0:0:
192,192,94453,1,6,0:0:0:0:
448,192,94660,1,2,0:0:0:0:
64,192,94867,1,2,0:0:0:0:
320,192,95281,1,6,0:0:0:0:
64,192,95488,1,2,0:0:0:0:
448,192,95695,1,6,0:0:0:0:
192,192,95901,1,2,0:0:0:0:
448,192,96108,1,6,0:0:0:0:
320,192,96108,1,0,0:0:0:0:
64,192,96522,1,6,0:0:0:0:
192,192,96522,1,0,0:0:0:0:
448,192,96936,1,6,0:0:0:0:
320,192,96936,1,0,0:0:0:0:
64,192,97350,1,6,0:0:0:0:
192,192,97350,1,0,0:0:0:0:
320,192,97764,1,6,0:0:0:0:
448,192,97764,128,0,98177:0:0:0:0:
192,192,98177,1,6,0:0:0:0:
64,192,98177,128,0,98591:0:0:0:0:
448,192,98591,1,4,0:0:0:0:
320,192,98591,1,2,0:0:0:0:
192,192,99212,128,0,99419:0:0:0:0:
448,192,99419,1,6,0:0:0:0:
64,192,99419,128,0,100246:0:0:0:0:
320,192,100246,128,0,101074:0:0:0:0:
448,192,101074,128,0,102729:0:0:0:0:
192,192,102729,128,0,103557:0:0:0:0:
320,192,103557,128,0,104384:0:0:0:0:
64,192,104384,128,0,106039:0:0:0:0:
320,192,106039,128,0,106867:0:0:0:0:
192,192,106867,128,0,107695:0:0:0:0:
64,192,107695,128,0,108522:0:0:0:0:
448,192,108522,128,0,109350:0:0:0:0:
192,192,109350,128,0,110177:0:0:0:0:
320,192,110177,128,0,111005:0:0:0:0:
64,192,111005,1,0,0:0:0:0:
