osu file format v14

[General]
AudioFilename: audio.mp3
AudioLeadIn: 0
PreviewTime: 85577
Countdown: 0
SampleSet: Soft
StackLeniency: 0.7
Mode: 3
LetterboxInBreaks: 0
SpecialStyle: 0
WidescreenStoryboard: 0

[Editor]
DistanceSpacing: 1
BeatDivisor: 8
GridSize: 4
TimelineZoom: 2.3

[Metadata]
Title:Paradigm Shift
TitleUnicode:Paradigm Shift
Artist:Morimori Atsushi
ArtistUnicode:モリモリあつし
Creator:Div
Version::thnk:
Source:K-Shoot Mania
Tags:wonki lude interlude- hydria
BeatmapID:1279075
BeatmapSetID:605386

[Difficulty]
HPDrainRate:9
CircleSize:4
OverallDifficulty:8
ApproachRate:5
SliderMultiplier:1.7
SliderTickRate:1

[Events]
//Background and Video events
0,0,"paradigm.jpg",0,0
//Break Periods
//Storyboard Layer 0 (Background)
//Storyboard Layer 1 (Fail)
//Storyboard Layer 2 (Pass)
//Storyboard Layer 3 (Foreground)
//Storyboard Sound Samples

[TimingPoints]
1784,413.793103448276,4,2,1,30,1,0
15852,-250,4,2,1,30,0,0
16008,-62.5,4,2,1,30,0,0
16059,-71.4285714285714,4,2,1,30,0,0
16111,-83.3333333333333,4,2,1,30,0,0
16163,-250,4,2,1,30,0,0
16318,-62.5,4,2,1,30,0,0
16370,-71.4285714285714,4,2,1,30,0,0
16421,-83.3333333333333,4,2,1,30,0,0
16473,-133.333333333333,4,2,1,30,0,0
16784,-100,4,2,1,30,0,0
28266,-62.5,4,2,1,30,0,0
28370,-153.846153846153,4,2,1,30,0,0
28473,-114.942528735632,4,2,1,30,0,0
28577,-100,4,2,1,30,0,0
32818,-200,4,2,1,30,0,0
32921,-200,4,2,1,30,0,0
33025,-83.3333333333333,4,2,1,30,0,0
33077,-76.9230769230769,4,2,1,30,0,0
33125,-71.4285714285714,4,2,1,30,0,0
33180,-114.942528735632,4,2,1,30,0,0
33232,-100,4,2,1,30,0,0
35715,-250,4,2,1,30,0,0
35870,-62.5,4,2,1,30,0,0
35921,-71.4285714285714,4,2,1,30,0,0
35973,-83.3333333333333,4,2,1,30,0,0
36025,-250,4,2,1,30,0,0
36180,-62.5,4,2,1,30,0,0
36232,-71.4285714285714,4,2,1,30,0,0
36284,-83.3333333333333,4,2,1,30,0,0
36335,-250,4,2,1,30,0,0
36439,-62.5,4,2,1,30,0,0
36490,-76.9230769230769,4,2,1,30,0,0
36542,-100,4,2,1,30,0,0
41559,-142.857142857143,4,2,1,30,0,0
41663,-71.4285714285714,4,2,1,30,0,0
41715,-100,4,2,1,30,0,0
41766,-142.857142857143,4,2,1,30,0,0
41870,-71.4285714285714,4,2,1,30,0,0
41921,-100,4,2,1,30,0,0
41973,-142.857142857143,4,2,1,30,0,0
42077,-71.4285714285714,4,2,1,30,0,0
42128,-100,4,2,1,30,0,0
55163,-250,4,2,1,30,0,0
55370,-58.8235294117647,4,2,1,30,0,0
55577,-250,4,2,1,30,0,0
55784,-71.4285714285714,4,2,1,30,0,0
55990,-250,4,2,1,30,0,0
56197,-71.4285714285714,4,2,1,30,0,0
56404,-100,4,2,1,30,0,0
72128,-62.5,4,2,1,30,0,0
72232,-83.3333333333333,4,2,1,30,0,0
72335,-125,4,2,1,30,0,0
72542,-62.5,4,2,1,30,0,0
72646,-83.3333333333333,4,2,1,30,0,0
72749,-125,4,2,1,30,0,0
72956,-100,4,2,1,30,0,1
85370,-100,4,2,1,30,0,0
86197,-100,4,2,1,30,0,1
99439,-100,4,2,1,30,0,0

[HitObjects]
64,192,1784,128,0,1990:0:0:0:0:
320,192,1784,1,0,0:0:0:0:
448,192,1990,128,0,2197:0:0:0:0:
192,192,1990,1,0,0:0:0:0:
192,192,2197,128,0,2404:0:0:0:0:
64,192,2197,1,0,0:0:0:0:
320,192,2404,128,0,2611:0:0:0:0:
448,192,2404,1,0,0:0:0:0:
64,192,2611,128,0,3025:0:0:0:0:
192,192,2611,1,0,0:0:0:0:
448,192,3025,1,0,0:0:0:0:
320,192,3077,1,0,0:0:0:0:
192,192,3128,1,0,0:0:0:0:
64,192,3180,1,0,0:0:0:0:
448,192,3232,128,0,3439:0:0:0:0:
320,192,3439,1,4,0:0:0:0:
64,192,3439,1,2,0:0:0:0:
448,192,3542,1,0,0:0:0:0:
320,192,3646,1,0,0:0:0:0:
64,192,3749,1,2,0:0:0:0:
192,192,3749,1,0,0:0:0:0:
320,192,3852,1,0,0:0:0:0:
448,192,3852,1,2,0:0:0:0:
192,192,3956,1,0,0:0:0:0:
64,192,4059,1,0,0:0:0:0:
192,192,4163,1,0,0:0:0:0:
320,192,4163,1,2,0:0:0:0:
64,192,4266,1,0,0:0:0:0:
448,192,4266,1,2,0:0:0:0:
320,192,4370,1,0,0:0:0:0:
64,192,4473,1,0,0:0:0:0:
448,192,4577,1,2,0:0:0:0:
192,192,4577,1,0,0:0:0:0:
64,192,4680,1,0,0:0:0:0:
320,192,4680,1,2,0:0:0:0:
448,192,4784,1,0,0:0:0:0:
192,192,4887,1,0,0:0:0:0:
64,192,4990,1,0,0:0:0:0:
320,192,4990,1,2,0:0:0:0:
192,192,5094,1,0,0:0:0:0:
448,192,5094,1,2,0:0:0:0:
320,192,5197,1,0,0:0:0:0:
192,192,5301,1,0,0:0:0:0:
64,192,5404,1,0,0:0:0:0:
448,192,5404,1,2,0:0:0:0:
320,192,5508,1,2,0:0:0:0:
192,192,5508,1,0,0:0:0:0:
448,192,5611,1,0,0:0:0:0:
192,192,5715,1,0,0:0:0:0:
64,192,5818,1,0,0:0:0:0:
320,192,5818,1,2,0:0:0:0:
192,192,5921,1,0,0:0:0:0:
448,192,5921,1,2,0:0:0:0:
320,192,6025,1,0,0:0:0:0:
64,192,6128,1,0,0:0:0:0:
448,192,6232,1,2,0:0:0:0:
192,192,6232,1,0,0:0:0:0:
64,192,6335,1,0,0:0:0:0:
320,192,6335,1,2,0:0:0:0:
192,192,6439,1,0,0:0:0:0:
320,192,6542,1,0,0:0:0:0:
64,192,6646,1,0,0:0:0:0:
192,192,6646,1,2,0:0:0:0:
448,192,6749,128,0,6852:0:0:0:0:
320,192,6749,1,2,0:0:0:0:
192,192,6852,1,0,0:0:0:0:
64,192,6956,128,0,7008:0:0:0:0:
320,192,7059,128,0,7111:0:0:0:0:
448,192,7059,1,2,0:0:0:0:
64,192,7163,1,0,0:0:0:0:
192,192,7163,1,2,0:0:0:0:
448,192,7266,128,0,7370:0:0:0:0:
192,192,7370,1,0,0:0:0:0:
320,192,7473,1,2,0:0:0:0:
64,192,7473,128,0,7525:0:0:0:0:
448,192,7577,128,0,7628:0:0:0:0:
192,192,7577,1,2,0:0:0:0:
320,192,7680,128,0,7732:0:0:0:0:
192,192,7784,128,0,7835:0:0:0:0:
64,192,7887,128,0,7939:0:0:0:0:
448,192,7887,1,2,0:0:0:0:
192,192,7990,1,0,0:0:0:0:
320,192,7990,1,2,0:0:0:0:
64,192,8094,1,0,0:0:0:0:
448,192,8197,1,0,0:0:0:0:
192,192,8301,1,2,0:0:0:0:
64,192,8301,1,0,0:0:0:0:
320,192,8404,1,2,0:0:0:0:
448,192,8404,1,0,0:0:0:0:
64,192,8508,1,0,0:0:0:0:
448,192,8611,128,0,8663:0:0:0:0:
448,192,8715,128,0,8766:0:0:0:0:
320,192,8715,1,2,0:0:0:0:
192,192,8818,128,0,8870:0:0:0:0:
64,192,8818,1,2,0:0:0:0:
192,192,8921,128,0,8973:0:0:0:0:
320,192,9025,128,0,9077:0:0:0:0:
320,192,9128,128,0,9180:0:0:0:0:
448,192,9128,1,2,0:0:0:0:
64,192,9232,128,0,9335:0:0:0:0:
192,192,9232,1,2,0:0:0:0:
448,192,9439,1,0,0:0:0:0:
64,192,9542,128,0,9646:0:0:0:0:
320,192,9542,1,2,0:0:0:0:
192,192,9646,1,2,0:0:0:0:
448,192,9646,1,0,0:0:0:0:
64,192,9749,1,0,0:0:0:0:
448,192,9852,128,0,9956:0:0:0:0:
320,192,9956,1,2,0:0:0:0:
192,192,10059,1,2,0:0:0:0:
64,192,10059,1,0,0:0:0:0:
320,192,10163,1,0,0:0:0:0:
192,192,10266,1,0,0:0:0:0:
448,192,10266,1,2,0:0:0:0:
64,192,10370,1,0,0:0:0:0:
320,192,10473,1,0,0:0:0:0:
448,192,10473,1,2,0:0:0:0:
192,192,10577,1,0,0:0:0:0:
64,192,10680,1,0,0:0:0:0:
320,192,10680,1,2,0:0:0:0:
448,192,10784,1,0,0:0:0:0:
64,192,10887,1,0,0:0:0:0:
192,192,10887,1,2,0:0:0:0:
320,192,10990,1,0,0:0:0:0:
192,192,11094,1,0,0:0:0:0:
448,192,11094,1,2,0:0:0:0:
64,192,11197,1,0,0:0:0:0:
320,192,11301,1,0,0:0:0:0:
448,192,11301,1,2,0:0:0:0:
192,192,11404,1,0,0:0:0:0:
64,192,11508,1,0,0:0:0:0:
448,192,11508,1,2,0:0:0:0:
320,192,11611,1,0,0:0:0:0:
64,192,11715,1,4,0:0:0:0:
192,192,11715,1,0,0:0:0:0:
448,192,11715,1,2,0:0:0:0:
320,192,11818,1,0,0:0:0:0:
64,192,11921,1,2,0:0:0:0:
192,192,11921,1,0,0:0:0:0:
448,192,12025,1,0,0:0:0:0:
192,192,12128,1,0,0:0:0:0:
320,192,12128,1,2,0:0:0:0:
64,192,12232,1,0,0:0:0:0:
192,192,12335,1,0,0:0:0:0:
448,192,12335,1,2,0:0:0:0:
320,192,12439,1,0,0:0:0:0:
64,192,12542,1,4,0:0:0:0:
192,192,12542,1,0,0:0:0:0:
448,192,12542,1,2,0:0:0:0:
320,192,12646,1,0,0:0:0:0:
64,192,12749,1,2,0:0:0:0:
192,192,12749,1,0,0:0:0:0:
448,192,12852,1,0,0:0:0:0:
64,192,12956,1,2,0:0:0:0:
320,192,12956,1,0,0:0:0:0:
192,192,13059,1,0,0:0:0:0:
320,192,13163,1,0,0:0:0:0:
448,192,13163,1,2,0:0:0:0:
192,192,13266,1,0,0:0:0:0:
64,192,13370,1,0,0:0:0:0:
320,192,13370,1,4,0:0:0:0:
448,192,13370,1,2,0:0:0:0:
64,192,13473,1,0,0:0:0:0:
192,192,13473,1,2,0:0:0:0:
192,192,13577,1,2,0:0:0:0:
448,192,13577,1,0,0:0:0:0:
320,192,13680,1,2,0:0:0:0:
448,192,13680,1,0,0:0:0:0:
64,192,13784,1,0,0:0:0:0:
192,192,13784,1,4,0:0:0:0:
320,192,13784,1,2,0:0:0:0:
448,192,13887,1,2,0:0:0:0:
64,192,13887,1,0,0:0:0:0:
448,192,13990,1,2,0:0:0:0:
192,192,13990,1,0,0:0:0:0:
192,192,14094,1,0,0:0:0:0:
320,192,14094,1,2,0:0:0:0:
64,192,14197,1,0,0:0:0:0:
320,192,14197,1,2,0:0:0:0:
448,192,14197,1,4,0:0:0:0:
448,192,14301,1,0,0:0:0:0:
192,192,14301,1,2,0:0:0:0:
64,192,14404,1,0,0:0:0:0:
192,192,14404,1,2,0:0:0:0:
64,192,14508,1,0,0:0:0:0:
320,192,14508,1,2,0:0:0:0:
448,192,14611,1,0,0:0:0:0:
320,192,14611,1,2,0:0:0:0:
448,192,14715,1,2,0:0:0:0:
64,192,14715,1,0,0:0:0:0:
64,192,14818,1,0,0:0:0:0:
192,192,14818,1,2,0:0:0:0:
192,192,14921,1,2,0:0:0:0:
448,192,14921,1,0,0:0:0:0:
320,192,15025,1,2,0:0:0:0:
448,192,15025,1,0,0:0:0:0:
320,192,15128,1,2,0:0:0:0:
192,192,15128,1,0,0:0:0:0:
64,192,15232,1,0,0:0:0:0:
192,192,15232,1,2,0:0:0:0:
64,192,15335,1,0,0:0:0:0:
448,192,15335,1,2,0:0:0:0:
448,192,15439,1,2,0:0:0:0:
320,192,15439,1,0,0:0:0:0:
64,192,15508,1,0,0:0:0:0:
192,192,15508,1,2,0:0:0:0:
320,192,15577,1,0,0:0:0:0:
448,192,15577,1,2,0:0:0:0:
64,192,15646,1,0,0:0:0:0:
192,192,15646,1,2,0:0:0:0:
320,192,15715,1,0,0:0:0:0:
448,192,15715,1,2,0:0:0:0:
64,192,15784,1,0,0:0:0:0:
192,192,15784,1,2,0:0:0:0:
320,192,15852,1,4,0:0:0:0:
448,192,15852,1,2,0:0:0:0:
64,192,15852,1,0,0:0:0:0:
448,192,16163,1,4,0:0:0:0:
320,192,16163,1,2,0:0:0:0:
64,192,16163,1,0,0:0:0:0:
64,192,16473,1,0,0:0:0:0:
192,192,16473,1,2,0:0:0:0:
448,192,16473,1,4,0:0:0:0:
320,192,16784,128,0,17068:0:0:0:0:
192,192,17068,1,4,0:0:0:0:
448,192,17068,1,2,0:0:0:0:
64,192,17068,1,0,0:0:0:0:
320,192,17197,1,0,0:0:0:0:
192,192,17301,1,0,0:0:0:0:
64,192,17404,1,0,0:0:0:0:
320,192,17404,1,2,0:0:0:0:
64,192,17508,1,0,0:0:0:0:
448,192,17508,1,2,0:0:0:0:
192,192,17611,1,0,0:0:0:0:
320,192,17715,1,0,0:0:0:0:
192,192,17818,1,2,0:0:0:0:
320,192,17818,1,0,0:0:0:0:
64,192,17921,1,2,0:0:0:0:
448,192,17921,128,0,18025:0:0:0:0:
192,192,18025,1,0,0:0:0:0:
448,192,18128,128,0,18232:0:0:0:0:
320,192,18232,1,2,0:0:0:0:
192,192,18232,1,0,0:0:0:0:
320,192,18335,1,2,0:0:0:0:
64,192,18335,128,0,18439:0:0:0:0:
448,192,18439,1,0,0:0:0:0:
192,192,18542,128,0,18646:0:0:0:0:
320,192,18646,1,2,0:0:0:0:
448,192,18646,1,0,0:0:0:0:
192,192,18749,1,2,0:0:0:0:
64,192,18749,128,0,18801:0:0:0:0:
320,192,18852,1,0,0:0:0:0:
64,192,18956,128,0,19008:0:0:0:0:
320,192,19059,1,2,0:0:0:0:
448,192,19059,128,0,19111:0:0:0:0:
192,192,19163,128,0,19215:0:0:0:0:
64,192,19163,1,2,0:0:0:0:
448,192,19266,1,0,0:0:0:0:
192,192,19370,128,0,19473:0:0:0:0:
64,192,19473,1,2,0:0:0:0:
320,192,19473,1,0,0:0:0:0:
448,192,19577,128,0,19628:0:0:0:0:
320,192,19577,1,2,0:0:0:0:
192,192,19680,1,0,0:0:0:0:
448,192,19784,128,0,19887:0:0:0:0:
64,192,19887,1,0,0:0:0:0:
192,192,19887,1,2,0:0:0:0:
448,192,19990,1,2,0:0:0:0:
320,192,19990,128,0,20197:0:0:0:0:
64,192,20094,1,0,0:0:0:0:
192,192,20197,1,0,0:0:0:0:
320,192,20301,128,0,20508:0:0:0:0:
64,192,20301,1,2,0:0:0:0:
64,192,20404,1,0,0:0:0:0:
192,192,20404,1,2,0:0:0:0:
448,192,20508,1,0,0:0:0:0:
192,192,20611,128,0,20715:0:0:0:0:
320,192,20715,1,2,0:0:0:0:
448,192,20715,1,0,0:0:0:0:
64,192,20818,1,2,0:0:0:0:
448,192,20818,128,0,20870:0:0:0:0:
320,192,20921,1,0,0:0:0:0:
192,192,21025,128,0,21128:0:0:0:0:
448,192,21128,1,0,0:0:0:0:
320,192,21128,1,2,0:0:0:0:
64,192,21232,128,0,21284:0:0:0:0:
192,192,21232,1,2,0:0:0:0:
320,192,21335,1,0,0:0:0:0:
64,192,21439,128,0,21542:0:0:0:0:
192,192,21542,1,0,0:0:0:0:
448,192,21542,1,2,0:0:0:0:
64,192,21646,1,0,0:0:0:0:
320,192,21646,1,4,0:0:0:0:
448,192,21646,1,2,0:0:0:0:
192,192,21749,1,0,0:0:0:0:
64,192,21852,1,0,0:0:0:0:
192,192,21956,1,0,0:0:0:0:
448,192,21956,1,2,0:0:0:0:
448,192,22059,1,2,0:0:0:0:
320,192,22059,128,0,22111:0:0:0:0:
64,192,22163,128,0,22215:0:0:0:0:
192,192,22266,128,0,22318:0:0:0:0:
320,192,22370,128,0,22421:0:0:0:0:
448,192,22370,1,2,0:0:0:0:
192,192,22473,1,2,0:0:0:0:
64,192,22473,128,0,22680:0:0:0:0:
320,192,22577,1,0,0:0:0:0:
448,192,22680,128,0,22887:0:0:0:0:
64,192,22784,1,0,0:0:0:0:
320,192,22784,1,2,0:0:0:0:
192,192,22887,128,0,22990:0:0:0:0:
320,192,22887,1,2,0:0:0:0:
64,192,22990,1,0,0:0:0:0:
448,192,23094,128,0,23301:0:0:0:0:
64,192,23197,1,2,0:0:0:0:
192,192,23197,1,0,0:0:0:0:
192,192,23301,1,2,0:0:0:0:
320,192,23301,128,0,23508:0:0:0:0:
64,192,23508,128,0,23559:0:0:0:0:
192,192,23559,128,0,23611:0:0:0:0:
320,192,23611,128,0,23663:0:0:0:0:
448,192,23663,128,0,23715:0:0:0:0:
192,192,23715,1,2,0:0:0:0:
64,192,23715,128,0,23921:0:0:0:0:
320,192,23921,1,0,0:0:0:0:
192,192,24025,1,0,0:0:0:0:
448,192,24025,1,2,0:0:0:0:
448,192,24128,1,2,0:0:0:0:
64,192,24128,128,0,24232:0:0:0:0:
320,192,24232,1,0,0:0:0:0:
192,192,24335,128,0,24439:0:0:0:0:
320,192,24439,1,2,0:0:0:0:
448,192,24439,1,0,0:0:0:0:
192,192,24542,1,2,0:0:0:0:
64,192,24542,128,0,24594:0:0:0:0:
320,192,24646,1,0,0:0:0:0:
64,192,24749,128,0,24852:0:0:0:0:
320,192,24852,1,2,0:0:0:0:
448,192,24852,1,0,0:0:0:0:
64,192,24956,1,2,0:0:0:0:
192,192,24956,128,0,25059:0:0:0:0:
320,192,25059,1,0,0:0:0:0:
448,192,25163,128,0,25266:0:0:0:0:
64,192,25266,1,2,0:0:0:0:
320,192,25266,1,0,0:0:0:0:
192,192,25370,1,2,0:0:0:0:
448,192,25370,128,0,25421:0:0:0:0:
64,192,25473,1,0,0:0:0:0:
448,192,25577,128,0,25628:0:0:0:0:
64,192,25680,1,2,0:0:0:0:
192,192,25680,128,0,25732:0:0:0:0:
64,192,25784,1,2,0:0:0:0:
320,192,25784,128,0,25835:0:0:0:0:
448,192,25887,128,0,25939:0:0:0:0:
320,192,25990,128,0,26042:0:0:0:0:
64,192,26094,1,2,0:0:0:0:
192,192,26094,128,0,26146:0:0:0:0:
320,192,26197,1,2,0:0:0:0:
448,192,26197,128,0,26249:0:0:0:0:
64,192,26301,128,0,26352:0:0:0:0:
448,192,26404,128,0,26508:0:0:0:0:
192,192,26508,1,2,0:0:0:0:
64,192,26508,128,0,26559:0:0:0:0:
448,192,26611,1,2,0:0:0:0:
320,192,26611,128,0,26818:0:0:0:0:
64,192,26715,1,0,0:0:0:0:
192,192,26818,1,0,0:0:0:0:
320,192,26921,128,0,27128:0:0:0:0:
64,192,26921,1,2,0:0:0:0:
64,192,27025,1,0,0:0:0:0:
192,192,27025,1,2,0:0:0:0:
448,192,27128,1,0,0:0:0:0:
192,192,27232,128,0,27335:0:0:0:0:
320,192,27335,1,2,0:0:0:0:
448,192,27335,1,0,0:0:0:0:
192,192,27439,1,2,0:0:0:0:
64,192,27439,128,0,27542:0:0:0:0:
320,192,27542,1,0,0:0:0:0:
448,192,27646,128,0,27749:0:0:0:0:
320,192,27749,1,2,0:0:0:0:
64,192,27749,1,0,0:0:0:0:
64,192,27852,128,0,27904:0:0:0:0:
192,192,27852,1,2,0:0:0:0:
448,192,27956,1,0,0:0:0:0:
64,192,28059,128,0,28163:0:0:0:0:
320,192,28163,1,0,0:0:0:0:
448,192,28163,1,2,0:0:0:0:
64,192,28266,1,0,0:0:0:0:
192,192,28266,1,4,0:0:0:0:
448,192,28266,1,2,0:0:0:0:
320,192,28577,1,0,0:0:0:0:
448,192,28577,1,2,0:0:0:0:
64,192,28680,128,0,28784:0:0:0:0:
192,192,28784,128,0,28887:0:0:0:0:
320,192,28887,128,0,28990:0:0:0:0:
64,192,28990,1,2,0:0:0:0:
192,192,28990,1,0,0:0:0:0:
448,192,29094,128,0,29301:0:0:0:0:
320,192,29301,128,0,29508:0:0:0:0:
64,192,29404,1,2,0:0:0:0:
192,192,29404,1,0,0:0:0:0:
448,192,29508,128,0,29611:0:0:0:0:
64,192,29715,128,0,29818:0:0:0:0:
192,192,29715,1,2,0:0:0:0:
320,192,29818,1,2,0:0:0:0:
448,192,29818,1,0,0:0:0:0:
64,192,29921,1,0,0:0:0:0:
192,192,29921,1,4,0:0:0:0:
448,192,29921,1,2,0:0:0:0:
320,192,30025,1,0,0:0:0:0:
192,192,30128,1,0,0:0:0:0:
320,192,30232,1,0,0:0:0:0:
448,192,30232,1,2,0:0:0:0:
64,192,30335,1,0,0:0:0:0:
448,192,30335,1,2,0:0:0:0:
192,192,30439,1,0,0:0:0:0:
320,192,30542,1,0,0:0:0:0:
64,192,30646,1,2,0:0:0:0:
192,192,30646,1,0,0:0:0:0:
64,192,30749,1,2,0:0:0:0:
448,192,30749,1,0,0:0:0:0:
320,192,30852,1,0,0:0:0:0:
192,192,30956,1,0,0:0:0:0:
64,192,31059,1,0,0:0:0:0:
320,192,31059,1,2,0:0:0:0:
320,192,31163,1,2,0:0:0:0:
448,192,31163,128,0,31215:0:0:0:0:
192,192,31266,1,0,0:0:0:0:
448,192,31370,128,0,31473:0:0:0:0:
64,192,31473,1,0,0:0:0:0:
192,192,31473,1,2,0:0:0:0:
448,192,31577,1,2,0:0:0:0:
320,192,31577,128,0,31680:0:0:0:0:
64,192,31680,1,0,0:0:0:0:
192,192,31784,128,0,31887:0:0:0:0:
448,192,31887,1,0,0:0:0:0:
320,192,31887,1,2,0:0:0:0:
64,192,31990,128,0,32042:0:0:0:0:
192,192,31990,1,2,0:0:0:0:
64,192,32197,128,0,32249:0:0:0:0:
448,192,32301,128,0,32352:0:0:0:0:
192,192,32301,1,2,0:0:0:0:
64,192,32404,128,0,32456:0:0:0:0:
320,192,32404,1,2,0:0:0:0:
448,192,32404,1,4,0:0:0:0:
64,192,32508,128,0,32559:0:0:0:0:
320,192,32508,1,2,0:0:0:0:
448,192,32508,1,4,0:0:0:0:
64,192,32611,128,0,32663:0:0:0:0:
320,192,32611,1,2,0:0:0:0:
448,192,32611,1,4,0:0:0:0:
64,192,32715,128,0,32766:0:0:0:0:
320,192,32715,1,2,0:0:0:0:
448,192,32715,1,4,0:0:0:0:
64,192,32818,128,0,32921:0:0:0:0:
320,192,32818,1,2,0:0:0:0:
448,192,32818,1,4,0:0:0:0:
64,192,33232,1,0,0:0:0:0:
320,192,33232,1,2,0:0:0:0:
448,192,33232,1,4,0:0:0:0:
192,192,33335,1,0,0:0:0:0:
320,192,33439,1,0,0:0:0:0:
192,192,33542,1,2,0:0:0:0:
448,192,33542,1,0,0:0:0:0:
64,192,33646,1,2,0:0:0:0:
448,192,33646,128,0,33697:0:0:0:0:
320,192,33749,1,0,0:0:0:0:
192,192,33852,128,0,33904:0:0:0:0:
64,192,33956,1,0,0:0:0:0:
320,192,33956,1,2,0:0:0:0:
320,192,34059,1,2,0:0:0:0:
448,192,34059,128,0,34111:0:0:0:0:
192,192,34163,1,0,0:0:0:0:
64,192,34266,128,0,34318:0:0:0:0:
192,192,34370,1,2,0:0:0:0:
448,192,34370,1,0,0:0:0:0:
64,192,34473,1,0,0:0:0:0:
192,192,34473,1,2,0:0:0:0:
320,192,34577,1,0,0:0:0:0:
448,192,34680,128,0,34887:0:0:0:0:
64,192,34784,1,0,0:0:0:0:
192,192,34784,1,2,0:0:0:0:
320,192,34887,1,2,0:0:0:0:
64,192,34887,128,0,35094:0:0:0:0:
320,192,35094,128,0,35301:0:0:0:0:
64,192,35197,1,2,0:0:0:0:
448,192,35197,1,0,0:0:0:0:
192,192,35301,128,0,35508:0:0:0:0:
64,192,35301,1,2,0:0:0:0:
448,192,35508,128,0,35715:0:0:0:0:
64,192,35611,1,2,0:0:0:0:
320,192,35611,1,0,0:0:0:0:
192,192,35715,1,4,0:0:0:0:
64,192,35715,1,2,0:0:0:0:
64,192,36025,1,2,0:0:0:0:
192,192,36025,1,4,0:0:0:0:
448,192,36025,1,0,0:0:0:0:
64,192,36335,1,2,0:0:0:0:
192,192,36335,1,4,0:0:0:0:
448,192,36335,1,0,0:0:0:0:
320,192,36542,1,0,0:0:0:0:
448,192,36542,1,2,0:0:0:0:
192,192,36646,1,0,0:0:0:0:
64,192,36749,1,0,0:0:0:0:
320,192,36749,1,2,0:0:0:0:
448,192,36852,1,0,0:0:0:0:
64,192,36956,1,0,0:0:0:0:
192,192,36956,1,2,0:0:0:0:
320,192,37059,1,0,0:0:0:0:
192,192,37163,1,2,0:0:0:0:
448,192,37163,1,0,0:0:0:0:
64,192,37266,1,0,0:0:0:0:
320,192,37370,1,2,0:0:0:0:
448,192,37370,1,0,0:0:0:0:
192,192,37473,1,0,0:0:0:0:
448,192,37577,1,2,0:0:0:0:
64,192,37577,1,0,0:0:0:0:
320,192,37680,1,0,0:0:0:0:
448,192,37784,1,2,0:0:0:0:
192,192,37784,128,0,37835:0:0:0:0:
448,192,37887,1,2,0:0:0:0:
192,192,37887,128,0,37939:0:0:0:0:
64,192,37990,1,2,0:0:0:0:
320,192,37990,128,0,38042:0:0:0:0:
64,192,38094,1,2,0:0:0:0:
320,192,38094,128,0,38146:0:0:0:0:
64,192,38197,1,2,0:0:0:0:
192,192,38197,1,4,0:0:0:0:
448,192,38197,1,0,0:0:0:0:
320,192,38301,1,0,0:0:0:0:
192,192,38404,1,0,0:0:0:0:
64,192,38404,1,2,0:0:0:0:
448,192,38508,1,0,0:0:0:0:
320,192,38611,1,0,0:0:0:0:
192,192,38611,1,2,0:0:0:0:
64,192,38715,1,0,0:0:0:0:
192,192,38818,1,2,0:0:0:0:
448,192,38818,1,0,0:0:0:0:
320,192,38921,1,0,0:0:0:0:
64,192,39025,1,2,0:0:0:0:
448,192,39025,1,0,0:0:0:0:
64,192,39128,1,2,0:0:0:0:
448,192,39128,1,0,0:0:0:0:
192,192,39232,1,2,0:0:0:0:
320,192,39232,1,0,0:0:0:0:
192,192,39335,1,2,0:0:0:0:
320,192,39335,1,0,0:0:0:0:
64,192,39439,128,0,39542:0:0:0:0:
448,192,39439,1,2,0:0:0:0:
320,192,39542,1,2,0:0:0:0:
64,192,39646,128,0,39749:0:0:0:0:
448,192,39646,1,2,0:0:0:0:
320,192,39749,1,2,0:0:0:0:
192,192,39852,1,4,0:0:0:0:
320,192,39852,1,2,0:0:0:0:
64,192,39852,1,0,0:0:0:0:
448,192,39956,1,2,0:0:0:0:
192,192,39956,1,0,0:0:0:0:
320,192,40059,1,0,0:0:0:0:
448,192,40059,1,2,0:0:0:0:
320,192,40163,1,2,0:0:0:0:
64,192,40163,1,0,0:0:0:0:
64,192,40266,1,4,0:0:0:0:
192,192,40266,1,0,0:0:0:0:
448,192,40266,1,2,0:0:0:0:
192,192,40370,1,0,0:0:0:0:
320,192,40370,1,2,0:0:0:0:
320,192,40473,1,2,0:0:0:0:
64,192,40473,1,0,0:0:0:0:
64,192,40577,1,0,0:0:0:0:
448,192,40577,1,2,0:0:0:0:
448,192,40680,1,2,0:0:0:0:
192,192,40680,1,0,0:0:0:0:
320,192,40680,1,4,0:0:0:0:
64,192,40784,1,0,0:0:0:0:
192,192,40784,1,2,0:0:0:0:
448,192,40887,1,2,0:0:0:0:
64,192,40887,1,0,0:0:0:0:
192,192,40939,1,0,0:0:0:0:
320,192,40990,1,0,0:0:0:0:
448,192,40990,1,2,0:0:0:0:
64,192,41094,1,0,0:0:0:0:
192,192,41094,1,2,0:0:0:0:
320,192,41197,1,0,0:0:0:0:
448,192,41197,1,2,0:0:0:0:
64,192,41301,1,0,0:0:0:0:
192,192,41301,1,2,0:0:0:0:
448,192,41352,1,0,0:0:0:0:
320,192,41404,1,2,0:0:0:0:
64,192,41404,1,0,0:0:0:0:
192,192,41456,1,0,0:0:0:0:
448,192,41508,1,2,0:0:0:0:
320,192,41508,1,4,0:0:0:0:
64,192,41508,128,0,41559:0:0:0:0:
64,192,41715,128,0,41766:0:0:0:0:
320,192,41715,1,4,0:0:0:0:
448,192,41715,1,2,0:0:0:0:
64,192,41921,128,0,41973:0:0:0:0:
320,192,41921,1,4,0:0:0:0:
448,192,41921,1,2,0:0:0:0:
64,192,42128,128,0,42180:0:0:0:0:
192,192,42128,1,2,0:0:0:0:
320,192,42128,1,4,0:0:0:0:
64,192,42232,128,0,42439:0:0:0:0:
320,192,42232,1,4,0:0:0:0:
448,192,42232,1,2,0:0:0:0:
448,192,42439,1,2,0:0:0:0:
320,192,42439,1,0,0:0:0:0:
320,192,42542,1,2,0:0:0:0:
192,192,42542,1,0,0:0:0:0:
64,192,42646,1,0,0:0:0:0:
192,192,42646,1,2,0:0:0:0:
448,192,42749,1,0,0:0:0:0:
320,192,42818,1,0,0:0:0:0:
192,192,42887,1,0,0:0:0:0:
64,192,42956,1,0,0:0:0:0:
448,192,43059,1,0,0:0:0:0:
320,192,43163,1,0,0:0:0:0:
192,192,43163,1,2,0:0:0:0:
64,192,43577,1,0,0:0:0:0:
320,192,43990,1,0,0:0:0:0:
448,192,44301,1,0,0:0:0:0:
192,192,44611,1,0,0:0:0:0:
448,192,44818,1,0,0:0:0:0:
320,192,45646,1,0,0:0:0:0:
192,192,45956,1,0,0:0:0:0:
320,192,46266,1,0,0:0:0:0:
448,192,46266,1,2,0:0:0:0:
448,192,46473,1,2,0:0:0:0:
192,192,46473,1,0,0:0:0:0:
64,192,46473,128,0,47715:0:0:0:0:
320,192,47301,1,0,0:0:0:0:
448,192,47611,1,0,0:0:0:0:
320,192,47921,1,0,0:0:0:0:
448,192,48128,1,0,0:0:0:0:
192,192,48128,128,0,48749:0:0:0:0:
320,192,48749,1,2,0:0:0:0:
448,192,48749,1,0,0:0:0:0:
64,192,48818,1,0,0:0:0:0:
192,192,48818,1,2,0:0:0:0:
320,192,48887,1,2,0:0:0:0:
448,192,48887,1,0,0:0:0:0:
64,192,48956,1,0,0:0:0:0:
192,192,48956,1,2,0:0:0:0:
320,192,49163,1,2,0:0:0:0:
448,192,49163,1,0,0:0:0:0:
192,192,49370,1,2,0:0:0:0:
320,192,49370,1,0,0:0:0:0:
64,192,49577,1,2,0:0:0:0:
192,192,49577,1,0,0:0:0:0:
64,192,49784,1,0,0:0:0:0:
320,192,49784,1,4,0:0:0:0:
448,192,49784,1,2,0:0:0:0:
192,192,49887,1,0,0:0:0:0:
320,192,49990,1,0,0:0:0:0:
448,192,50094,1,0,0:0:0:0:
320,192,50197,1,0,0:0:0:0:
192,192,50301,1,0,0:0:0:0:
320,192,50404,1,0,0:0:0:0:
448,192,50508,1,0,0:0:0:0:
64,192,50611,1,0,0:0:0:0:
192,192,50715,1,0,0:0:0:0:
64,192,50818,1,0,0:0:0:0:
448,192,50921,1,0,0:0:0:0:
320,192,51025,1,0,0:0:0:0:
448,192,51128,1,0,0:0:0:0:
64,192,51232,1,0,0:0:0:0:
192,192,51232,1,2,0:0:0:0:
320,192,51335,1,0,0:0:0:0:
448,192,51439,1,4,0:0:0:0:
64,192,51439,1,0,0:0:0:0:
192,192,51439,1,2,0:0:0:0:
320,192,51542,1,0,0:0:0:0:
192,192,51646,1,0,0:0:0:0:
64,192,51749,1,0,0:0:0:0:
192,192,51852,1,0,0:0:0:0:
320,192,51956,1,0,0:0:0:0:
448,192,52059,1,0,0:0:0:0:
320,192,52163,1,0,0:0:0:0:
64,192,52266,1,0,0:0:0:0:
192,192,52266,1,2,0:0:0:0:
448,192,52266,1,4,0:0:0:0:
320,192,52370,1,0,0:0:0:0:
192,192,52473,1,0,0:0:0:0:
320,192,52577,1,2,0:0:0:0:
64,192,52577,1,0,0:0:0:0:
448,192,52577,1,4,0:0:0:0:
192,192,52680,1,0,0:0:0:0:
320,192,52784,1,0,0:0:0:0:
64,192,52887,1,0,0:0:0:0:
192,192,52887,1,2,0:0:0:0:
448,192,52887,1,4,0:0:0:0:
320,192,52990,1,0,0:0:0:0:
64,192,53094,1,0,0:0:0:0:
448,192,53094,1,4,0:0:0:0:
192,192,53094,1,2,0:0:0:0:
320,192,53197,1,0,0:0:0:0:
64,192,53301,1,0,0:0:0:0:
192,192,53404,1,0,0:0:0:0:
448,192,53508,1,0,0:0:0:0:
320,192,53611,1,0,0:0:0:0:
64,192,53715,1,0,0:0:0:0:
192,192,53715,1,2,0:0:0:0:
448,192,53818,1,0,0:0:0:0:
320,192,53818,1,2,0:0:0:0:
64,192,53921,1,0,0:0:0:0:
192,192,53921,1,2,0:0:0:0:
448,192,53921,1,4,0:0:0:0:
320,192,54025,1,0,0:0:0:0:
448,192,54128,1,0,0:0:0:0:
320,192,54180,1,0,0:0:0:0:
192,192,54232,1,0,0:0:0:0:
64,192,54284,1,0,0:0:0:0:
192,192,54335,1,0,0:0:0:0:
320,192,54542,1,2,0:0:0:0:
448,192,54542,1,0,0:0:0:0:
64,192,54646,1,0,0:0:0:0:
192,192,54646,1,2,0:0:0:0:
448,192,54749,1,0,0:0:0:0:
320,192,54749,1,2,0:0:0:0:
64,192,54818,1,0,0:0:0:0:
192,192,54818,1,2,0:0:0:0:
448,192,54887,1,0,0:0:0:0:
320,192,54887,1,2,0:0:0:0:
64,192,54956,1,0,0:0:0:0:
192,192,54956,1,2,0:0:0:0:
320,192,55059,1,2,0:0:0:0:
448,192,55059,1,0,0:0:0:0:
64,192,55137,1,0,0:0:0:0:
448,192,55137,1,4,0:0:0:0:
192,192,55137,1,2,0:0:0:0:
64,192,55577,1,0,0:0:0:0:
320,192,55577,1,4,0:0:0:0:
448,192,55577,1,2,0:0:0:0:
64,192,55990,1,0,0:0:0:0:
192,192,55990,1,2,0:0:0:0:
320,192,55990,1,4,0:0:0:0:
448,192,56404,1,2,0:0:0:0:
64,192,56404,1,4,0:0:0:0:
320,192,56456,1,0,0:0:0:0:
192,192,56508,1,0,0:0:0:0:
64,192,56559,1,0,0:0:0:0:
448,192,56611,1,0,0:0:0:0:
320,192,56663,1,0,0:0:0:0:
192,192,56715,1,0,0:0:0:0:
64,192,56766,1,0,0:0:0:0:
448,192,56818,1,0,0:0:0:0:
320,192,56870,1,0,0:0:0:0:
192,192,56921,1,0,0:0:0:0:
64,192,56973,1,0,0:0:0:0:
448,192,57025,1,0,0:0:0:0:
320,192,57077,1,0,0:0:0:0:
192,192,57128,1,0,0:0:0:0:
64,192,57180,1,0,0:0:0:0:
448,192,57232,1,0,0:0:0:0:
192,192,57542,1,0,0:0:0:0:
320,192,57852,1,0,0:0:0:0:
192,192,57852,1,2,0:0:0:0:
64,192,58059,1,2,0:0:0:0:
448,192,58059,1,4,0:0:0:0:
192,192,58111,1,0,0:0:0:0:
320,192,58163,1,0,0:0:0:0:
448,192,58215,1,0,0:0:0:0:
64,192,58266,1,0,0:0:0:0:
192,192,58318,1,0,0:0:0:0:
320,192,58370,1,0,0:0:0:0:
448,192,58421,1,0,0:0:0:0:
64,192,58473,1,0,0:0:0:0:
192,192,58525,1,0,0:0:0:0:
320,192,58577,1,0,0:0:0:0:
448,192,58628,1,0,0:0:0:0:
64,192,58680,1,0,0:0:0:0:
192,192,58732,1,0,0:0:0:0:
320,192,58784,1,0,0:0:0:0:
448,192,58835,1,0,0:0:0:0:
64,192,58887,1,0,0:0:0:0:
320,192,59197,1,0,0:0:0:0:
192,192,59508,1,0,0:0:0:0:
320,192,59508,1,2,0:0:0:0:
448,192,59715,1,2,0:0:0:0:
192,192,59715,1,4,0:0:0:0:
320,192,59766,1,0,0:0:0:0:
64,192,59818,1,0,0:0:0:0:
192,192,59870,1,0,0:0:0:0:
448,192,59921,1,0,0:0:0:0:
320,192,59973,1,0,0:0:0:0:
64,192,60025,1,0,0:0:0:0:
192,192,60077,1,0,0:0:0:0:
448,192,60128,1,0,0:0:0:0:
320,192,60180,1,0,0:0:0:0:
64,192,60232,1,0,0:0:0:0:
192,192,60284,1,0,0:0:0:0:
448,192,60335,1,0,0:0:0:0:
320,192,60387,1,0,0:0:0:0:
64,192,60439,1,0,0:0:0:0:
192,192,60490,1,0,0:0:0:0:
320,192,60542,1,0,0:0:0:0:
192,192,60852,1,0,0:0:0:0:
320,192,61163,1,2,0:0:0:0:
192,192,61163,1,0,0:0:0:0:
448,192,61370,1,2,0:0:0:0:
192,192,61370,1,4,0:0:0:0:
64,192,61421,1,0,0:0:0:0:
320,192,61473,1,0,0:0:0:0:
448,192,61525,1,0,0:0:0:0:
192,192,61577,1,0,0:0:0:0:
64,192,61628,1,0,0:0:0:0:
320,192,61680,1,0,0:0:0:0:
448,192,61732,1,0,0:0:0:0:
192,192,61784,1,0,0:0:0:0:
64,192,61835,1,0,0:0:0:0:
320,192,61887,1,0,0:0:0:0:
448,192,61939,1,0,0:0:0:0:
64,192,61990,1,0,0:0:0:0:
192,192,61990,1,2,0:0:0:0:
320,192,62094,1,0,0:0:0:0:
192,192,62094,1,2,0:0:0:0:
320,192,62197,1,2,0:0:0:0:
448,192,62197,1,0,0:0:0:0:
320,192,62404,1,2,0:0:0:0:
448,192,62404,1,0,0:0:0:0:
192,192,62611,1,2,0:0:0:0:
320,192,62611,1,0,0:0:0:0:
64,192,62818,1,2,0:0:0:0:
192,192,62818,1,0,0:0:0:0:
64,192,63025,128,0,63128:0:0:0:0:
448,192,63025,1,2,0:0:0:0:
64,192,63335,128,0,63439:0:0:0:0:
64,192,63646,128,0,63749:0:0:0:0:
320,192,63646,1,0,0:0:0:0:
448,192,63646,1,2,0:0:0:0:
192,192,63852,1,4,0:0:0:0:
448,192,63852,1,2,0:0:0:0:
64,192,63956,128,0,64059:0:0:0:0:
64,192,64266,128,0,64370:0:0:0:0:
320,192,64473,1,0,0:0:0:0:
448,192,64473,1,2,0:0:0:0:
64,192,64577,128,0,64680:0:0:0:0:
192,192,64680,1,4,0:0:0:0:
448,192,64680,1,2,0:0:0:0:
64,192,64887,128,0,64990:0:0:0:0:
64,192,65197,128,0,65301:0:0:0:0:
320,192,65301,1,0,0:0:0:0:
448,192,65301,1,2,0:0:0:0:
64,192,65508,128,0,65611:0:0:0:0:
192,192,65508,1,4,0:0:0:0:
448,192,65508,1,2,0:0:0:0:
64,192,65818,128,0,65921:0:0:0:0:
64,192,66128,128,0,66232:0:0:0:0:
320,192,66128,1,0,0:0:0:0:
448,192,66128,1,2,0:0:0:0:
320,192,66335,128,0,66439:0:0:0:0:
192,192,66335,1,2,0:0:0:0:
64,192,66335,1,4,0:0:0:0:
320,192,66749,128,0,66852:0:0:0:0:
192,192,66749,1,2,0:0:0:0:
64,192,66749,1,4,0:0:0:0:
192,192,67163,128,0,67266:0:0:0:0:
320,192,67163,1,2,0:0:0:0:
448,192,67163,1,4,0:0:0:0:
192,192,67577,128,0,67680:0:0:0:0:
320,192,67577,1,2,0:0:0:0:
448,192,67577,1,4,0:0:0:0:
448,192,67990,128,0,68094:0:0:0:0:
64,192,67990,1,2,0:0:0:0:
192,192,67990,1,4,0:0:0:0:
448,192,68197,128,0,68301:0:0:0:0:
64,192,68197,1,2,0:0:0:0:
320,192,68197,1,4,0:0:0:0:
448,192,68404,128,0,68508:0:0:0:0:
192,192,68404,1,2,0:0:0:0:
320,192,68404,1,4,0:0:0:0:
448,192,68611,128,0,68715:0:0:0:0:
64,192,68611,1,2,0:0:0:0:
320,192,68611,1,4,0:0:0:0:
448,192,68818,128,0,68870:0:0:0:0:
320,192,68818,1,2,0:0:0:0:
64,192,68921,128,0,68973:0:0:0:0:
192,192,68921,1,2,0:0:0:0:
320,192,69025,128,0,69077:0:0:0:0:
448,192,69025,1,2,0:0:0:0:
192,192,69128,128,0,69180:0:0:0:0:
64,192,69128,1,2,0:0:0:0:
448,192,69232,1,2,0:0:0:0:
320,192,69284,1,2,0:0:0:0:
192,192,69335,1,2,0:0:0:0:
64,192,69387,1,2,0:0:0:0:
448,192,69439,1,2,0:0:0:0:
320,192,69490,1,2,0:0:0:0:
192,192,69542,1,2,0:0:0:0:
64,192,69594,1,2,0:0:0:0:
320,192,69646,1,4,0:0:0:0:
448,192,69646,1,2,0:0:0:0:
192,192,69646,1,0,0:0:0:0:
320,192,72128,1,4,0:0:0:0:
448,192,72128,1,2,0:0:0:0:
192,192,72128,1,0,0:0:0:0:
64,192,72542,1,0,0:0:0:0:
192,192,72542,1,4,0:0:0:0:
320,192,72542,1,2,0:0:0:0:
192,192,72956,1,4,0:0:0:0:
448,192,72956,1,2,0:0:0:0:
64,192,72956,128,0,73059:0:0:0:0:
320,192,73059,128,0,73163:0:0:0:0:
192,192,73163,128,0,73266:0:0:0:0:
448,192,73266,128,0,73370:0:0:0:0:
64,192,73266,1,2,0:0:0:0:
320,192,73370,128,0,73473:0:0:0:0:
192,192,73370,1,2,0:0:0:0:
448,192,73473,128,0,73577:0:0:0:0:
192,192,73577,128,0,73680:0:0:0:0:
320,192,73680,128,0,73784:0:0:0:0:
64,192,73680,1,2,0:0:0:0:
64,192,73784,128,0,73887:0:0:0:0:
448,192,73784,1,2,0:0:0:0:
448,192,73887,128,0,73990:0:0:0:0:
192,192,73990,128,0,74094:0:0:0:0:
320,192,74094,128,0,74197:0:0:0:0:
64,192,74094,1,2,0:0:0:0:
64,192,74197,128,0,74301:0:0:0:0:
448,192,74197,1,2,0:0:0:0:
192,192,74301,128,0,74404:0:0:0:0:
448,192,74404,128,0,74508:0:0:0:0:
320,192,74508,128,0,74611:0:0:0:0:
64,192,74508,1,2,0:0:0:0:
64,192,74611,128,0,74715:0:0:0:0:
448,192,74611,1,2,0:0:0:0:
192,192,74715,128,0,74818:0:0:0:0:
320,192,74818,128,0,74921:0:0:0:0:
448,192,74921,128,0,75025:0:0:0:0:
64,192,74921,1,2,0:0:0:0:
64,192,75025,128,0,75128:0:0:0:0:
320,192,75025,1,2,0:0:0:0:
192,192,75128,128,0,75232:0:0:0:0:
448,192,75232,128,0,75335:0:0:0:0:
320,192,75335,128,0,75439:0:0:0:0:
64,192,75335,1,2,0:0:0:0:
64,192,75439,128,0,75542:0:0:0:0:
448,192,75439,1,2,0:0:0:0:
192,192,75542,128,0,75646:0:0:0:0:
320,192,75646,128,0,75749:0:0:0:0:
448,192,75749,128,0,75852:0:0:0:0:
64,192,75749,1,2,0:0:0:0:
192,192,75852,128,4,76059:0:0:0:0:
320,192,75852,1,2,0:0:0:0:
64,192,76059,128,0,76163:0:0:0:0:
448,192,76163,1,2,0:0:0:0:
192,192,76163,1,0,0:0:0:0:
64,192,76266,1,2,0:0:0:0:
320,192,76266,128,0,76370:0:0:0:0:
448,192,76370,128,0,76473:0:0:0:0:
192,192,76473,128,0,76577:0:0:0:0:
320,192,76577,128,0,76680:0:0:0:0:
64,192,76577,1,2,0:0:0:0:
64,192,76680,128,0,76784:0:0:0:0:
448,192,76680,1,2,0:0:0:0:
192,192,76784,128,0,76887:0:0:0:0:
448,192,76887,128,0,76990:0:0:0:0:
320,192,76990,128,0,77094:0:0:0:0:
64,192,76990,1,2,0:0:0:0:
64,192,77094,128,0,77197:0:0:0:0:
448,192,77094,1,2,0:0:0:0:
192,192,77197,128,0,77301:0:0:0:0:
320,192,77301,128,0,77404:0:0:0:0:
448,192,77404,128,0,77508:0:0:0:0:
64,192,77404,1,2,0:0:0:0:
192,192,77508,128,0,77611:0:0:0:0:
320,192,77508,1,2,0:0:0:0:
64,192,77611,128,0,77715:0:0:0:0:
320,192,77715,128,0,77818:0:0:0:0:
192,192,77818,128,0,77921:0:0:0:0:
448,192,77818,1,2,0:0:0:0:
448,192,77921,128,0,78025:0:0:0:0:
64,192,77921,1,2,0:0:0:0:
320,192,78025,128,0,78128:0:0:0:0:
64,192,78128,128,0,78232:0:0:0:0:
192,192,78232,128,0,78335:0:0:0:0:
448,192,78232,1,2,0:0:0:0:
320,192,78335,128,0,78439:0:0:0:0:
64,192,78335,1,2,0:0:0:0:
448,192,78439,128,0,78542:0:0:0:0:
64,192,78542,128,0,78646:0:0:0:0:
192,192,78646,128,0,78749:0:0:0:0:
320,192,78646,1,2,0:0:0:0:
448,192,78749,128,0,78852:0:0:0:0:
64,192,78749,1,2,0:0:0:0:
320,192,78852,128,0,78956:0:0:0:0:
192,192,78956,128,0,79059:0:0:0:0:
64,192,79059,128,0,79163:0:0:0:0:
448,192,79059,1,2,0:0:0:0:
448,192,79163,128,4,79370:0:0:0:0:
192,192,79163,1,2,0:0:0:0:
192,192,79370,128,0,79473:0:0:0:0:
320,192,79473,1,2,0:0:0:0:
448,192,79473,1,0,0:0:0:0:
64,192,79577,1,2,0:0:0:0:
448,192,79577,128,4,79680:0:0:0:0:
192,192,79680,128,0,79784:0:0:0:0:
320,192,79784,128,0,79887:0:0:0:0:
448,192,79887,128,0,79990:0:0:0:0:
64,192,79887,1,2,0:0:0:0:
192,192,79990,128,0,80094:0:0:0:0:
320,192,79990,1,2,0:0:0:0:
64,192,80094,128,0,80197:0:0:0:0:
320,192,80197,128,0,80301:0:0:0:0:
448,192,80301,128,0,80404:0:0:0:0:
192,192,80301,1,2,0:0:0:0:
64,192,80404,128,0,80508:0:0:0:0:
320,192,80404,1,2,0:0:0:0:
192,192,80508,128,0,80611:0:0:0:0:
320,192,80611,128,0,80715:0:0:0:0:
448,192,80715,128,0,80818:0:0:0:0:
64,192,80715,1,2,0:0:0:0:
192,192,80818,128,0,80921:0:0:0:0:
320,192,80818,1,2,0:0:0:0:
320,192,80921,128,0,81025:0:0:0:0:
64,192,81025,128,0,81128:0:0:0:0:
192,192,81128,128,0,81232:0:0:0:0:
448,192,81128,1,2,0:0:0:0:
448,192,81232,128,0,81335:0:0:0:0:
64,192,81232,1,2,0:0:0:0:
320,192,81335,128,0,81439:0:0:0:0:
192,192,81439,128,0,81542:0:0:0:0:
64,192,81542,128,0,81646:0:0:0:0:
448,192,81542,1,2,0:0:0:0:
320,192,81646,128,0,81749:0:0:0:0:
192,192,81646,1,2,0:0:0:0:
448,192,81749,128,0,81852:0:0:0:0:
64,192,81852,128,0,81956:0:0:0:0:
192,192,81956,128,0,82059:0:0:0:0:
320,192,81956,1,2,0:0:0:0:
448,192,82059,128,0,82163:0:0:0:0:
64,192,82059,1,2,0:0:0:0:
320,192,82163,128,0,82266:0:0:0:0:
192,192,82266,128,0,82370:0:0:0:0:
64,192,82370,128,0,82473:0:0:0:0:
448,192,82370,1,2,0:0:0:0:
320,192,82473,128,4,82680:0:0:0:0:
192,192,82473,1,2,0:0:0:0:
448,192,82680,128,0,82784:0:0:0:0:
64,192,82784,1,0,0:0:0:0:
192,192,82784,1,2,0:0:0:0:
448,192,82887,1,2,0:0:0:0:
320,192,82887,128,0,82990:0:0:0:0:
192,192,82990,128,0,83094:0:0:0:0:
448,192,83094,128,0,83197:0:0:0:0:
320,192,83197,128,0,83301:0:0:0:0:
64,192,83197,1,2,0:0:0:0:
64,192,83301,128,0,83404:0:0:0:0:
448,192,83301,1,2,0:0:0:0:
192,192,83404,128,0,83508:0:0:0:0:
320,192,83508,128,0,83611:0:0:0:0:
448,192,83611,128,0,83715:0:0:0:0:
64,192,83611,1,2,0:0:0:0:
64,192,83715,128,0,83818:0:0:0:0:
320,192,83715,1,2,0:0:0:0:
192,192,83818,128,0,83921:0:0:0:0:
448,192,83921,128,0,84025:0:0:0:0:
320,192,84025,128,0,84128:0:0:0:0:
64,192,84025,1,2,0:0:0:0:
64,192,84128,128,0,84232:0:0:0:0:
448,192,84128,1,2,0:0:0:0:
192,192,84232,128,0,84335:0:0:0:0:
320,192,84335,128,0,84439:0:0:0:0:
448,192,84439,128,0,84542:0:0:0:0:
64,192,84439,1,2,0:0:0:0:
192,192,84542,128,0,84646:0:0:0:0:
320,192,84542,1,2,0:0:0:0:
448,192,84646,128,0,84749:0:0:0:0:
64,192,84749,128,0,84852:0:0:0:0:
192,192,84852,128,0,84956:0:0:0:0:
448,192,84852,1,2,0:0:0:0:
64,192,84956,1,0,0:0:0:0:
320,192,84956,1,2,0:0:0:0:
448,192,85008,1,0,0:0:0:0:
320,192,85059,1,0,0:0:0:0:
192,192,85111,1,0,0:0:0:0:
64,192,85163,1,0,0:0:0:0:
448,192,85215,1,0,0:0:0:0:
320,192,85266,128,0,85344:0:0:0:0:
64,192,85344,1,2,0:0:0:0:
448,192,85344,1,0,0:0:0:0:
192,192,85344,1,4,0:0:0:0:
64,192,85577,128,0,85628:0:0:0:0:
448,192,85577,1,0,0:0:0:0:
64,192,85680,128,0,85732:0:0:0:0:
192,192,85784,128,0,85835:0:0:0:0:
192,192,85887,128,0,85939:0:0:0:0:
448,192,85990,128,0,86042:0:0:0:0:
64,192,85990,1,2,0:0:0:0:
192,192,86059,1,2,0:0:0:0:
448,192,86094,128,0,86146:0:0:0:0:
64,192,86128,1,2,0:0:0:0:
320,192,86197,1,2,0:0:0:0:
192,192,86197,128,4,86301:0:0:0:0:
448,192,86197,128,0,86249:0:0:0:0:
320,192,86301,128,0,86404:0:0:0:0:
64,192,86404,128,0,86508:0:0:0:0:
192,192,86508,1,2,0:0:0:0:
448,192,86508,128,0,86611:0:0:0:0:
320,192,86611,128,0,86715:0:0:0:0:
64,192,86611,128,2,86663:0:0:0:0:
448,192,86715,128,0,86818:0:0:0:0:
192,192,86818,128,0,86921:0:0:0:0:
64,192,86921,1,2,0:0:0:0:
320,192,86921,128,0,87025:0:0:0:0:
64,192,87025,128,0,87128:0:0:0:0:
448,192,87025,128,2,87077:0:0:0:0:
192,192,87128,128,0,87232:0:0:0:0:
448,192,87232,128,0,87335:0:0:0:0:
64,192,87335,1,2,0:0:0:0:
320,192,87335,128,0,87439:0:0:0:0:
64,192,87439,128,0,87542:0:0:0:0:
448,192,87439,128,2,87490:0:0:0:0:
192,192,87542,128,0,87646:0:0:0:0:
448,192,87646,128,0,87749:0:0:0:0:
320,192,87749,128,0,87852:0:0:0:0:
64,192,87749,1,2,0:0:0:0:
64,192,87852,128,0,87956:0:0:0:0:
448,192,87852,128,2,87904:0:0:0:0:
192,192,87956,128,0,88059:0:0:0:0:
320,192,88059,128,0,88163:0:0:0:0:
448,192,88163,128,0,88266:0:0:0:0:
64,192,88163,1,2,0:0:0:0:
64,192,88266,128,0,88370:0:0:0:0:
320,192,88266,128,2,88318:0:0:0:0:
192,192,88370,128,0,88473:0:0:0:0:
448,192,88473,128,0,88577:0:0:0:0:
64,192,88577,1,2,0:0:0:0:
320,192,88577,128,0,88680:0:0:0:0:
64,192,88680,128,0,88784:0:0:0:0:
448,192,88680,128,2,88732:0:0:0:0:
192,192,88784,128,0,88887:0:0:0:0:
320,192,88887,128,0,88990:0:0:0:0:
64,192,88990,1,2,0:0:0:0:
448,192,88990,128,0,89094:0:0:0:0:
192,192,89094,128,4,89301:0:0:0:0:
320,192,89094,128,2,89146:0:0:0:0:
64,192,89301,128,0,89404:0:0:0:0:
192,192,89404,1,0,0:0:0:0:
448,192,89404,1,2,0:0:0:0:
320,192,89508,128,4,89611:0:0:0:0:
64,192,89508,128,2,89559:0:0:0:0:
448,192,89611,128,0,89715:0:0:0:0:
192,192,89715,128,0,89818:0:0:0:0:
64,192,89818,1,2,0:0:0:0:
320,192,89818,128,0,89921:0:0:0:0:
64,192,89921,128,0,90025:0:0:0:0:
448,192,89921,128,2,89973:0:0:0:0:
192,192,90025,128,0,90128:0:0:0:0:
448,192,90128,128,0,90232:0:0:0:0:
64,192,90232,1,2,0:0:0:0:
320,192,90232,128,0,90335:0:0:0:0:
64,192,90335,128,4,90439:0:0:0:0:
448,192,90335,128,2,90387:0:0:0:0:
192,192,90439,128,0,90542:0:0:0:0:
320,192,90542,128,0,90646:0:0:0:0:
64,192,90646,1,2,0:0:0:0:
448,192,90646,128,0,90749:0:0:0:0:
192,192,90749,128,0,90852:0:0:0:0:
320,192,90749,128,2,90801:0:0:0:0:
64,192,90852,128,0,90956:0:0:0:0:
320,192,90956,128,0,91059:0:0:0:0:
448,192,91059,1,2,0:0:0:0:
192,192,91059,128,0,91163:0:0:0:0:
448,192,91163,128,4,91266:0:0:0:0:
64,192,91163,128,2,91215:0:0:0:0:
320,192,91266,128,0,91370:0:0:0:0:
64,192,91370,128,0,91473:0:0:0:0:
448,192,91473,1,2,0:0:0:0:
192,192,91473,128,0,91577:0:0:0:0:
320,192,91577,128,0,91680:0:0:0:0:
64,192,91577,128,2,91628:0:0:0:0:
448,192,91680,128,0,91784:0:0:0:0:
64,192,91784,128,0,91887:0:0:0:0:
192,192,91887,128,0,91990:0:0:0:0:
448,192,91887,1,2,0:0:0:0:
320,192,91990,128,4,92094:0:0:0:0:
64,192,91990,128,2,92042:0:0:0:0:
448,192,92094,128,0,92197:0:0:0:0:
320,192,92197,128,0,92301:0:0:0:0:
192,192,92301,128,4,92404:0:0:0:0:
448,192,92301,128,2,92352:0:0:0:0:
64,192,92404,128,0,92611:0:0:0:0:
192,192,92611,128,4,92818:0:0:0:0:
448,192,92611,128,2,92663:0:0:0:0:
320,192,92715,1,2,0:0:0:0:
448,192,92818,128,0,93232:0:0:0:0:
64,192,92818,128,0,92921:0:0:0:0:
320,192,92921,128,0,93025:0:0:0:0:
64,192,93025,128,0,93128:0:0:0:0:
192,192,93128,128,0,93232:0:0:0:0:
320,192,93232,128,4,93335:0:0:0:0:
64,192,93232,128,2,93284:0:0:0:0:
448,192,93335,128,0,93439:0:0:0:0:
192,192,93439,128,0,93542:0:0:0:0:
64,192,93439,1,2,0:0:0:0:
320,192,93542,128,0,93646:0:0:0:0:
448,192,93542,1,2,0:0:0:0:
64,192,93646,128,0,93749:0:0:0:0:
448,192,93646,128,2,93697:0:0:0:0:
192,192,93749,128,0,93852:0:0:0:0:
448,192,93852,128,0,93956:0:0:0:0:
64,192,93852,1,2,0:0:0:0:
320,192,93956,128,0,94059:0:0:0:0:
192,192,93956,1,2,0:0:0:0:
64,192,94059,128,0,94163:0:0:0:0:
448,192,94059,128,2,94111:0:0:0:0:
192,192,94163,128,0,94266:0:0:0:0:
320,192,94266,128,0,94370:0:0:0:0:
448,192,94266,1,2,0:0:0:0:
448,192,94370,128,0,94473:0:0:0:0:
64,192,94370,1,2,0:0:0:0:
192,192,94473,128,2,94525:0:0:0:0:
64,192,94473,128,4,94577:0:0:0:0:
320,192,94577,128,0,94680:0:0:0:0:
192,192,94680,128,0,94784:0:0:0:0:
448,192,94680,1,2,0:0:0:0:
448,192,94784,128,0,94887:0:0:0:0:
64,192,94784,1,2,0:0:0:0:
64,192,94887,128,0,94990:0:0:0:0:
320,192,94887,128,2,94939:0:0:0:0:
192,192,94990,128,0,95094:0:0:0:0:
448,192,95094,128,0,95197:0:0:0:0:
64,192,95094,1,2,0:0:0:0:
320,192,95197,128,0,95301:0:0:0:0:
192,192,95197,1,2,0:0:0:0:
64,192,95301,128,4,95404:0:0:0:0:
448,192,95301,128,2,95352:0:0:0:0:
192,192,95404,128,0,95508:0:0:0:0:
320,192,95508,128,0,95611:0:0:0:0:
448,192,95508,1,2,0:0:0:0:
448,192,95611,128,0,95715:0:0:0:0:
64,192,95611,1,2,0:0:0:0:
192,192,95715,128,4,95921:0:0:0:0:
320,192,95715,128,2,95766:0:0:0:0:
64,192,95818,1,0,0:0:0:0:
448,192,95818,1,2,0:0:0:0:
64,192,95921,128,0,96128:0:0:0:0:
320,192,95921,1,2,0:0:0:0:
448,192,96025,1,2,0:0:0:0:
320,192,96025,1,0,0:0:0:0:
448,192,96128,1,2,0:0:0:0:
192,192,96128,128,4,96232:0:0:0:0:
64,192,96232,128,0,96335:0:0:0:0:
320,192,96232,1,2,0:0:0:0:
192,192,96335,128,0,96439:0:0:0:0:
448,192,96335,1,2,0:0:0:0:
320,192,96439,128,0,96542:0:0:0:0:
64,192,96439,1,2,0:0:0:0:
448,192,96542,128,4,96646:0:0:0:0:
192,192,96542,1,2,0:0:0:0:
320,192,96646,128,0,96749:0:0:0:0:
64,192,96646,1,2,0:0:0:0:
192,192,96749,128,0,96852:0:0:0:0:
448,192,96749,1,2,0:0:0:0:
64,192,96852,128,0,96956:0:0:0:0:
320,192,96852,1,2,0:0:0:0:
192,192,96956,128,4,97059:0:0:0:0:
448,192,96956,1,2,0:0:0:0:
320,192,97059,128,0,97163:0:0:0:0:
64,192,97059,1,2,0:0:0:0:
448,192,97163,128,0,97266:0:0:0:0:
192,192,97163,1,2,0:0:0:0:
320,192,97266,128,0,97370:0:0:0:0:
64,192,97266,1,2,0:0:0:0:
192,192,97370,128,4,97473:0:0:0:0:
448,192,97370,1,2,0:0:0:0:
64,192,97473,128,0,97577:0:0:0:0:
320,192,97473,1,2,0:0:0:0:
192,192,97577,128,0,97680:0:0:0:0:
448,192,97577,1,2,0:0:0:0:
320,192,97680,128,0,97784:0:0:0:0:
64,192,97680,1,2,0:0:0:0:
448,192,97784,128,4,97887:0:0:0:0:
192,192,97784,1,2,0:0:0:0:
320,192,97887,128,0,97990:0:0:0:0:
64,192,97887,1,2,0:0:0:0:
192,192,97990,128,0,98094:0:0:0:0:
448,192,97990,1,2,0:0:0:0:
64,192,98094,128,0,98197:0:0:0:0:
320,192,98094,1,2,0:0:0:0:
448,192,98197,1,2,0:0:0:0:
192,192,98197,1,4,0:0:0:0:
320,192,98249,1,0,0:0:0:0:
448,192,98301,1,0,0:0:0:0:
320,192,98352,1,0,0:0:0:0:
192,192,98404,1,0,0:0:0:0:
64,192,98456,1,0,0:0:0:0:
192,192,98508,1,0,0:0:0:0:
320,192,98559,1,0,0:0:0:0:
64,192,98611,1,4,0:0:0:0:
448,192,98611,1,2,0:0:0:0:
64,192,98818,128,0,98870:0:0:0:0:
448,192,98818,1,2,0:0:0:0:
64,192,98921,128,0,98973:0:0:0:0:
192,192,99025,128,0,99077:0:0:0:0:
192,192,99128,128,0,99180:0:0:0:0:
320,192,99232,128,0,99284:0:0:0:0:
64,192,99232,1,2,0:0:0:0:
192,192,99301,1,2,0:0:0:0:
448,192,99335,128,0,99387:0:0:0:0:
64,192,99370,1,2,0:0:0:0:
192,192,99439,1,2,0:0:0:0:
320,192,99439,128,4,99646:0:0:0:0:
64,192,100266,1,0,0:0:0:0:
320,192,100577,1,0,0:0:0:0:
192,192,100887,1,0,0:0:0:0:
448,192,101094,1,0,0:0:0:0:
448,192,101921,1,0,0:0:0:0:
192,192,102232,1,0,0:0:0:0:
320,192,102542,1,0,0:0:0:0:
64,192,102749,1,0,0:0:0:0:
320,192,103577,1,0,0:0:0:0:
64,192,103887,1,0,0:0:0:0:
448,192,104197,1,0,0:0:0:0:
192,192,104404,1,0,0:0:0:0:
64,192,105025,1,0,0:0:0:0:
192,192,105232,1,0,0:0:0:0:
320,192,105542,1,0,0:0:0:0:
448,192,105852,1,0,0:0:0:0:
64,192,106059,1,0,0:0:0:0:
320,192,106887,1,0,0:0:0:0:
448,192,107197,1,0,0:0:0:0:
320,192,107508,1,0,0:0:0:0:
448,192,107715,1,0,0:0:0:0:
192,192,108542,1,0,0:0:0:0:
320,192,108852,1,0,0:0:0:0:
448,192,109163,1,0,0:0:0:0:
64,192,109370,1,0,0:0:0:0:
192,192,109473,1,0,0:0:0:0:
64,192,109577,1,0,0:0:0:0:
192,192,109680,1,0,0:0:0:0:
320,192,109784,1,0,0:0:0:0:
192,192,109887,1,0,0:0:0:0:
64,192,109990,1,0,0:0:0:0:
192,192,110094,1,0,0:0:0:0:
448,192,110197,1,0,0:0:0:0:
320,192,110301,1,0,0:0:0:0:
64,192,110404,1,0,0:0:0:0:
192,192,110473,1,0,0:0:0:0:
320,192,110542,1,0,0:0:0:0:
448,192,110611,1,0,0:0:0:0:
192,192,110818,1,0,0:0:0:0:
448,192,111025,1,0,0:0:0:0:
