osu file format v14

[General]
AudioFilename: audio.mp3
AudioLeadIn: 0
PreviewTime: 85351
Countdown: 0
SampleSet: Soft
StackLeniency: 0.7
Mode: 3
LetterboxInBreaks: 0
SpecialStyle: 0
WidescreenStoryboard: 0

[Editor]
DistanceSpacing: 1
BeatDivisor: 8
GridSize: 4
TimelineZoom: 3.299999

[Metadata]
Title:Paradigm Shift
TitleUnicode:Paradigm Shift
Artist:Morimori Atsushi
ArtistUnicode:Morimori Atsushi
Creator:Ayachi Meme
Version:Shift
Source:
Tags:
BeatmapID:1280994
BeatmapSetID:606351

[Difficulty]
HPDrainRate:7
CircleSize:4
OverallDifficulty:8
ApproachRate:5
SliderMultiplier:1.4
SliderTickRate:1

[Events]
//Background and Video events
0,0,"paradigm.jpg",0,0
//Break Periods
//Storyboard Layer 0 (Background)
//Storyboard Layer 1 (Fail)
//Storyboard Layer 2 (Pass)
//Storyboard Layer 3 (Foreground)
//Storyboard Sound Samples

[TimingPoints]
1765,413.793103448276,4,2,0,50,1,0
43972,-100,4,2,0,5,0,0
46248,-100,4,2,0,30,0,0
46455,-100,4,2,0,60,0,0
69627,-200,4,2,0,60,0,0
72006,-100,4,2,0,60,0,0
72937,-100,4,2,0,60,0,1
85299,-100,4,2,0,60,0,0
86178,-100,4,2,0,60,0,1
98540,-100,4,2,0,60,0,0
100248,-100,4,2,0,5,0,0
109352,-100,4,2,0,25,0,0
111007,-100,4,2,0,5,0,0

[HitObjects]
448,192,1765,5,0,0:0:0:0:
64,192,1765,128,0,1971:0:0:0:0:
320,192,1971,1,0,0:0:0:0:
448,192,2178,128,0,2385:0:0:0:0:
192,192,2178,1,0,0:0:0:0:
64,192,2385,1,0,0:0:0:0:
448,192,2592,1,0,0:0:0:0:
192,192,2592,128,0,3006:0:0:0:0:
320,192,2644,1,0,0:0:0:0:
64,192,2696,1,0,0:0:0:0:
448,192,2747,1,0,0:0:0:0:
320,192,2799,1,0,0:0:0:0:
64,192,2851,1,0,0:0:0:0:
448,192,2902,1,0,0:0:0:0:
320,192,2954,1,0,0:0:0:0:
64,192,3006,128,0,3213:0:0:0:0:
448,192,3058,1,0,0:0:0:0:
320,192,3109,1,0,0:0:0:0:
192,192,3161,1,0,0:0:0:0:
448,192,3213,1,0,0:0:0:0:
448,192,3420,5,0,0:0:0:0:
64,192,3420,1,0,0:0:0:0:
192,192,3523,1,0,0:0:0:0:
448,192,3627,1,0,0:0:0:0:
64,192,3730,1,0,0:0:0:0:
320,192,3730,1,0,0:0:0:0:
192,192,3833,1,0,0:0:0:0:
448,192,3833,1,0,0:0:0:0:
320,192,3937,1,0,0:0:0:0:
192,192,4040,1,0,0:0:0:0:
448,192,4144,1,0,0:0:0:0:
64,192,4144,1,0,0:0:0:0:
320,192,4247,1,0,0:0:0:0:
192,192,4247,1,0,0:0:0:0:
64,192,4351,1,0,0:0:0:0:
448,192,4454,1,0,0:0:0:0:
64,192,4558,1,0,0:0:0:0:
192,192,4558,1,0,0:0:0:0:
448,192,4661,1,0,0:0:0:0:
320,192,4661,1,0,0:0:0:0:
192,192,4765,1,0,0:0:0:0:
64,192,4868,1,0,0:0:0:0:
192,192,4971,1,0,0:0:0:0:
448,192,4971,1,0,0:0:0:0:
320,192,5075,1,0,0:0:0:0:
64,192,5075,1,0,0:0:0:0:
192,192,5178,1,0,0:0:0:0:
320,192,5282,1,0,0:0:0:0:
64,192,5385,1,0,0:0:0:0:
448,192,5385,1,0,0:0:0:0:
320,192,5489,1,0,0:0:0:0:
192,192,5489,1,0,0:0:0:0:
448,192,5592,1,0,0:0:0:0:
320,192,5696,1,0,0:0:0:0:
64,192,5799,1,0,0:0:0:0:
192,192,5799,1,0,0:0:0:0:
448,192,5902,1,0,0:0:0:0:
320,192,5902,1,0,0:0:0:0:
192,192,6006,1,0,0:0:0:0:
64,192,6109,1,0,0:0:0:0:
192,192,6213,1,0,0:0:0:0:
448,192,6213,1,0,0:0:0:0:
320,192,6316,1,0,0:0:0:0:
64,192,6316,1,0,0:0:0:0:
192,192,6420,1,0,0:0:0:0:
320,192,6523,1,0,0:0:0:0:
64,192,6627,1,0,0:0:0:0:
448,192,6627,1,0,0:0:0:0:
320,192,6730,1,0,0:0:0:0:
192,192,6730,128,0,6765:0:0:0:0:
448,192,6833,1,0,0:0:0:0:
64,192,6937,128,0,6971:0:0:0:0:
320,192,7040,1,0,0:0:0:0:
448,192,7040,1,0,0:0:0:0:
64,192,7144,1,0,0:0:0:0:
192,192,7144,1,0,0:0:0:0:
320,192,7247,128,0,7282:0:0:0:0:
448,192,7351,1,0,0:0:0:0:
64,192,7454,1,0,0:0:0:0:
320,192,7454,1,0,0:0:0:0:
448,192,7558,1,0,0:0:0:0:
192,192,7558,128,0,7592:0:0:0:0:
64,192,7661,128,0,7696:0:0:0:0:
320,192,7765,128,0,7799:0:0:0:0:
192,192,7868,1,0,0:0:0:0:
448,192,7868,128,0,7902:0:0:0:0:
320,192,7971,1,0,0:0:0:0:
64,192,7971,1,0,0:0:0:0:
192,192,8075,1,0,0:0:0:0:
448,192,8178,1,0,0:0:0:0:
192,192,8282,1,0,0:0:0:0:
320,192,8282,1,0,0:0:0:0:
448,192,8385,1,0,0:0:0:0:
64,192,8385,1,0,0:0:0:0:
192,192,8489,1,0,0:0:0:0:
448,192,8592,128,0,8627:0:0:0:0:
192,192,8696,1,0,0:0:0:0:
64,192,8696,128,0,8730:0:0:0:0:
320,192,8799,1,0,0:0:0:0:
448,192,8799,128,0,8833:0:0:0:0:
192,192,8902,128,0,8937:0:0:0:0:
64,192,9006,128,0,9040:0:0:0:0:
192,192,9109,1,0,0:0:0:0:
320,192,9109,128,0,9144:0:0:0:0:
64,192,9213,1,0,0:0:0:0:
448,192,9213,128,0,9247:0:0:0:0:
320,192,9316,1,0,0:0:0:0:
64,192,9420,128,0,9454:0:0:0:0:
448,192,9523,1,0,0:0:0:0:
192,192,9523,128,0,9558:0:0:0:0:
320,192,9627,1,0,0:0:0:0:
64,192,9627,1,0,0:0:0:0:
448,192,9730,128,0,9765:0:0:0:0:
320,192,9833,128,0,9868:0:0:0:0:
192,192,9937,1,0,0:0:0:0:
64,192,9937,1,0,0:0:0:0:
320,192,10040,1,0,0:0:0:0:
448,192,10040,1,0,0:0:0:0:
64,192,10144,1,0,0:0:0:0:
192,192,10247,1,0,0:0:0:0:
320,192,10247,1,0,0:0:0:0:
64,192,10351,1,0,0:0:0:0:
320,192,10454,1,0,0:0:0:0:
448,192,10454,1,0,0:0:0:0:
192,192,10558,1,0,0:0:0:0:
320,192,10661,1,0,0:0:0:0:
64,192,10661,1,0,0:0:0:0:
192,192,10765,1,0,0:0:0:0:
64,192,10868,1,0,0:0:0:0:
448,192,10868,1,0,0:0:0:0:
320,192,10971,1,0,0:0:0:0:
448,192,11075,1,0,0:0:0:0:
192,192,11075,1,0,0:0:0:0:
320,192,11178,1,0,0:0:0:0:
192,192,11282,1,0,0:0:0:0:
64,192,11282,1,0,0:0:0:0:
448,192,11385,1,0,0:0:0:0:
320,192,11489,1,0,0:0:0:0:
64,192,11489,1,0,0:0:0:0:
192,192,11592,1,0,0:0:0:0:
448,192,11696,1,0,0:0:0:0:
320,192,11696,1,0,0:0:0:0:
192,192,11799,1,0,0:0:0:0:
64,192,11902,1,0,0:0:0:0:
320,192,11902,1,0,0:0:0:0:
192,192,12006,1,0,0:0:0:0:
64,192,12109,1,0,0:0:0:0:
448,192,12109,1,0,0:0:0:0:
320,192,12213,1,0,0:0:0:0:
192,192,12316,1,0,0:0:0:0:
64,192,12316,1,0,0:0:0:0:
448,192,12420,1,0,0:0:0:0:
320,192,12523,1,0,0:0:0:0:
64,192,12523,1,0,0:0:0:0:
192,192,12627,1,0,0:0:0:0:
448,192,12730,1,0,0:0:0:0:
320,192,12730,1,0,0:0:0:0:
64,192,12833,1,0,0:0:0:0:
192,192,12937,1,0,0:0:0:0:
448,192,12937,1,0,0:0:0:0:
320,192,13040,1,0,0:0:0:0:
192,192,13144,1,0,0:0:0:0:
64,192,13144,1,0,0:0:0:0:
320,192,13247,1,0,0:0:0:0:
64,192,13351,1,0,0:0:0:0:
448,192,13351,1,0,0:0:0:0:
192,192,13454,1,0,0:0:0:0:
64,192,13454,1,0,0:0:0:0:
192,192,13558,1,0,0:0:0:0:
448,192,13558,1,0,0:0:0:0:
64,192,13661,1,0,0:0:0:0:
320,192,13661,1,0,0:0:0:0:
192,192,13765,1,0,0:0:0:0:
320,192,13765,1,0,0:0:0:0:
64,192,13868,1,0,0:0:0:0:
448,192,13868,1,0,0:0:0:0:
320,192,13971,1,0,0:0:0:0:
192,192,13971,1,0,0:0:0:0:
64,192,14075,1,0,0:0:0:0:
192,192,14075,1,0,0:0:0:0:
320,192,14178,1,0,0:0:0:0:
448,192,14178,1,0,0:0:0:0:
64,192,14282,1,0,0:0:0:0:
448,192,14282,1,0,0:0:0:0:
320,192,14385,1,0,0:0:0:0:
192,192,14385,1,0,0:0:0:0:
64,192,14489,1,0,0:0:0:0:
448,192,14489,1,0,0:0:0:0:
448,192,14592,1,0,0:0:0:0:
320,192,14592,1,0,0:0:0:0:
192,192,14696,1,0,0:0:0:0:
64,192,14696,1,0,0:0:0:0:
448,192,14799,1,0,0:0:0:0:
192,192,14799,1,0,0:0:0:0:
64,192,14902,1,0,0:0:0:0:
320,192,14902,1,0,0:0:0:0:
448,192,15006,1,0,0:0:0:0:
320,192,15006,1,0,0:0:0:0:
64,192,15109,1,0,0:0:0:0:
192,192,15109,1,0,0:0:0:0:
448,192,15213,1,0,0:0:0:0:
192,192,15213,1,0,0:0:0:0:
64,192,15316,1,0,0:0:0:0:
320,192,15316,1,0,0:0:0:0:
448,192,15420,1,0,0:0:0:0:
320,192,15489,1,0,0:0:0:0:
64,192,15558,1,0,0:0:0:0:
192,192,15627,1,0,0:0:0:0:
448,192,15696,1,0,0:0:0:0:
320,192,15756,1,0,0:0:0:0:
192,192,15833,128,0,15937:0:0:0:0:
64,192,15833,128,0,15937:0:0:0:0:
320,192,16144,128,0,16247:0:0:0:0:
192,192,16144,128,0,16247:0:0:0:0:
320,192,16454,128,0,16558:0:0:0:0:
448,192,16454,128,0,16558:0:0:0:0:
64,192,16765,128,0,17075:0:0:0:0:
448,192,17075,1,0,0:0:0:0:
192,192,17075,1,0,0:0:0:0:
320,192,17178,1,0,0:0:0:0:
64,192,17282,1,0,0:0:0:0:
448,192,17385,1,0,0:0:0:0:
192,192,17385,1,0,0:0:0:0:
64,192,17489,1,0,0:0:0:0:
320,192,17489,1,0,0:0:0:0:
192,192,17592,1,0,0:0:0:0:
320,192,17696,1,0,0:0:0:0:
192,192,17799,1,0,0:0:0:0:
448,192,17799,1,0,0:0:0:0:
64,192,17902,1,0,0:0:0:0:
320,192,17902,128,0,18006:0:0:0:0:
448,192,18006,1,0,0:0:0:0:
192,192,18109,128,0,18213:0:0:0:0:
448,192,18213,1,0,0:0:0:0:
64,192,18316,1,0,0:0:0:0:
320,192,18316,1,0,0:0:0:0:
192,192,18420,1,0,0:0:0:0:
320,192,18523,1,0,0:0:0:0:
64,192,18627,1,0,0:0:0:0:
448,192,18627,1,0,0:0:0:0:
192,192,18730,1,0,0:0:0:0:
320,192,18730,1,0,0:0:0:0:
64,192,18833,1,0,0:0:0:0:
320,192,18937,1,0,0:0:0:0:
448,192,19040,1,0,0:0:0:0:
192,192,19040,1,0,0:0:0:0:
320,192,19144,1,0,0:0:0:0:
64,192,19144,1,0,0:0:0:0:
192,192,19247,1,0,0:0:0:0:
448,192,19351,1,0,0:0:0:0:
320,192,19454,1,0,0:0:0:0:
64,192,19454,1,0,0:0:0:0:
192,192,19558,1,0,0:0:0:0:
448,192,19558,128,0,19661:0:0:0:0:
320,192,19661,1,0,0:0:0:0:
64,192,19765,128,0,19868:0:0:0:0:
320,192,19868,1,0,0:0:0:0:
192,192,19971,1,0,0:0:0:0:
448,192,19971,128,0,20075:0:0:0:0:
64,192,20075,1,0,0:0:0:0:
320,192,20178,1,0,0:0:0:0:
192,192,20282,1,0,0:0:0:0:
448,192,20282,128,0,20385:0:0:0:0:
64,192,20385,1,0,0:0:0:0:
192,192,20489,1,0,0:0:0:0:
320,192,20592,128,0,20696:0:0:0:0:
448,192,20696,1,0,0:0:0:0:
192,192,20696,1,0,0:0:0:0:
320,192,20799,1,0,0:0:0:0:
64,192,20799,1,0,0:0:0:0:
192,192,20902,1,0,0:0:0:0:
448,192,21006,128,0,21109:0:0:0:0:
320,192,21006,1,0,0:0:0:0:
192,192,21109,1,0,0:0:0:0:
64,192,21213,1,0,0:0:0:0:
320,192,21213,128,0,21316:0:0:0:0:
192,192,21316,1,0,0:0:0:0:
448,192,21420,128,0,21523:0:0:0:0:
192,192,21523,1,0,0:0:0:0:
64,192,21627,1,0,0:0:0:0:
320,192,21627,1,0,0:0:0:0:
192,192,21730,1,0,0:0:0:0:
320,192,21833,1,0,0:0:0:0:
448,192,21937,1,0,0:0:0:0:
192,192,21937,1,0,0:0:0:0:
320,192,22040,1,0,0:0:0:0:
64,192,22040,128,0,22075:0:0:0:0:
448,192,22144,1,0,0:0:0:0:
192,192,22144,128,0,22178:0:0:0:0:
320,192,22247,128,0,22282:0:0:0:0:
64,192,22247,1,0,0:0:0:0:
448,192,22351,128,0,22385:0:0:0:0:
192,192,22351,1,0,0:0:0:0:
320,192,22454,1,0,0:0:0:0:
64,192,22454,1,0,0:0:0:0:
192,192,22558,1,0,0:0:0:0:
320,192,22661,1,0,0:0:0:0:
448,192,22765,1,0,0:0:0:0:
192,192,22765,1,0,0:0:0:0:
64,192,22868,1,0,0:0:0:0:
320,192,22868,1,0,0:0:0:0:
192,192,23075,128,0,23178:0:0:0:0:
320,192,23178,1,0,0:0:0:0:
64,192,23282,1,0,0:0:0:0:
448,192,23282,1,0,0:0:0:0:
320,192,23385,1,0,0:0:0:0:
192,192,23489,1,0,0:0:0:0:
320,192,23592,1,0,0:0:0:0:
64,192,23592,1,0,0:0:0:0:
192,192,23696,1,0,0:0:0:0:
448,192,23696,1,0,0:0:0:0:
320,192,23799,1,0,0:0:0:0:
192,192,23902,1,0,0:0:0:0:
64,192,24006,1,0,0:0:0:0:
448,192,24006,1,0,0:0:0:0:
320,192,24109,1,0,0:0:0:0:
192,192,24109,1,0,0:0:0:0:
448,192,24213,1,0,0:0:0:0:
192,192,24316,1,0,0:0:0:0:
448,192,24420,1,0,0:0:0:0:
64,192,24420,1,0,0:0:0:0:
320,192,24523,1,0,0:0:0:0:
192,192,24523,128,0,24627:0:0:0:0:
448,192,24627,1,0,0:0:0:0:
64,192,24730,128,0,24833:0:0:0:0:
320,192,24833,1,0,0:0:0:0:
448,192,24937,1,0,0:0:0:0:
192,192,24937,1,0,0:0:0:0:
320,192,25040,1,0,0:0:0:0:
448,192,25144,1,0,0:0:0:0:
320,192,25247,1,0,0:0:0:0:
64,192,25247,1,0,0:0:0:0:
448,192,25351,1,0,0:0:0:0:
192,192,25351,1,0,0:0:0:0:
64,192,25454,1,0,0:0:0:0:
192,192,25558,1,0,0:0:0:0:
320,192,25661,1,0,0:0:0:0:
448,192,25661,1,0,0:0:0:0:
192,192,25765,1,0,0:0:0:0:
64,192,25765,1,0,0:0:0:0:
448,192,25868,1,0,0:0:0:0:
320,192,25971,1,0,0:0:0:0:
192,192,26075,1,0,0:0:0:0:
448,192,26075,1,0,0:0:0:0:
64,192,26178,128,0,26282:0:0:0:0:
320,192,26178,1,0,0:0:0:0:
192,192,26282,1,0,0:0:0:0:
320,192,26385,128,0,26489:0:0:0:0:
64,192,26489,1,0,0:0:0:0:
448,192,26592,1,0,0:0:0:0:
192,192,26592,128,0,26696:0:0:0:0:
320,192,26696,1,0,0:0:0:0:
64,192,26799,1,0,0:0:0:0:
192,192,26902,1,0,0:0:0:0:
448,192,26902,128,0,27006:0:0:0:0:
320,192,27006,1,0,0:0:0:0:
192,192,27109,1,0,0:0:0:0:
448,192,27213,128,0,27316:0:0:0:0:
64,192,27316,1,0,0:0:0:0:
320,192,27316,1,0,0:0:0:0:
448,192,27420,1,0,0:0:0:0:
192,192,27420,1,0,0:0:0:0:
320,192,27523,1,0,0:0:0:0:
64,192,27627,1,0,0:0:0:0:
192,192,27627,128,0,27730:0:0:0:0:
448,192,27730,1,0,0:0:0:0:
64,192,27833,1,0,0:0:0:0:
320,192,27833,128,0,27937:0:0:0:0:
448,192,27937,1,0,0:0:0:0:
192,192,28040,128,0,28144:0:0:0:0:
64,192,28144,1,0,0:0:0:0:
320,192,28247,1,0,0:0:0:0:
448,192,28247,1,0,0:0:0:0:
192,192,28351,1,0,0:0:0:0:
448,192,28454,1,0,0:0:0:0:
192,192,28558,1,0,0:0:0:0:
64,192,28558,1,0,0:0:0:0:
320,192,28661,1,0,0:0:0:0:
448,192,28661,128,0,28696:0:0:0:0:
64,192,28765,128,0,28799:0:0:0:0:
192,192,28765,1,0,0:0:0:0:
320,192,28868,128,0,28902:0:0:0:0:
448,192,28868,1,0,0:0:0:0:
192,192,28971,128,0,29006:0:0:0:0:
64,192,28971,1,0,0:0:0:0:
320,192,29075,1,0,0:0:0:0:
448,192,29075,128,0,29178:0:0:0:0:
64,192,29178,1,0,0:0:0:0:
320,192,29282,1,0,0:0:0:0:
448,192,29282,128,0,29385:0:0:0:0:
192,192,29385,1,0,0:0:0:0:
64,192,29489,1,0,0:0:0:0:
448,192,29489,128,0,29592:0:0:0:0:
320,192,29592,1,0,0:0:0:0:
448,192,29696,128,0,29799:0:0:0:0:
64,192,29696,1,0,0:0:0:0:
192,192,29799,1,0,0:0:0:0:
64,192,29902,1,0,0:0:0:0:
320,192,29902,1,0,0:0:0:0:
448,192,30006,1,0,0:0:0:0:
64,192,30109,1,0,0:0:0:0:
192,192,30213,1,0,0:0:0:0:
448,192,30213,1,0,0:0:0:0:
320,192,30316,1,0,0:0:0:0:
64,192,30316,1,0,0:0:0:0:
192,192,30420,1,0,0:0:0:0:
448,192,30523,1,0,0:0:0:0:
64,192,30627,1,0,0:0:0:0:
192,192,30627,1,0,0:0:0:0:
320,192,30730,1,0,0:0:0:0:
448,192,30730,1,0,0:0:0:0:
64,192,30833,1,0,0:0:0:0:
192,192,30937,1,0,0:0:0:0:
64,192,31040,1,0,0:0:0:0:
320,192,31040,1,0,0:0:0:0:
192,192,31144,1,0,0:0:0:0:
448,192,31144,128,0,31247:0:0:0:0:
320,192,31247,1,0,0:0:0:0:
64,192,31351,128,0,31454:0:0:0:0:
448,192,31454,1,0,0:0:0:0:
320,192,31558,1,0,0:0:0:0:
192,192,31558,1,0,0:0:0:0:
448,192,31661,1,0,0:0:0:0:
192,192,31765,1,0,0:0:0:0:
64,192,31868,1,0,0:0:0:0:
320,192,31868,1,0,0:0:0:0:
448,192,31971,1,0,0:0:0:0:
192,192,31971,1,0,0:0:0:0:
320,192,32075,1,0,0:0:0:0:
448,192,32178,1,0,0:0:0:0:
320,192,32282,1,0,0:0:0:0:
192,192,32282,1,0,0:0:0:0:
448,192,32385,1,0,0:0:0:0:
64,192,32385,128,0,32411:0:0:0:0:
64,192,32489,128,0,32515:0:0:0:0:
320,192,32489,1,0,0:0:0:0:
448,192,32592,1,0,0:0:0:0:
64,192,32592,128,0,32618:0:0:0:0:
64,192,32696,128,0,32721:0:0:0:0:
320,192,32696,1,0,0:0:0:0:
64,192,32799,128,0,33006:0:0:0:0:
448,192,32799,128,0,33006:0:0:0:0:
448,192,33213,1,0,0:0:0:0:
192,192,33213,1,0,0:0:0:0:
64,192,33213,128,0,33420:0:0:0:0:
320,192,33316,1,0,0:0:0:0:
192,192,33420,1,0,0:0:0:0:
448,192,33523,1,0,0:0:0:0:
320,192,33523,1,0,0:0:0:0:
192,192,33627,1,0,0:0:0:0:
64,192,33627,1,0,0:0:0:0:
320,192,33730,1,0,0:0:0:0:
448,192,33833,1,0,0:0:0:0:
64,192,33937,1,0,0:0:0:0:
320,192,33937,1,0,0:0:0:0:
448,192,34040,1,0,0:0:0:0:
192,192,34040,1,0,0:0:0:0:
320,192,34170,1,0,0:0:0:0:
192,192,34247,128,0,34351:0:0:0:0:
448,192,34351,1,0,0:0:0:0:
320,192,34454,1,0,0:0:0:0:
64,192,34454,1,0,0:0:0:0:
192,192,34558,1,0,0:0:0:0:
320,192,34661,1,0,0:0:0:0:
192,192,34765,1,0,0:0:0:0:
448,192,34765,1,0,0:0:0:0:
64,192,34868,1,0,0:0:0:0:
320,192,34868,128,0,35075:0:0:0:0:
448,192,35075,128,0,35282:0:0:0:0:
64,192,35178,1,0,0:0:0:0:
320,192,35282,1,0,0:0:0:0:
192,192,35282,128,0,35489:0:0:0:0:
64,192,35489,128,0,35696:0:0:0:0:
448,192,35592,1,0,0:0:0:0:
192,192,35696,1,0,0:0:0:0:
320,192,35696,128,0,35799:0:0:0:0:
64,192,36006,1,0,0:0:0:0:
320,192,36006,128,0,36109:0:0:0:0:
192,192,36316,1,0,0:0:0:0:
320,192,36316,128,0,36420:0:0:0:0:
64,192,36523,1,0,0:0:0:0:
192,192,36523,1,0,0:0:0:0:
448,192,36523,1,0,0:0:0:0:
320,192,36730,1,0,0:0:0:0:
64,192,36730,1,0,0:0:0:0:
192,192,36833,1,0,0:0:0:0:
448,192,36833,1,0,0:0:0:0:
64,192,36937,1,0,0:0:0:0:
192,192,36937,1,0,0:0:0:0:
320,192,36937,1,0,0:0:0:0:
64,192,37144,1,0,0:0:0:0:
192,192,37144,1,0,0:0:0:0:
448,192,37247,1,0,0:0:0:0:
320,192,37247,1,0,0:0:0:0:
192,192,37351,1,0,0:0:0:0:
320,192,37351,1,0,0:0:0:0:
64,192,37351,1,0,0:0:0:0:
64,192,37454,1,0,0:0:0:0:
448,192,37454,1,0,0:0:0:0:
320,192,37558,1,0,0:0:0:0:
192,192,37558,1,0,0:0:0:0:
64,192,37661,1,0,0:0:0:0:
448,192,37661,1,0,0:0:0:0:
192,192,37765,1,0,0:0:0:0:
448,192,37765,128,0,37790:0:0:0:0:
320,192,37765,1,0,0:0:0:0:
64,192,37868,1,0,0:0:0:0:
448,192,37868,128,0,37894:0:0:0:0:
192,192,37971,1,0,0:0:0:0:
448,192,37971,128,0,37997:0:0:0:0:
64,192,38075,1,0,0:0:0:0:
448,192,38075,128,0,38101:0:0:0:0:
320,192,38178,1,0,0:0:0:0:
192,192,38178,1,0,0:0:0:0:
448,192,38178,1,0,0:0:0:0:
448,192,38385,1,0,0:0:0:0:
192,192,38385,1,0,0:0:0:0:
320,192,38489,1,0,0:0:0:0:
64,192,38489,1,0,0:0:0:0:
448,192,38592,1,0,0:0:0:0:
320,192,38592,1,0,0:0:0:0:
192,192,38592,1,0,0:0:0:0:
192,192,38799,1,0,0:0:0:0:
320,192,38799,1,0,0:0:0:0:
64,192,38902,1,0,0:0:0:0:
448,192,38902,1,0,0:0:0:0:
320,192,39006,1,0,0:0:0:0:
192,192,39006,1,0,0:0:0:0:
448,192,39006,1,0,0:0:0:0:
64,192,39109,1,0,0:0:0:0:
192,192,39109,1,0,0:0:0:0:
320,192,39213,1,0,0:0:0:0:
448,192,39213,1,0,0:0:0:0:
320,192,39316,1,0,0:0:0:0:
64,192,39316,1,0,0:0:0:0:
192,192,39420,128,0,39523:0:0:0:0:
448,192,39420,1,0,0:0:0:0:
64,192,39523,1,0,0:0:0:0:
320,192,39523,128,0,39627:0:0:0:0:
448,192,39627,1,0,0:0:0:0:
192,192,39627,128,0,39730:0:0:0:0:
320,192,39730,128,0,39833:0:0:0:0:
64,192,39730,1,0,0:0:0:0:
64,192,39833,1,0,0:0:0:0:
448,192,39833,1,0,0:0:0:0:
64,192,39937,1,0,0:0:0:0:
192,192,39937,1,0,0:0:0:0:
448,192,39937,1,0,0:0:0:0:
448,192,40040,1,0,0:0:0:0:
320,192,40040,1,0,0:0:0:0:
64,192,40040,1,0,0:0:0:0:
448,192,40144,1,0,0:0:0:0:
64,192,40144,1,0,0:0:0:0:
192,192,40144,1,0,0:0:0:0:
320,192,40247,1,0,0:0:0:0:
64,192,40247,1,0,0:0:0:0:
448,192,40247,1,0,0:0:0:0:
192,192,40351,1,0,0:0:0:0:
64,192,40351,1,0,0:0:0:0:
448,192,40351,1,0,0:0:0:0:
320,192,40454,1,0,0:0:0:0:
448,192,40454,1,0,0:0:0:0:
64,192,40454,1,0,0:0:0:0:
192,192,40558,1,0,0:0:0:0:
64,192,40558,1,0,0:0:0:0:
448,192,40558,1,0,0:0:0:0:
64,192,40661,1,0,0:0:0:0:
320,192,40661,1,0,0:0:0:0:
448,192,40661,1,0,0:0:0:0:
448,192,40765,1,0,0:0:0:0:
192,192,40765,1,0,0:0:0:0:
64,192,40765,1,0,0:0:0:0:
192,192,40868,1,0,0:0:0:0:
448,192,40868,1,0,0:0:0:0:
320,192,40920,1,0,0:0:0:0:
64,192,40971,1,0,0:0:0:0:
192,192,41023,1,0,0:0:0:0:
64,192,41075,1,0,0:0:0:0:
320,192,41075,1,0,0:0:0:0:
448,192,41075,1,0,0:0:0:0:
192,192,41178,1,0,0:0:0:0:
320,192,41178,1,0,0:0:0:0:
64,192,41178,1,0,0:0:0:0:
448,192,41282,1,0,0:0:0:0:
64,192,41282,1,0,0:0:0:0:
192,192,41282,1,0,0:0:0:0:
320,192,41333,1,0,0:0:0:0:
192,192,41385,1,0,0:0:0:0:
64,192,41437,1,0,0:0:0:0:
192,192,41489,1,0,0:0:0:0:
448,192,41489,128,0,41592:0:0:0:0:
320,192,41489,128,0,41515:0:0:0:0:
320,192,41696,128,0,41799:0:0:0:0:
64,192,41696,1,0,0:0:0:0:
192,192,41696,128,0,41721:0:0:0:0:
320,192,41902,128,0,41928:0:0:0:0:
448,192,41902,1,0,0:0:0:0:
192,192,41902,128,0,42006:0:0:0:0:
64,192,42109,128,0,42135:0:0:0:0:
320,192,42109,128,0,42135:0:0:0:0:
448,192,42109,128,0,42135:0:0:0:0:
64,192,42213,128,0,42368:0:0:0:0:
320,192,42213,128,0,42368:0:0:0:0:
448,192,42213,128,0,42368:0:0:0:0:
64,192,42420,1,0,0:0:0:0:
320,192,42420,1,0,0:0:0:0:
448,192,42497,1,0,0:0:0:0:
64,192,42575,1,0,0:0:0:0:
448,192,42678,1,0,0:0:0:0:
192,192,42730,1,0,0:0:0:0:
64,192,42782,1,0,0:0:0:0:
320,192,42833,1,0,0:0:0:0:
448,192,42885,1,0,0:0:0:0:
192,192,42937,1,0,0:0:0:0:
320,192,43040,1,0,0:0:0:0:
64,192,43144,1,0,0:0:0:0:
192,192,43144,1,0,0:0:0:0:
448,192,43144,1,0,0:0:0:0:
192,192,43971,128,0,44282:0:0:0:0:
448,192,44282,128,0,44592:0:0:0:0:
192,192,44592,128,0,44799:0:0:0:0:
320,192,44799,128,0,45627:0:0:0:0:
64,192,45627,128,0,45937:0:0:0:0:
320,192,45937,128,0,46247:0:0:0:0:
64,192,46247,1,0,0:0:0:0:
448,192,46247,1,0,0:0:0:0:
64,192,46454,128,0,46506:0:0:0:0:
192,192,46506,128,0,46558:0:0:0:0:
448,192,46558,128,0,46609:0:0:0:0:
320,192,46609,128,0,46661:0:0:0:0:
64,192,46661,128,0,46713:0:0:0:0:
192,192,46713,128,0,46765:0:0:0:0:
448,192,46765,128,0,46816:0:0:0:0:
320,192,46816,128,0,46868:0:0:0:0:
64,192,46868,128,0,46920:0:0:0:0:
192,192,46920,128,0,46971:0:0:0:0:
448,192,46971,128,0,47023:0:0:0:0:
320,192,47023,128,0,47075:0:0:0:0:
64,192,47075,128,0,47127:0:0:0:0:
192,192,47127,128,0,47178:0:0:0:0:
448,192,47178,128,0,47230:0:0:0:0:
320,192,47230,128,0,47282:0:0:0:0:
64,192,47282,128,0,47333:0:0:0:0:
192,192,47333,128,0,47385:0:0:0:0:
448,192,47385,128,0,47437:0:0:0:0:
320,192,47437,128,0,47489:0:0:0:0:
64,192,47489,128,0,47540:0:0:0:0:
192,192,47540,128,0,47592:0:0:0:0:
448,192,47592,128,0,47644:0:0:0:0:
320,192,47644,128,0,47696:0:0:0:0:
192,192,47902,1,0,0:0:0:0:
64,192,48109,128,0,48523:0:0:0:0:
448,192,48109,128,0,48523:0:0:0:0:
64,192,48730,1,0,0:0:0:0:
192,192,48799,1,0,0:0:0:0:
320,192,48868,1,0,0:0:0:0:
448,192,48937,1,0,0:0:0:0:
192,192,49144,1,0,0:0:0:0:
448,192,49351,1,0,0:0:0:0:
64,192,49558,1,0,0:0:0:0:
320,192,49765,1,0,0:0:0:0:
64,192,49868,1,0,0:0:0:0:
320,192,49971,1,0,0:0:0:0:
64,192,50075,1,0,0:0:0:0:
448,192,50178,1,0,0:0:0:0:
192,192,50282,1,0,0:0:0:0:
448,192,50385,1,0,0:0:0:0:
192,192,50489,1,0,0:0:0:0:
64,192,50592,1,0,0:0:0:0:
448,192,50696,1,0,0:0:0:0:
64,192,50799,1,0,0:0:0:0:
448,192,50902,1,0,0:0:0:0:
320,192,51006,1,0,0:0:0:0:
192,192,51109,1,0,0:0:0:0:
64,192,51213,1,0,0:0:0:0:
448,192,51213,1,0,0:0:0:0:
64,192,51420,1,0,0:0:0:0:
448,192,51420,1,0,0:0:0:0:
192,192,51523,1,0,0:0:0:0:
320,192,51627,1,0,0:0:0:0:
192,192,51730,1,0,0:0:0:0:
320,192,51833,1,0,0:0:0:0:
64,192,51937,1,0,0:0:0:0:
320,192,52040,1,0,0:0:0:0:
64,192,52144,1,0,0:0:0:0:
320,192,52247,1,0,0:0:0:0:
448,192,52247,1,0,0:0:0:0:
64,192,52351,1,0,0:0:0:0:
320,192,52454,1,0,0:0:0:0:
64,192,52558,1,0,0:0:0:0:
192,192,52558,1,0,0:0:0:0:
448,192,52661,1,0,0:0:0:0:
320,192,52765,1,0,0:0:0:0:
448,192,52868,1,0,0:0:0:0:
64,192,52868,1,0,0:0:0:0:
64,192,53075,1,0,0:0:0:0:
448,192,53075,1,0,0:0:0:0:
320,192,53178,1,0,0:0:0:0:
192,192,53282,1,0,0:0:0:0:
448,192,53385,1,0,0:0:0:0:
64,192,53489,1,0,0:0:0:0:
320,192,53592,1,0,0:0:0:0:
192,192,53696,1,0,0:0:0:0:
64,192,53696,1,0,0:0:0:0:
448,192,53799,1,0,0:0:0:0:
320,192,53799,1,0,0:0:0:0:
192,192,53902,1,0,0:0:0:0:
64,192,53902,1,0,0:0:0:0:
320,192,54006,1,0,0:0:0:0:
64,192,54109,1,0,0:0:0:0:
320,192,54161,1,0,0:0:0:0:
448,192,54265,1,0,0:0:0:0:
192,192,54316,1,0,0:0:0:0:
320,192,54420,1,0,0:0:0:0:
64,192,54523,1,0,0:0:0:0:
448,192,54523,1,0,0:0:0:0:
320,192,54627,1,0,0:0:0:0:
192,192,54627,1,0,0:0:0:0:
448,192,54730,1,0,0:0:0:0:
64,192,54730,1,0,0:0:0:0:
320,192,54799,1,0,0:0:0:0:
64,192,54868,1,0,0:0:0:0:
192,192,54937,1,0,0:0:0:0:
448,192,55040,1,0,0:0:0:0:
192,192,55144,1,0,0:0:0:0:
64,192,55144,1,0,0:0:0:0:
320,192,55558,1,0,0:0:0:0:
448,192,55558,1,0,0:0:0:0:
64,192,55971,1,0,0:0:0:0:
192,192,55971,1,0,0:0:0:0:
448,192,56385,128,0,56437:0:0:0:0:
320,192,56437,128,0,56489:0:0:0:0:
64,192,56489,128,0,56540:0:0:0:0:
192,192,56540,128,0,56592:0:0:0:0:
448,192,56592,128,0,56644:0:0:0:0:
320,192,56644,128,0,56696:0:0:0:0:
64,192,56696,128,0,56747:0:0:0:0:
192,192,56747,128,0,56799:0:0:0:0:
448,192,56799,128,0,56851:0:0:0:0:
320,192,56851,128,0,56902:0:0:0:0:
64,192,56902,128,0,56954:0:0:0:0:
192,192,56954,128,0,57006:0:0:0:0:
448,192,57006,128,0,57058:0:0:0:0:
320,192,57058,128,0,57109:0:0:0:0:
64,192,57109,128,0,57161:0:0:0:0:
192,192,57161,128,0,57213:0:0:0:0:
448,192,57213,1,0,0:0:0:0:
64,192,57316,1,0,0:0:0:0:
448,192,57420,1,0,0:0:0:0:
192,192,57523,1,0,0:0:0:0:
64,192,57627,1,0,0:0:0:0:
320,192,57833,1,0,0:0:0:0:
320,192,58040,128,0,58092:0:0:0:0:
448,192,58092,128,0,58144:0:0:0:0:
192,192,58144,128,0,58196:0:0:0:0:
64,192,58196,128,0,58247:0:0:0:0:
320,192,58247,128,0,58299:0:0:0:0:
448,192,58299,128,0,58351:0:0:0:0:
192,192,58351,128,0,58402:0:0:0:0:
64,192,58402,128,0,58454:0:0:0:0:
320,192,58454,128,0,58506:0:0:0:0:
448,192,58506,128,0,58558:0:0:0:0:
192,192,58558,128,0,58609:0:0:0:0:
64,192,58609,128,0,58661:0:0:0:0:
320,192,58661,128,0,58713:0:0:0:0:
448,192,58713,128,0,58765:0:0:0:0:
192,192,58765,128,0,58816:0:0:0:0:
64,192,58816,128,0,58868:0:0:0:0:
320,192,58868,1,0,0:0:0:0:
448,192,58971,1,0,0:0:0:0:
192,192,59075,1,0,0:0:0:0:
64,192,59178,1,0,0:0:0:0:
320,192,59282,1,0,0:0:0:0:
448,192,59489,1,0,0:0:0:0:
448,192,59696,128,0,59747:0:0:0:0:
320,192,59747,128,0,59799:0:0:0:0:
64,192,59799,128,0,59851:0:0:0:0:
192,192,59851,128,0,59902:0:0:0:0:
448,192,59902,128,0,59954:0:0:0:0:
320,192,59954,128,0,60006:0:0:0:0:
64,192,60006,128,0,60058:0:0:0:0:
192,192,60058,128,0,60109:0:0:0:0:
448,192,60109,128,0,60161:0:0:0:0:
320,192,60161,128,0,60213:0:0:0:0:
64,192,60213,128,0,60265:0:0:0:0:
192,192,60265,128,0,60316:0:0:0:0:
448,192,60316,128,0,60368:0:0:0:0:
320,192,60368,128,0,60420:0:0:0:0:
64,192,60420,128,0,60471:0:0:0:0:
192,192,60471,128,0,60523:0:0:0:0:
448,192,60523,1,0,0:0:0:0:
320,192,60627,1,0,0:0:0:0:
64,192,60730,1,0,0:0:0:0:
448,192,60833,1,0,0:0:0:0:
320,192,60937,1,0,0:0:0:0:
64,192,61144,1,0,0:0:0:0:
192,192,61351,128,0,61402:0:0:0:0:
64,192,61402,128,0,61454:0:0:0:0:
320,192,61454,128,0,61506:0:0:0:0:
448,192,61506,128,0,61558:0:0:0:0:
192,192,61558,128,0,61609:0:0:0:0:
64,192,61609,128,0,61661:0:0:0:0:
320,192,61661,128,0,61713:0:0:0:0:
448,192,61713,128,0,61765:0:0:0:0:
192,192,61765,128,0,61816:0:0:0:0:
64,192,61816,128,0,61868:0:0:0:0:
320,192,61868,128,0,61920:0:0:0:0:
448,192,61920,128,0,61971:0:0:0:0:
192,192,61971,128,0,62023:0:0:0:0:
64,192,62023,128,0,62075:0:0:0:0:
320,192,62075,128,0,62127:0:0:0:0:
448,192,62127,128,0,62178:0:0:0:0:
192,192,62178,1,0,0:0:0:0:
64,192,62282,1,0,0:0:0:0:
448,192,62385,1,0,0:0:0:0:
320,192,62489,1,0,0:0:0:0:
192,192,62592,1,0,0:0:0:0:
192,192,62799,1,0,0:0:0:0:
64,192,63006,1,0,0:0:0:0:
448,192,63006,128,0,63109:0:0:0:0:
320,192,63316,1,0,0:0:0:0:
192,192,63316,128,0,63420:0:0:0:0:
448,192,63627,128,0,63730:0:0:0:0:
192,192,63627,1,0,0:0:0:0:
320,192,63937,1,0,0:0:0:0:
64,192,63937,128,0,64040:0:0:0:0:
320,192,64247,128,0,64351:0:0:0:0:
192,192,64247,1,0,0:0:0:0:
64,192,64558,128,0,64661:0:0:0:0:
448,192,64558,1,0,0:0:0:0:
64,192,64868,1,0,0:0:0:0:
320,192,64868,128,0,64971:0:0:0:0:
192,192,65178,128,0,65282:0:0:0:0:
448,192,65178,1,0,0:0:0:0:
448,192,65489,128,0,65592:0:0:0:0:
64,192,65489,1,0,0:0:0:0:
192,192,65799,128,0,65902:0:0:0:0:
320,192,65799,1,0,0:0:0:0:
64,192,66109,1,0,0:0:0:0:
320,192,66109,128,0,66213:0:0:0:0:
320,192,66316,1,0,0:0:0:0:
64,192,66316,128,0,66523:0:0:0:0:
320,192,66730,128,0,66937:0:0:0:0:
448,192,66730,1,0,0:0:0:0:
192,192,67144,1,0,0:0:0:0:
448,192,67144,128,0,67351:0:0:0:0:
192,192,67558,128,0,67765:0:0:0:0:
64,192,67558,1,0,0:0:0:0:
64,192,67971,1,0,0:0:0:0:
448,192,67971,128,0,68075:0:0:0:0:
320,192,68178,1,0,0:0:0:0:
64,192,68178,128,0,68282:0:0:0:0:
192,192,68385,1,0,0:0:0:0:
448,192,68385,128,0,68489:0:0:0:0:
64,192,68592,128,0,68696:0:0:0:0:
192,192,68592,1,0,0:0:0:0:
448,192,68799,128,0,68851:0:0:0:0:
320,192,68799,1,0,0:0:0:0:
192,192,68902,1,0,0:0:0:0:
64,192,68902,128,0,68954:0:0:0:0:
320,192,69006,128,0,69058:0:0:0:0:
448,192,69006,1,0,0:0:0:0:
192,192,69109,128,0,69161:0:0:0:0:
64,192,69109,1,0,0:0:0:0:
448,192,69213,128,0,69265:0:0:0:0:
320,192,69265,128,0,69316:0:0:0:0:
192,192,69316,128,0,69368:0:0:0:0:
64,192,69368,128,0,69420:0:0:0:0:
448,192,69420,128,0,69471:0:0:0:0:
320,192,69471,128,0,69523:0:0:0:0:
192,192,69523,128,0,69575:0:0:0:0:
64,192,69575,128,0,69627:0:0:0:0:
448,192,69627,1,0,0:0:0:0:
64,192,72109,1,0,0:0:0:0:
192,192,72109,1,0,0:0:0:0:
448,192,72109,1,0,0:0:0:0:
64,192,72523,1,0,0:0:0:0:
320,192,72523,1,0,0:0:0:0:
448,192,72523,1,0,0:0:0:0:
448,192,72937,1,0,0:0:0:0:
64,192,72937,128,0,73040:0:0:0:0:
320,192,73040,128,0,73144:0:0:0:0:
192,192,73144,128,0,73247:0:0:0:0:
448,192,73247,128,0,73351:0:0:0:0:
64,192,73247,1,0,0:0:0:0:
192,192,73351,128,0,73454:0:0:0:0:
320,192,73351,1,0,0:0:0:0:
320,192,73454,128,0,73558:0:0:0:0:
64,192,73558,128,0,73661:0:0:0:0:
448,192,73661,128,0,73765:0:0:0:0:
320,192,73661,1,0,0:0:0:0:
192,192,73765,128,0,73868:0:0:0:0:
64,192,73765,1,0,0:0:0:0:
320,192,73868,128,0,73971:0:0:0:0:
192,192,73971,128,0,74075:0:0:0:0:
320,192,74075,128,0,74178:0:0:0:0:
448,192,74075,1,0,0:0:0:0:
64,192,74178,128,0,74282:0:0:0:0:
192,192,74178,1,0,0:0:0:0:
448,192,74282,128,0,74385:0:0:0:0:
64,192,74385,128,0,74489:0:0:0:0:
448,192,74489,128,0,74592:0:0:0:0:
192,192,74489,1,0,0:0:0:0:
192,192,74592,128,0,74696:0:0:0:0:
320,192,74592,1,0,0:0:0:0:
64,192,74696,128,0,74799:0:0:0:0:
320,192,74799,128,0,74902:0:0:0:0:
448,192,74902,128,0,75006:0:0:0:0:
64,192,74902,1,0,0:0:0:0:
192,192,75006,128,0,75109:0:0:0:0:
320,192,75006,1,0,0:0:0:0:
64,192,75109,128,0,75213:0:0:0:0:
320,192,75213,128,0,75316:0:0:0:0:
448,192,75316,128,0,75420:0:0:0:0:
192,192,75316,1,0,0:0:0:0:
64,192,75420,128,0,75523:0:0:0:0:
320,192,75420,1,0,0:0:0:0:
192,192,75523,128,0,75627:0:0:0:0:
448,192,75627,128,0,75730:0:0:0:0:
320,192,75730,128,0,75833:0:0:0:0:
64,192,75730,1,0,0:0:0:0:
64,192,75833,128,0,76040:0:0:0:0:
192,192,75833,1,0,0:0:0:0:
448,192,76040,128,0,76247:0:0:0:0:
320,192,76040,1,0,0:0:0:0:
192,192,76144,1,0,0:0:0:0:
64,192,76247,128,0,76351:0:0:0:0:
320,192,76247,1,0,0:0:0:0:
192,192,76351,128,0,76454:0:0:0:0:
320,192,76454,128,0,76558:0:0:0:0:
448,192,76558,128,0,76661:0:0:0:0:
64,192,76558,1,0,0:0:0:0:
64,192,76661,128,0,76765:0:0:0:0:
320,192,76661,1,0,0:0:0:0:
192,192,76765,128,0,76868:0:0:0:0:
320,192,76868,128,0,76971:0:0:0:0:
448,192,76971,128,0,77075:0:0:0:0:
64,192,76971,1,0,0:0:0:0:
192,192,77075,128,0,77178:0:0:0:0:
320,192,77075,1,0,0:0:0:0:
64,192,77178,128,0,77282:0:0:0:0:
320,192,77282,128,0,77385:0:0:0:0:
192,192,77385,128,0,77489:0:0:0:0:
64,192,77385,1,0,0:0:0:0:
448,192,77489,128,0,77592:0:0:0:0:
320,192,77592,128,0,77696:0:0:0:0:
192,192,77696,128,0,77799:0:0:0:0:
64,192,77799,128,0,77902:0:0:0:0:
320,192,77902,128,0,78006:0:0:0:0:
448,192,77902,1,0,0:0:0:0:
192,192,78006,128,0,78109:0:0:0:0:
64,192,78109,128,0,78213:0:0:0:0:
192,192,78213,128,0,78316:0:0:0:0:
448,192,78316,128,0,78420:0:0:0:0:
320,192,78420,128,0,78523:0:0:0:0:
448,192,78523,128,0,78627:0:0:0:0:
320,192,78627,128,0,78730:0:0:0:0:
192,192,78730,128,0,78833:0:0:0:0:
448,192,78730,1,0,0:0:0:0:
64,192,78833,128,0,78937:0:0:0:0:
448,192,78937,128,0,79040:0:0:0:0:
320,192,79040,128,0,79144:0:0:0:0:
64,192,79040,1,0,0:0:0:0:
64,192,79144,128,0,79351:0:0:0:0:
320,192,79351,128,0,79558:0:0:0:0:
448,192,79351,1,0,0:0:0:0:
192,192,79454,1,0,0:0:0:0:
448,192,79558,1,0,0:0:0:0:
64,192,79558,128,0,79661:0:0:0:0:
192,192,79661,128,0,79765:0:0:0:0:
448,192,79765,128,0,79868:0:0:0:0:
320,192,79868,128,0,79971:0:0:0:0:
64,192,79868,1,0,0:0:0:0:
64,192,79971,128,0,80075:0:0:0:0:
192,192,79971,1,0,0:0:0:0:
192,192,80075,128,0,80178:0:0:0:0:
448,192,80178,128,0,80282:0:0:0:0:
320,192,80282,128,0,80385:0:0:0:0:
64,192,80282,1,0,0:0:0:0:
64,192,80385,128,0,80489:0:0:0:0:
192,192,80385,1,0,0:0:0:0:
448,192,80489,128,0,80592:0:0:0:0:
192,192,80592,128,0,80696:0:0:0:0:
320,192,80696,128,0,80799:0:0:0:0:
64,192,80696,1,0,0:0:0:0:
64,192,80799,128,0,80902:0:0:0:0:
448,192,80799,1,0,0:0:0:0:
192,192,80902,128,0,81006:0:0:0:0:
448,192,81006,128,0,81109:0:0:0:0:
320,192,81109,128,0,81213:0:0:0:0:
64,192,81109,1,0,0:0:0:0:
64,192,81213,128,0,81316:0:0:0:0:
448,192,81213,1,0,0:0:0:0:
192,192,81316,128,0,81420:0:0:0:0:
64,192,81420,128,0,81523:0:0:0:0:
192,192,81523,128,0,81627:0:0:0:0:
448,192,81523,1,0,0:0:0:0:
320,192,81627,128,0,81730:0:0:0:0:
64,192,81627,1,0,0:0:0:0:
192,192,81730,128,0,81833:0:0:0:0:
320,192,81833,128,0,81937:0:0:0:0:
192,192,81937,128,0,82040:0:0:0:0:
448,192,81937,1,0,0:0:0:0:
448,192,82040,128,0,82144:0:0:0:0:
64,192,82040,1,0,0:0:0:0:
320,192,82144,128,0,82247:0:0:0:0:
448,192,82273,128,0,82351:0:0:0:0:
320,192,82351,128,0,82454:0:0:0:0:
192,192,82351,1,0,0:0:0:0:
64,192,82454,128,0,82661:0:0:0:0:
448,192,82454,1,0,0:0:0:0:
448,192,82661,128,0,82868:0:0:0:0:
320,192,82661,1,0,0:0:0:0:
192,192,82765,1,0,0:0:0:0:
64,192,82868,1,0,0:0:0:0:
320,192,82868,128,0,82971:0:0:0:0:
192,192,82971,128,0,83075:0:0:0:0:
448,192,83075,128,0,83178:0:0:0:0:
64,192,83178,128,0,83282:0:0:0:0:
192,192,83178,1,0,0:0:0:0:
320,192,83282,128,0,83385:0:0:0:0:
448,192,83282,1,0,0:0:0:0:
192,192,83385,128,0,83489:0:0:0:0:
448,192,83489,128,0,83592:0:0:0:0:
64,192,83592,128,0,83696:0:0:0:0:
192,192,83592,1,0,0:0:0:0:
320,192,83696,128,0,83799:0:0:0:0:
448,192,83696,1,0,0:0:0:0:
64,192,83799,128,0,83902:0:0:0:0:
320,192,83902,128,0,84006:0:0:0:0:
64,192,84006,128,0,84109:0:0:0:0:
192,192,84006,1,0,0:0:0:0:
448,192,84109,128,0,84213:0:0:0:0:
320,192,84109,1,0,0:0:0:0:
192,192,84213,128,0,84316:0:0:0:0:
448,192,84316,128,0,84420:0:0:0:0:
192,192,84420,128,0,84523:0:0:0:0:
320,192,84420,1,0,0:0:0:0:
64,192,84523,128,0,84627:0:0:0:0:
448,192,84523,1,0,0:0:0:0:
320,192,84627,128,0,84730:0:0:0:0:
192,192,84730,128,0,84833:0:0:0:0:
448,192,84833,128,0,84937:0:0:0:0:
64,192,84833,1,0,0:0:0:0:
64,192,84937,128,0,84989:0:0:0:0:
192,192,84989,128,0,85040:0:0:0:0:
320,192,85040,128,0,85092:0:0:0:0:
448,192,85092,128,0,85144:0:0:0:0:
64,192,85144,128,0,85196:0:0:0:0:
192,192,85196,128,0,85247:0:0:0:0:
320,192,85247,128,0,85299:0:0:0:0:
448,192,85299,128,0,85558:0:0:0:0:
64,192,85351,1,0,0:0:0:0:
192,192,85351,1,0,0:0:0:0:
192,192,85558,128,0,85583:0:0:0:0:
320,192,85558,1,0,0:0:0:0:
192,192,85661,128,0,85687:0:0:0:0:
192,192,85765,128,0,85790:0:0:0:0:
192,192,85868,128,0,85894:0:0:0:0:
320,192,85971,128,0,85997:0:0:0:0:
320,192,86075,128,0,86101:0:0:0:0:
320,192,86178,128,0,86282:0:0:0:0:
64,192,86178,1,0,0:0:0:0:
448,192,86282,128,0,86385:0:0:0:0:
320,192,86385,128,0,86489:0:0:0:0:
192,192,86489,128,0,86592:0:0:0:0:
64,192,86489,1,0,0:0:0:0:
448,192,86592,128,0,86696:0:0:0:0:
320,192,86592,1,0,0:0:0:0:
64,192,86696,128,0,86799:0:0:0:0:
192,192,86799,128,0,86902:0:0:0:0:
448,192,86902,1,0,0:0:0:0:
320,192,86902,128,0,87006:0:0:0:0:
64,192,87006,128,0,87109:0:0:0:0:
192,192,87006,1,0,0:0:0:0:
320,192,87109,128,0,87213:0:0:0:0:
192,192,87213,128,0,87316:0:0:0:0:
448,192,87316,128,0,87420:0:0:0:0:
320,192,87316,1,0,0:0:0:0:
64,192,87420,128,0,87523:0:0:0:0:
192,192,87420,1,0,0:0:0:0:
320,192,87523,128,0,87627:0:0:0:0:
192,192,87627,128,0,87730:0:0:0:0:
448,192,87730,128,0,87833:0:0:0:0:
64,192,87730,1,0,0:0:0:0:
64,192,87833,128,0,87937:0:0:0:0:
320,192,87833,1,0,0:0:0:0:
192,192,87937,128,0,88040:0:0:0:0:
64,192,88040,128,0,88144:0:0:0:0:
320,192,88144,128,0,88247:0:0:0:0:
192,192,88144,1,0,0:0:0:0:
448,192,88247,128,0,88351:0:0:0:0:
64,192,88247,1,0,0:0:0:0:
320,192,88351,128,0,88454:0:0:0:0:
448,192,88454,128,0,88558:0:0:0:0:
192,192,88558,128,0,88661:0:0:0:0:
64,192,88558,1,0,0:0:0:0:
448,192,88661,128,0,88765:0:0:0:0:
320,192,88661,1,0,0:0:0:0:
320,192,88765,128,0,88868:0:0:0:0:
192,192,88868,128,0,88971:0:0:0:0:
64,192,88971,128,0,89075:0:0:0:0:
448,192,88971,1,0,0:0:0:0:
320,192,89075,1,0,0:0:0:0:
448,192,89075,128,0,89282:0:0:0:0:
192,192,89282,128,0,89489:0:0:0:0:
64,192,89282,1,0,0:0:0:0:
320,192,89385,1,0,0:0:0:0:
448,192,89489,1,0,0:0:0:0:
64,192,89489,128,0,89592:0:0:0:0:
320,192,89592,128,0,89696:0:0:0:0:
192,192,89696,128,0,89799:0:0:0:0:
448,192,89799,128,0,89902:0:0:0:0:
64,192,89799,1,0,0:0:0:0:
64,192,89902,128,0,90006:0:0:0:0:
320,192,89902,1,0,0:0:0:0:
192,192,90006,128,0,90109:0:0:0:0:
320,192,90109,128,0,90213:0:0:0:0:
448,192,90213,128,0,90316:0:0:0:0:
64,192,90213,1,0,0:0:0:0:
192,192,90316,128,0,90420:0:0:0:0:
320,192,90316,1,0,0:0:0:0:
64,192,90420,128,0,90523:0:0:0:0:
320,192,90523,128,0,90627:0:0:0:0:
448,192,90627,128,0,90730:0:0:0:0:
192,192,90627,1,0,0:0:0:0:
64,192,90730,128,0,90833:0:0:0:0:
320,192,90730,1,0,0:0:0:0:
192,192,90833,128,0,90937:0:0:0:0:
320,192,90911,128,0,91040:0:0:0:0:
448,192,91040,128,0,91144:0:0:0:0:
64,192,91040,1,0,0:0:0:0:
64,192,91144,128,0,91247:0:0:0:0:
320,192,91144,1,0,0:0:0:0:
192,192,91247,128,0,91351:0:0:0:0:
448,192,91351,128,0,91454:0:0:0:0:
320,192,91454,128,0,91558:0:0:0:0:
64,192,91454,1,0,0:0:0:0:
64,192,91558,128,0,91661:0:0:0:0:
192,192,91558,1,0,0:0:0:0:
448,192,91661,128,0,91765:0:0:0:0:
64,192,91765,128,0,91868:0:0:0:0:
448,192,91868,128,0,91971:0:0:0:0:
320,192,91868,1,0,0:0:0:0:
192,192,91971,128,0,92075:0:0:0:0:
64,192,91971,1,0,0:0:0:0:
320,192,92075,128,0,92178:0:0:0:0:
192,192,92178,128,0,92282:0:0:0:0:
320,192,92282,128,0,92385:0:0:0:0:
448,192,92282,1,0,0:0:0:0:
192,192,92385,1,0,0:0:0:0:
64,192,92385,128,0,92592:0:0:0:0:
320,192,92592,128,0,92799:0:0:0:0:
448,192,92592,1,0,0:0:0:0:
192,192,92696,1,0,0:0:0:0:
448,192,92799,128,0,93213:0:0:0:0:
64,192,92799,128,0,92902:0:0:0:0:
192,192,92902,128,0,93006:0:0:0:0:
320,192,93006,128,0,93109:0:0:0:0:
64,192,93109,128,0,93213:0:0:0:0:
192,192,93109,1,0,0:0:0:0:
192,192,93213,128,0,93316:0:0:0:0:
320,192,93213,1,0,0:0:0:0:
320,192,93316,128,0,93420:0:0:0:0:
64,192,93420,128,0,93523:0:0:0:0:
448,192,93523,128,0,93627:0:0:0:0:
192,192,93523,1,0,0:0:0:0:
192,192,93627,128,0,93730:0:0:0:0:
320,192,93627,1,0,0:0:0:0:
64,192,93730,128,0,93833:0:0:0:0:
320,192,93833,128,0,93937:0:0:0:0:
448,192,93937,128,0,94040:0:0:0:0:
192,192,93937,1,0,0:0:0:0:
64,192,94040,128,0,94144:0:0:0:0:
320,192,94040,1,0,0:0:0:0:
192,192,94144,128,0,94247:0:0:0:0:
448,192,94247,128,0,94351:0:0:0:0:
320,192,94351,128,0,94454:0:0:0:0:
64,192,94351,1,0,0:0:0:0:
64,192,94454,128,0,94558:0:0:0:0:
192,192,94454,1,0,0:0:0:0:
448,192,94558,128,0,94661:0:0:0:0:
192,192,94661,128,0,94765:0:0:0:0:
320,192,94765,128,0,94868:0:0:0:0:
64,192,94765,1,0,0:0:0:0:
64,192,94868,128,0,94971:0:0:0:0:
448,192,94868,1,0,0:0:0:0:
192,192,94971,128,0,95075:0:0:0:0:
64,192,95075,128,0,95178:0:0:0:0:
192,192,95178,128,0,95282:0:0:0:0:
320,192,95178,1,0,0:0:0:0:
448,192,95282,128,0,95385:0:0:0:0:
64,192,95282,1,0,0:0:0:0:
320,192,95385,128,0,95489:0:0:0:0:
448,192,95489,128,0,95618:0:0:0:0:
320,192,95592,128,0,95696:0:0:0:0:
64,192,95592,1,0,0:0:0:0:
64,192,95696,128,0,95902:0:0:0:0:
192,192,95696,1,0,0:0:0:0:
448,192,95902,128,0,96109:0:0:0:0:
192,192,95902,1,0,0:0:0:0:
320,192,96006,1,0,0:0:0:0:
64,192,96109,128,0,96213:0:0:0:0:
320,192,96213,128,0,96316:0:0:0:0:
192,192,96316,128,0,96420:0:0:0:0:
448,192,96420,128,0,96523:0:0:0:0:
64,192,96420,1,0,0:0:0:0:
64,192,96523,128,0,96627:0:0:0:0:
192,192,96523,1,0,0:0:0:0:
320,192,96627,128,0,96730:0:0:0:0:
64,192,96730,128,0,96833:0:0:0:0:
320,192,96833,128,0,96937:0:0:0:0:
448,192,96833,1,0,0:0:0:0:
192,192,96937,128,0,97040:0:0:0:0:
64,192,96937,1,0,0:0:0:0:
448,192,97040,128,0,97144:0:0:0:0:
192,192,97144,128,0,97247:0:0:0:0:
448,192,97247,128,0,97351:0:0:0:0:
64,192,97247,1,0,0:0:0:0:
64,192,97351,128,0,97454:0:0:0:0:
320,192,97351,1,0,0:0:0:0:
192,192,97454,128,0,97558:0:0:0:0:
64,192,97558,128,0,97661:0:0:0:0:
192,192,97661,128,0,97765:0:0:0:0:
448,192,97661,1,0,0:0:0:0:
448,192,97765,128,0,97868:0:0:0:0:
64,192,97765,1,0,0:0:0:0:
320,192,97868,128,0,97971:0:0:0:0:
448,192,97971,128,0,98075:0:0:0:0:
320,192,98075,128,0,98178:0:0:0:0:
64,192,98075,1,0,0:0:0:0:
192,192,98178,128,0,98230:0:0:0:0:
64,192,98230,128,0,98282:0:0:0:0:
320,192,98282,128,0,98333:0:0:0:0:
448,192,98333,128,0,98385:0:0:0:0:
192,192,98385,128,0,98437:0:0:0:0:
64,192,98437,128,0,98489:0:0:0:0:
320,192,98489,128,0,98540:0:0:0:0:
448,192,98540,128,0,98799:0:0:0:0:
320,192,98799,1,0,0:0:0:0:
64,192,98799,128,0,98825:0:0:0:0:
64,192,98902,128,0,98928:0:0:0:0:
64,192,99006,128,0,99032:0:0:0:0:
64,192,99109,128,0,99135:0:0:0:0:
192,192,99213,128,0,99239:0:0:0:0:
192,192,99316,128,0,99342:0:0:0:0:
192,192,99420,128,0,99730:0:0:0:0:
192,192,100247,128,0,100558:0:0:0:0:
320,192,100558,128,0,100868:0:0:0:0:
192,192,100868,128,0,101075:0:0:0:0:
448,192,101075,128,0,101902:0:0:0:0:
64,192,101902,128,0,102213:0:0:0:0:
320,192,102213,128,0,102523:0:0:0:0:
64,192,102523,128,0,102730:0:0:0:0:
448,192,102730,128,0,103558:0:0:0:0:
192,192,103558,128,0,103868:0:0:0:0:
320,192,103868,128,0,104178:0:0:0:0:
192,192,104178,128,0,104385:0:0:0:0:
64,192,104385,128,0,105006:0:0:0:0:
448,192,105006,128,0,105213:0:0:0:0:
192,192,105213,128,0,105523:0:0:0:0:
320,192,105523,128,0,105833:0:0:0:0:
192,192,105833,128,0,106040:0:0:0:0:
64,192,106040,128,0,106868:0:0:0:0:
192,192,106868,128,0,107178:0:0:0:0:
320,192,107178,128,0,107489:0:0:0:0:
192,192,107489,128,0,107696:0:0:0:0:
448,192,107696,128,0,108523:0:0:0:0:
64,192,108523,128,0,108833:0:0:0:0:
192,192,108833,128,0,109144:0:0:0:0:
320,192,109144,1,0,0:0:0:0:
448,192,109351,1,0,0:0:0:0:
320,192,109454,1,0,0:0:0:0:
64,192,109558,1,0,0:0:0:0:
192,192,109661,1,0,0:0:0:0:
448,192,109765,1,0,0:0:0:0:
64,192,109868,1,0,0:0:0:0:
320,192,109971,1,0,0:0:0:0:
192,192,110075,1,0,0:0:0:0:
448,192,110178,1,0,0:0:0:0:
320,192,110282,1,0,0:0:0:0:
64,192,110385,1,0,0:0:0:0:
192,192,110454,1,0,0:0:0:0:
320,192,110523,1,0,0:0:0:0:
448,192,110592,1,0,0:0:0:0:
192,192,110799,1,0,0:0:0:0:
64,192,111006,1,0,0:0:0:0:
