osu file format v14

[General]
AudioFilename: audio.mp3
AudioLeadIn: 0
PreviewTime: 85351
Countdown: 0
SampleSet: Soft
StackLeniency: 0.7
Mode: 3
LetterboxInBreaks: 0
SpecialStyle: 0
WidescreenStoryboard: 1

[Editor]
DistanceSpacing: 1
BeatDivisor: 4
GridSize: 4
TimelineZoom: 3.299999

[Metadata]
Title:Paradigm Shift
TitleUnicode:Paradigm Shift
Artist:Morimori Atsushi
ArtistUnicode:Morimori Atsushi
Creator:Ayachi Meme
Version:Sample
Source:
Tags:
BeatmapID:1291801
BeatmapSetID:606351

[Difficulty]
HPDrainRate:4
CircleSize:4
OverallDifficulty:4
ApproachRate:5
SliderMultiplier:1.4
SliderTickRate:1

[Events]
//Background and Video events
0,0,"paradigm.jpg",0,0
//Break Periods
//Storyboard Layer 0 (Background)
//Storyboard Layer 1 (Fail)
//Storyboard Layer 2 (Pass)
//Storyboard Layer 3 (Foreground)
//Storyboard Sound Samples

[TimingPoints]
1765,413.793103448276,4,2,0,50,1,0
43972,-100,4,2,0,5,0,0
46248,-100,4,2,0,30,0,0
46455,-100,4,2,0,60,0,0
72937,-100,4,2,0,60,0,1
85351,-100,4,2,0,60,0,0
86178,-100,4,2,0,60,0,1
98592,-100,4,2,0,60,0,0
100248,-100,4,2,0,5,0,0
109352,-100,4,2,0,25,0,0
111007,-100,4,2,0,5,0,0

[HitObjects]
64,192,1765,5,0,0:0:0:0:
192,192,2178,1,0,0:0:0:0:
320,192,2592,128,0,3006:0:0:0:0:
448,192,3006,128,0,3420:0:0:0:0:
64,192,3420,1,0,0:0:0:0:
192,192,3833,1,0,0:0:0:0:
320,192,4247,1,0,0:0:0:0:
64,192,4661,1,0,0:0:0:0:
448,192,5075,1,0,0:0:0:0:
192,192,5489,1,0,0:0:0:0:
320,192,5902,1,0,0:0:0:0:
64,192,6316,1,0,0:0:0:0:
320,192,6730,1,0,0:0:0:0:
448,192,7144,1,0,0:0:0:0:
192,192,7558,1,0,0:0:0:0:
320,192,7971,1,0,0:0:0:0:
64,192,8385,1,0,0:0:0:0:
320,192,8799,1,0,0:0:0:0:
192,192,9213,1,0,0:0:0:0:
448,192,9627,1,0,0:0:0:0:
320,192,10040,1,0,0:0:0:0:
192,192,10247,1,0,0:0:0:0:
64,192,10454,1,0,0:0:0:0:
192,192,10661,1,0,0:0:0:0:
448,192,10868,1,0,0:0:0:0:
320,192,11075,1,0,0:0:0:0:
192,192,11282,1,0,0:0:0:0:
64,192,11489,1,0,0:0:0:0:
320,192,11696,1,0,0:0:0:0:
448,192,11902,1,0,0:0:0:0:
320,192,12109,1,0,0:0:0:0:
192,192,12316,1,0,0:0:0:0:
448,192,12523,1,0,0:0:0:0:
320,192,12730,1,0,0:0:0:0:
64,192,12937,1,0,0:0:0:0:
192,192,13144,1,0,0:0:0:0:
320,192,13351,1,0,0:0:0:0:
448,192,13351,1,0,0:0:0:0:
64,192,13765,1,0,0:0:0:0:
192,192,13765,1,0,0:0:0:0:
448,192,14178,1,0,0:0:0:0:
192,192,14178,1,0,0:0:0:0:
64,192,14592,1,0,0:0:0:0:
320,192,14592,1,0,0:0:0:0:
192,192,15006,1,0,0:0:0:0:
448,192,15006,1,0,0:0:0:0:
192,192,15420,1,0,0:0:0:0:
320,192,15420,1,0,0:0:0:0:
64,192,15833,1,0,0:0:0:0:
448,192,15833,1,0,0:0:0:0:
64,192,16144,1,0,0:0:0:0:
448,192,16144,1,0,0:0:0:0:
64,192,16454,1,0,0:0:0:0:
448,192,16454,1,0,0:0:0:0:
64,192,17075,1,0,0:0:0:0:
320,192,17075,1,0,0:0:0:0:
192,192,17489,1,0,0:0:0:0:
448,192,17902,128,0,18109:0:0:0:0:
64,192,18109,128,0,18316:0:0:0:0:
320,192,18316,1,0,0:0:0:0:
192,192,18730,1,0,0:0:0:0:
448,192,19144,1,0,0:0:0:0:
64,192,19558,128,0,19765:0:0:0:0:
320,192,19765,128,0,19971:0:0:0:0:
192,192,19971,1,0,0:0:0:0:
448,192,20385,1,0,0:0:0:0:
64,192,20799,1,0,0:0:0:0:
320,192,21213,128,0,21420:0:0:0:0:
448,192,21420,128,0,21627:0:0:0:0:
192,192,21627,1,0,0:0:0:0:
448,192,22040,128,0,22454:0:0:0:0:
64,192,22454,1,0,0:0:0:0:
192,192,22868,1,0,0:0:0:0:
448,192,23075,128,0,23282:0:0:0:0:
64,192,23282,1,0,0:0:0:0:
192,192,23696,1,0,0:0:0:0:
448,192,24109,1,0,0:0:0:0:
192,192,24523,128,0,24730:0:0:0:0:
448,192,24730,128,0,24937:0:0:0:0:
64,192,24937,1,0,0:0:0:0:
192,192,25351,1,0,0:0:0:0:
448,192,25765,1,0,0:0:0:0:
192,192,26178,128,0,26385:0:0:0:0:
64,192,26385,128,0,26592:0:0:0:0:
320,192,26592,1,0,0:0:0:0:
448,192,27006,1,0,0:0:0:0:
192,192,27420,1,0,0:0:0:0:
320,192,27833,128,0,28040:0:0:0:0:
64,192,28040,128,0,28247:0:0:0:0:
448,192,28247,1,0,0:0:0:0:
320,192,28661,128,0,29075:0:0:0:0:
192,192,29075,1,0,0:0:0:0:
64,192,29489,1,0,0:0:0:0:
320,192,29696,128,0,29902:0:0:0:0:
448,192,29902,1,0,0:0:0:0:
192,192,30316,1,0,0:0:0:0:
64,192,30730,1,0,0:0:0:0:
448,192,31144,128,0,31351:0:0:0:0:
320,192,31351,128,0,31558:0:0:0:0:
192,192,31558,1,0,0:0:0:0:
64,192,31971,1,0,0:0:0:0:
448,192,32385,1,0,0:0:0:0:
320,192,32592,1,0,0:0:0:0:
192,192,32799,1,0,0:0:0:0:
64,192,33213,1,0,0:0:0:0:
448,192,33213,1,0,0:0:0:0:
192,192,33627,1,0,0:0:0:0:
320,192,34040,1,0,0:0:0:0:
64,192,34454,1,0,0:0:0:0:
448,192,34868,1,0,0:0:0:0:
192,192,34868,1,0,0:0:0:0:
64,192,35282,1,0,0:0:0:0:
320,192,35282,1,0,0:0:0:0:
320,192,35696,1,0,0:0:0:0:
448,192,35696,1,0,0:0:0:0:
64,192,36006,1,0,0:0:0:0:
192,192,36006,1,0,0:0:0:0:
320,192,36316,1,0,0:0:0:0:
192,192,36316,1,0,0:0:0:0:
448,192,36523,1,0,0:0:0:0:
64,192,36523,1,0,0:0:0:0:
320,192,36730,1,0,0:0:0:0:
192,192,36937,1,0,0:0:0:0:
64,192,37144,1,0,0:0:0:0:
320,192,37351,1,0,0:0:0:0:
192,192,37558,1,0,0:0:0:0:
64,192,37765,128,0,38178:0:0:0:0:
448,192,38178,1,0,0:0:0:0:
192,192,38385,1,0,0:0:0:0:
320,192,38592,1,0,0:0:0:0:
64,192,38799,1,0,0:0:0:0:
192,192,39006,1,0,0:0:0:0:
320,192,39213,1,0,0:0:0:0:
448,192,39420,128,0,39627:0:0:0:0:
192,192,39627,128,0,39833:0:0:0:0:
320,192,39833,1,0,0:0:0:0:
448,192,40040,1,0,0:0:0:0:
320,192,40247,1,0,0:0:0:0:
192,192,40454,1,0,0:0:0:0:
448,192,40661,1,0,0:0:0:0:
192,192,40868,1,0,0:0:0:0:
64,192,41075,1,0,0:0:0:0:
192,192,41282,1,0,0:0:0:0:
448,192,41489,1,0,0:0:0:0:
320,192,41489,1,0,0:0:0:0:
64,192,41696,1,0,0:0:0:0:
192,192,41696,1,0,0:0:0:0:
320,192,41902,1,0,0:0:0:0:
448,192,41902,1,0,0:0:0:0:
64,192,42109,1,0,0:0:0:0:
192,192,42109,1,0,0:0:0:0:
448,192,42213,128,0,43144:0:0:0:0:
64,192,43144,1,0,0:0:0:0:
192,192,43971,128,0,44282:0:0:0:0:
448,192,44282,128,0,44592:0:0:0:0:
64,192,44592,128,0,44799:0:0:0:0:
320,192,44799,128,0,45627:0:0:0:0:
64,192,45627,128,0,45937:0:0:0:0:
192,192,45937,128,0,46247:0:0:0:0:
320,192,46247,128,0,46454:0:0:0:0:
448,192,46454,128,0,48109:0:0:0:0:
192,192,48109,128,0,49765:0:0:0:0:
448,192,49765,1,0,0:0:0:0:
320,192,49971,1,0,0:0:0:0:
192,192,50178,1,0,0:0:0:0:
64,192,50385,1,0,0:0:0:0:
320,192,50592,1,0,0:0:0:0:
448,192,50799,1,0,0:0:0:0:
320,192,51006,1,0,0:0:0:0:
192,192,51213,1,0,0:0:0:0:
448,192,51420,1,0,0:0:0:0:
320,192,51627,1,0,0:0:0:0:
192,192,51833,1,0,0:0:0:0:
320,192,52040,1,0,0:0:0:0:
64,192,52247,1,0,0:0:0:0:
320,192,52558,1,0,0:0:0:0:
64,192,52868,1,0,0:0:0:0:
448,192,53075,1,0,0:0:0:0:
320,192,53282,1,0,0:0:0:0:
192,192,53489,1,0,0:0:0:0:
64,192,53696,1,0,0:0:0:0:
320,192,53902,1,0,0:0:0:0:
192,192,54109,1,0,0:0:0:0:
64,192,54316,1,0,0:0:0:0:
320,192,54523,1,0,0:0:0:0:
448,192,54730,128,0,55144:0:0:0:0:
192,192,54730,1,0,0:0:0:0:
64,192,55144,1,0,0:0:0:0:
192,192,55558,1,0,0:0:0:0:
320,192,55971,1,0,0:0:0:0:
448,192,56385,128,0,57213:0:0:0:0:
64,192,57213,1,0,0:0:0:0:
320,192,57523,1,0,0:0:0:0:
192,192,57833,1,0,0:0:0:0:
448,192,58040,128,0,58868:0:0:0:0:
64,192,58868,1,0,0:0:0:0:
192,192,59178,1,0,0:0:0:0:
448,192,59489,1,0,0:0:0:0:
320,192,59696,128,0,60523:0:0:0:0:
64,192,60523,1,0,0:0:0:0:
448,192,60833,1,0,0:0:0:0:
320,192,61144,1,0,0:0:0:0:
192,192,61351,128,0,62178:0:0:0:0:
448,192,62178,1,0,0:0:0:0:
320,192,62385,1,0,0:0:0:0:
192,192,62592,1,0,0:0:0:0:
64,192,62799,1,0,0:0:0:0:
448,192,63006,128,0,63316:0:0:0:0:
192,192,63316,128,0,63627:0:0:0:0:
448,192,63627,128,0,63937:0:0:0:0:
192,192,63937,128,0,64247:0:0:0:0:
320,192,64247,128,0,64558:0:0:0:0:
64,192,64558,128,0,64868:0:0:0:0:
320,192,64868,128,0,65178:0:0:0:0:
64,192,65178,128,0,65489:0:0:0:0:
448,192,65489,128,0,65799:0:0:0:0:
64,192,65799,128,0,66109:0:0:0:0:
448,192,66109,128,0,66316:0:0:0:0:
320,192,66316,128,0,66730:0:0:0:0:
192,192,66730,128,0,67144:0:0:0:0:
320,192,67144,128,0,67558:0:0:0:0:
192,192,67558,128,0,67971:0:0:0:0:
448,192,67971,128,0,68178:0:0:0:0:
64,192,68178,128,0,68385:0:0:0:0:
320,192,68385,128,0,68592:0:0:0:0:
192,192,68592,128,0,68799:0:0:0:0:
448,192,68799,1,0,0:0:0:0:
320,192,69006,1,0,0:0:0:0:
64,192,69213,128,0,69627:0:0:0:0:
448,192,69627,1,0,0:0:0:0:
64,192,72109,1,0,0:0:0:0:
448,192,72109,1,0,0:0:0:0:
192,192,72523,1,0,0:0:0:0:
320,192,72523,1,0,0:0:0:0:
64,192,72937,1,0,0:0:0:0:
320,192,72937,1,0,0:0:0:0:
448,192,73351,1,0,0:0:0:0:
192,192,73765,1,0,0:0:0:0:
320,192,74178,1,0,0:0:0:0:
64,192,74592,1,0,0:0:0:0:
448,192,75006,1,0,0:0:0:0:
192,192,75420,1,0,0:0:0:0:
320,192,75833,1,0,0:0:0:0:
192,192,76040,1,0,0:0:0:0:
64,192,76247,1,0,0:0:0:0:
448,192,76661,1,0,0:0:0:0:
192,192,77075,1,0,0:0:0:0:
320,192,77489,1,0,0:0:0:0:
64,192,77902,1,0,0:0:0:0:
320,192,78316,1,0,0:0:0:0:
448,192,78730,1,0,0:0:0:0:
192,192,79144,1,0,0:0:0:0:
64,192,79351,1,0,0:0:0:0:
320,192,79558,1,0,0:0:0:0:
448,192,79971,1,0,0:0:0:0:
192,192,80385,1,0,0:0:0:0:
64,192,80799,1,0,0:0:0:0:
320,192,81213,1,0,0:0:0:0:
192,192,81627,1,0,0:0:0:0:
448,192,82040,1,0,0:0:0:0:
64,192,82454,1,0,0:0:0:0:
320,192,82661,1,0,0:0:0:0:
448,192,82868,1,0,0:0:0:0:
192,192,83282,1,0,0:0:0:0:
320,192,83696,1,0,0:0:0:0:
64,192,84109,1,0,0:0:0:0:
448,192,84523,1,0,0:0:0:0:
192,192,84937,128,0,85351:0:0:0:0:
448,192,85351,1,0,0:0:0:0:
320,192,85558,1,0,0:0:0:0:
192,192,85765,1,0,0:0:0:0:
64,192,85971,1,0,0:0:0:0:
320,192,86178,1,0,0:0:0:0:
448,192,86178,1,0,0:0:0:0:
192,192,86592,1,0,0:0:0:0:
64,192,87006,1,0,0:0:0:0:
448,192,87420,1,0,0:0:0:0:
192,192,87833,1,0,0:0:0:0:
320,192,88247,1,0,0:0:0:0:
64,192,88661,1,0,0:0:0:0:
320,192,89075,1,0,0:0:0:0:
192,192,89282,1,0,0:0:0:0:
448,192,89489,1,0,0:0:0:0:
192,192,89902,1,0,0:0:0:0:
320,192,90316,1,0,0:0:0:0:
448,192,90730,1,0,0:0:0:0:
64,192,91144,1,0,0:0:0:0:
320,192,91558,1,0,0:0:0:0:
192,192,91971,1,0,0:0:0:0:
320,192,92282,1,0,0:0:0:0:
448,192,92592,1,0,0:0:0:0:
64,192,92799,128,0,93213:0:0:0:0:
320,192,93213,1,0,0:0:0:0:
192,192,93627,1,0,0:0:0:0:
448,192,94040,1,0,0:0:0:0:
64,192,94454,1,0,0:0:0:0:
320,192,94868,1,0,0:0:0:0:
192,192,95282,1,0,0:0:0:0:
448,192,95696,1,0,0:0:0:0:
192,192,95902,1,0,0:0:0:0:
64,192,96109,1,0,0:0:0:0:
192,192,96316,1,0,0:0:0:0:
320,192,96523,1,0,0:0:0:0:
448,192,96730,1,0,0:0:0:0:
192,192,96937,1,0,0:0:0:0:
320,192,97144,1,0,0:0:0:0:
192,192,97351,1,0,0:0:0:0:
64,192,97558,1,0,0:0:0:0:
320,192,97765,1,0,0:0:0:0:
192,192,97971,1,0,0:0:0:0:
448,192,98178,128,0,98592:0:0:0:0:
64,192,98592,1,0,0:0:0:0:
320,192,98799,1,0,0:0:0:0:
64,192,99006,1,0,0:0:0:0:
320,192,99213,1,0,0:0:0:0:
192,192,99420,1,0,0:0:0:0:
448,192,99420,1,0,0:0:0:0:
192,192,100247,128,0,100558:0:0:0:0:
320,192,100558,128,0,100868:0:0:0:0:
64,192,100868,128,0,101075:0:0:0:0:
448,192,101075,128,0,101902:0:0:0:0:
192,192,101902,128,0,102213:0:0:0:0:
320,192,102213,128,0,102523:0:0:0:0:
448,192,102523,128,0,102730:0:0:0:0:
64,192,102730,128,0,103558:0:0:0:0:
320,192,103558,128,0,103868:0:0:0:0:
64,192,103868,128,0,104178:0:0:0:0:
448,192,104178,128,0,104385:0:0:0:0:
192,192,104385,128,0,105006:0:0:0:0:
448,192,105006,128,0,105213:0:0:0:0:
320,192,105213,128,0,105523:0:0:0:0:
192,192,105523,128,0,105833:0:0:0:0:
64,192,105833,128,0,106040:0:0:0:0:
320,192,106040,128,0,106868:0:0:0:0:
64,192,106868,128,0,107178:0:0:0:0:
320,192,107178,128,0,107489:0:0:0:0:
192,192,107489,128,0,107696:0:0:0:0:
448,192,107696,128,0,108523:0:0:0:0:
192,192,108523,128,0,108833:0:0:0:0:
64,192,108833,128,0,109144:0:0:0:0:
320,192,109144,128,0,109351:0:0:0:0:
448,192,109351,1,0,0:0:0:0:
192,192,109558,1,0,0:0:0:0:
320,192,109765,1,0,0:0:0:0:
64,192,109971,1,0,0:0:0:0:
192,192,110178,1,0,0:0:0:0:
448,192,110385,1,0,0:0:0:0:
320,192,110592,1,0,0:0:0:0:
192,192,110799,1,0,0:0:0:0:
64,192,111006,1,0,0:0:0:0:
