osu file format v14

[General]
AudioFilename: audio.mp3
AudioLeadIn: 0
PreviewTime: 85351
Countdown: 0
SampleSet: Soft
StackLeniency: 0.7
Mode: 3
LetterboxInBreaks: 0
SpecialStyle: 0
WidescreenStoryboard: 1

[Editor]
DistanceSpacing: 1
BeatDivisor: 8
GridSize: 4
TimelineZoom: 3.299999

[Metadata]
Title:Paradigm Shift
TitleUnicode:Paradigm Shift
Artist:Morimori Atsushi
ArtistUnicode:Morimori Atsushi
Creator:Ayachi Meme
Version:Prototype
Source:
Tags:
BeatmapID:1286124
BeatmapSetID:606351

[Difficulty]
HPDrainRate:6
CircleSize:4
OverallDifficulty:6
ApproachRate:5
SliderMultiplier:1.4
SliderTickRate:1

[Events]
//Background and Video events
0,0,"paradigm.jpg",0,0
//Break Periods
//Storyboard Layer 0 (Background)
//Storyboard Layer 1 (Fail)
//Storyboard Layer 2 (Pass)
//Storyboard Layer 3 (Foreground)
//Storyboard Sound Samples

[TimingPoints]
1765,413.793103448276,4,2,0,50,1,0
43972,-100,4,2,0,5,0,0
46248,-100,4,2,0,30,0,0
46455,-100,4,2,0,60,0,0
72937,-100,4,2,0,60,0,1
85299,-100,4,2,0,60,0,0
86178,-100,4,2,0,60,0,1
98540,-100,4,2,0,60,0,0
100248,-100,4,2,0,5,0,0
109352,-100,4,2,0,25,0,0
111007,-100,4,2,0,5,0,0

[HitObjects]
64,192,1765,5,0,0:0:0:0:
448,192,1765,1,0,0:0:0:0:
192,192,1971,1,0,0:0:0:0:
320,192,2178,1,0,0:0:0:0:
64,192,2178,1,0,0:0:0:0:
192,192,2385,1,0,0:0:0:0:
448,192,2592,128,0,3006:0:0:0:0:
64,192,2592,1,0,0:0:0:0:
64,192,3006,128,0,3109:0:0:0:0:
320,192,3109,128,0,3213:0:0:0:0:
448,192,3213,128,0,3316:0:0:0:0:
192,192,3316,128,0,3420:0:0:0:0:
64,192,3420,1,0,0:0:0:0:
192,192,3523,1,0,0:0:0:0:
320,192,3627,1,0,0:0:0:0:
192,192,3730,1,0,0:0:0:0:
64,192,3833,1,0,0:0:0:0:
448,192,3833,1,0,0:0:0:0:
192,192,3937,1,0,0:0:0:0:
320,192,4040,1,0,0:0:0:0:
448,192,4144,1,0,0:0:0:0:
64,192,4247,1,0,0:0:0:0:
192,192,4247,1,0,0:0:0:0:
448,192,4351,1,0,0:0:0:0:
320,192,4454,1,0,0:0:0:0:
64,192,4558,1,0,0:0:0:0:
192,192,4661,1,0,0:0:0:0:
448,192,4661,1,0,0:0:0:0:
320,192,4765,1,0,0:0:0:0:
192,192,4868,1,0,0:0:0:0:
320,192,4971,1,0,0:0:0:0:
64,192,5075,1,0,0:0:0:0:
448,192,5075,1,0,0:0:0:0:
320,192,5178,1,0,0:0:0:0:
192,192,5282,1,0,0:0:0:0:
64,192,5385,1,0,0:0:0:0:
320,192,5489,1,0,0:0:0:0:
448,192,5489,1,0,0:0:0:0:
64,192,5592,1,0,0:0:0:0:
192,192,5696,1,0,0:0:0:0:
448,192,5799,1,0,0:0:0:0:
64,192,5902,1,0,0:0:0:0:
320,192,5902,1,0,0:0:0:0:
192,192,6006,1,0,0:0:0:0:
64,192,6109,1,0,0:0:0:0:
192,192,6213,1,0,0:0:0:0:
64,192,6316,1,0,0:0:0:0:
448,192,6316,1,0,0:0:0:0:
320,192,6420,1,0,0:0:0:0:
192,192,6523,1,0,0:0:0:0:
64,192,6627,1,0,0:0:0:0:
448,192,6730,128,0,6937:0:0:0:0:
192,192,6730,1,0,0:0:0:0:
64,192,6937,1,0,0:0:0:0:
320,192,7040,128,0,7247:0:0:0:0:
64,192,7247,1,0,0:0:0:0:
192,192,7351,1,0,0:0:0:0:
320,192,7454,1,0,0:0:0:0:
192,192,7558,1,0,0:0:0:0:
448,192,7661,1,0,0:0:0:0:
320,192,7765,1,0,0:0:0:0:
192,192,7868,1,0,0:0:0:0:
64,192,7971,1,0,0:0:0:0:
448,192,7971,1,0,0:0:0:0:
192,192,8075,1,0,0:0:0:0:
320,192,8178,1,0,0:0:0:0:
192,192,8282,1,0,0:0:0:0:
448,192,8385,1,0,0:0:0:0:
64,192,8385,128,0,8592:0:0:0:0:
320,192,8592,1,0,0:0:0:0:
448,192,8696,1,0,0:0:0:0:
320,192,8799,1,0,0:0:0:0:
192,192,8902,1,0,0:0:0:0:
64,192,9006,1,0,0:0:0:0:
192,192,9109,1,0,0:0:0:0:
448,192,9213,128,0,9420:0:0:0:0:
64,192,9213,1,0,0:0:0:0:
64,192,9523,128,0,9730:0:0:0:0:
320,192,9523,1,0,0:0:0:0:
448,192,9833,128,0,10040:0:0:0:0:
192,192,9833,1,0,0:0:0:0:
64,192,10040,1,0,0:0:0:0:
192,192,10247,1,0,0:0:0:0:
448,192,10247,1,0,0:0:0:0:
320,192,10454,1,0,0:0:0:0:
64,192,10454,1,0,0:0:0:0:
192,192,10661,1,0,0:0:0:0:
64,192,10661,1,0,0:0:0:0:
448,192,10868,1,0,0:0:0:0:
64,192,10868,1,0,0:0:0:0:
320,192,11075,1,0,0:0:0:0:
448,192,11075,1,0,0:0:0:0:
320,192,11282,1,0,0:0:0:0:
64,192,11282,1,0,0:0:0:0:
192,192,11489,1,0,0:0:0:0:
448,192,11489,1,0,0:0:0:0:
320,192,11696,1,0,0:0:0:0:
192,192,11696,1,0,0:0:0:0:
64,192,11902,1,0,0:0:0:0:
448,192,11902,1,0,0:0:0:0:
64,192,12109,1,0,0:0:0:0:
320,192,12109,1,0,0:0:0:0:
320,192,12316,1,0,0:0:0:0:
448,192,12316,1,0,0:0:0:0:
192,192,12523,1,0,0:0:0:0:
64,192,12523,1,0,0:0:0:0:
320,192,12730,1,0,0:0:0:0:
64,192,12730,1,0,0:0:0:0:
192,192,12937,1,0,0:0:0:0:
320,192,12937,1,0,0:0:0:0:
64,192,13144,1,0,0:0:0:0:
448,192,13144,1,0,0:0:0:0:
192,192,13351,1,0,0:0:0:0:
448,192,13351,1,0,0:0:0:0:
320,192,13454,1,0,0:0:0:0:
192,192,13558,1,0,0:0:0:0:
64,192,13661,1,0,0:0:0:0:
320,192,13765,1,0,0:0:0:0:
448,192,13765,1,0,0:0:0:0:
64,192,13868,1,0,0:0:0:0:
192,192,13971,1,0,0:0:0:0:
320,192,14075,1,0,0:0:0:0:
64,192,14178,1,0,0:0:0:0:
448,192,14178,1,0,0:0:0:0:
320,192,14282,1,0,0:0:0:0:
192,192,14385,1,0,0:0:0:0:
64,192,14489,1,0,0:0:0:0:
320,192,14592,1,0,0:0:0:0:
448,192,14592,1,0,0:0:0:0:
64,192,14696,1,0,0:0:0:0:
192,192,14799,1,0,0:0:0:0:
448,192,14902,1,0,0:0:0:0:
320,192,15006,1,0,0:0:0:0:
192,192,15109,1,0,0:0:0:0:
64,192,15213,1,0,0:0:0:0:
320,192,15316,1,0,0:0:0:0:
448,192,15420,1,0,0:0:0:0:
64,192,15420,128,0,15523:0:0:0:0:
320,192,15523,128,0,15627:0:0:0:0:
192,192,15627,128,0,15730:0:0:0:0:
448,192,15730,128,0,15833:0:0:0:0:
64,192,15833,1,0,0:0:0:0:
192,192,16144,1,0,0:0:0:0:
320,192,16144,1,0,0:0:0:0:
64,192,16454,1,0,0:0:0:0:
192,192,16454,1,0,0:0:0:0:
448,192,16765,128,0,17075:0:0:0:0:
64,192,16765,1,0,0:0:0:0:
192,192,17075,1,0,0:0:0:0:
320,192,17178,1,0,0:0:0:0:
448,192,17282,1,0,0:0:0:0:
320,192,17385,1,0,0:0:0:0:
64,192,17489,1,0,0:0:0:0:
448,192,17489,1,0,0:0:0:0:
192,192,17592,1,0,0:0:0:0:
320,192,17696,1,0,0:0:0:0:
192,192,17799,1,0,0:0:0:0:
448,192,17902,128,0,18109:0:0:0:0:
64,192,17902,1,0,0:0:0:0:
192,192,18109,128,0,18316:0:0:0:0:
320,192,18109,1,0,0:0:0:0:
448,192,18316,1,0,0:0:0:0:
320,192,18420,1,0,0:0:0:0:
64,192,18523,1,0,0:0:0:0:
320,192,18627,1,0,0:0:0:0:
192,192,18730,1,0,0:0:0:0:
448,192,18730,1,0,0:0:0:0:
320,192,18833,1,0,0:0:0:0:
192,192,18937,1,0,0:0:0:0:
320,192,19040,1,0,0:0:0:0:
64,192,19144,1,0,0:0:0:0:
448,192,19144,1,0,0:0:0:0:
192,192,19247,1,0,0:0:0:0:
320,192,19351,1,0,0:0:0:0:
448,192,19454,1,0,0:0:0:0:
64,192,19558,128,0,19765:0:0:0:0:
192,192,19558,1,0,0:0:0:0:
320,192,19765,1,0,0:0:0:0:
448,192,19765,128,0,19971:0:0:0:0:
192,192,19971,1,0,0:0:0:0:
64,192,20075,1,0,0:0:0:0:
320,192,20178,1,0,0:0:0:0:
448,192,20282,1,0,0:0:0:0:
64,192,20385,1,0,0:0:0:0:
192,192,20385,1,0,0:0:0:0:
320,192,20489,1,0,0:0:0:0:
448,192,20592,1,0,0:0:0:0:
192,192,20696,1,0,0:0:0:0:
320,192,20799,1,0,0:0:0:0:
64,192,20799,1,0,0:0:0:0:
448,192,20902,1,0,0:0:0:0:
192,192,21006,128,0,21213:0:0:0:0:
64,192,21006,1,0,0:0:0:0:
448,192,21213,128,0,21420:0:0:0:0:
320,192,21213,1,0,0:0:0:0:
64,192,21420,128,0,21627:0:0:0:0:
192,192,21420,1,0,0:0:0:0:
320,192,21627,1,0,0:0:0:0:
192,192,21730,1,0,0:0:0:0:
64,192,21833,1,0,0:0:0:0:
192,192,21937,1,0,0:0:0:0:
448,192,22040,128,0,22144:0:0:0:0:
64,192,22040,1,0,0:0:0:0:
192,192,22144,128,0,22247:0:0:0:0:
320,192,22247,128,0,22351:0:0:0:0:
64,192,22351,128,0,22454:0:0:0:0:
448,192,22454,128,0,22661:0:0:0:0:
192,192,22454,1,0,0:0:0:0:
64,192,22661,1,0,0:0:0:0:
192,192,22661,128,0,22868:0:0:0:0:
320,192,22868,128,0,23075:0:0:0:0:
448,192,22868,1,0,0:0:0:0:
64,192,23075,128,0,23282:0:0:0:0:
192,192,23075,1,0,0:0:0:0:
448,192,23282,1,0,0:0:0:0:
320,192,23385,1,0,0:0:0:0:
192,192,23489,1,0,0:0:0:0:
320,192,23592,1,0,0:0:0:0:
64,192,23696,1,0,0:0:0:0:
192,192,23696,1,0,0:0:0:0:
320,192,23799,1,0,0:0:0:0:
448,192,23902,1,0,0:0:0:0:
192,192,24006,1,0,0:0:0:0:
320,192,24109,1,0,0:0:0:0:
64,192,24109,1,0,0:0:0:0:
192,192,24213,1,0,0:0:0:0:
320,192,24316,1,0,0:0:0:0:
192,192,24420,1,0,0:0:0:0:
64,192,24523,1,0,0:0:0:0:
448,192,24523,128,0,24730:0:0:0:0:
320,192,24730,1,0,0:0:0:0:
192,192,24730,128,0,24937:0:0:0:0:
448,192,24937,1,0,0:0:0:0:
320,192,25040,1,0,0:0:0:0:
192,192,25144,1,0,0:0:0:0:
320,192,25247,1,0,0:0:0:0:
64,192,25351,1,0,0:0:0:0:
192,192,25351,1,0,0:0:0:0:
320,192,25454,1,0,0:0:0:0:
448,192,25558,1,0,0:0:0:0:
192,192,25661,1,0,0:0:0:0:
64,192,25765,1,0,0:0:0:0:
320,192,25765,1,0,0:0:0:0:
192,192,25868,1,0,0:0:0:0:
320,192,25971,1,0,0:0:0:0:
64,192,26075,1,0,0:0:0:0:
448,192,26178,128,0,26385:0:0:0:0:
192,192,26178,1,0,0:0:0:0:
320,192,26385,1,0,0:0:0:0:
64,192,26385,128,0,26592:0:0:0:0:
448,192,26592,1,0,0:0:0:0:
320,192,26696,1,0,0:0:0:0:
192,192,26799,1,0,0:0:0:0:
320,192,26902,1,0,0:0:0:0:
64,192,27006,1,0,0:0:0:0:
448,192,27006,1,0,0:0:0:0:
320,192,27109,1,0,0:0:0:0:
192,192,27213,1,0,0:0:0:0:
64,192,27316,1,0,0:0:0:0:
448,192,27420,1,0,0:0:0:0:
192,192,27420,1,0,0:0:0:0:
320,192,27523,1,0,0:0:0:0:
64,192,27627,128,0,27833:0:0:0:0:
192,192,27627,1,0,0:0:0:0:
448,192,27833,128,0,28040:0:0:0:0:
320,192,27833,1,0,0:0:0:0:
64,192,28040,1,0,0:0:0:0:
192,192,28040,128,0,28247:0:0:0:0:
448,192,28247,1,0,0:0:0:0:
320,192,28454,1,0,0:0:0:0:
448,192,28661,128,0,28765:0:0:0:0:
64,192,28661,1,0,0:0:0:0:
320,192,28765,128,0,28868:0:0:0:0:
192,192,28868,128,0,28971:0:0:0:0:
64,192,28971,128,0,29075:0:0:0:0:
448,192,29075,128,0,29282:0:0:0:0:
320,192,29075,1,0,0:0:0:0:
64,192,29282,128,0,29489:0:0:0:0:
192,192,29282,1,0,0:0:0:0:
320,192,29489,128,0,29696:0:0:0:0:
448,192,29489,1,0,0:0:0:0:
192,192,29696,128,0,29902:0:0:0:0:
64,192,29696,1,0,0:0:0:0:
448,192,29902,1,0,0:0:0:0:
320,192,30006,1,0,0:0:0:0:
192,192,30109,1,0,0:0:0:0:
320,192,30213,1,0,0:0:0:0:
64,192,30316,1,0,0:0:0:0:
192,192,30316,1,0,0:0:0:0:
448,192,30420,1,0,0:0:0:0:
320,192,30523,1,0,0:0:0:0:
64,192,30627,1,0,0:0:0:0:
192,192,30730,1,0,0:0:0:0:
448,192,30730,1,0,0:0:0:0:
320,192,30833,1,0,0:0:0:0:
192,192,30937,1,0,0:0:0:0:
320,192,31040,1,0,0:0:0:0:
64,192,31144,128,0,31351:0:0:0:0:
448,192,31144,1,0,0:0:0:0:
320,192,31351,128,0,31558:0:0:0:0:
192,192,31351,1,0,0:0:0:0:
64,192,31558,1,0,0:0:0:0:
448,192,31661,1,0,0:0:0:0:
192,192,31765,1,0,0:0:0:0:
64,192,31868,1,0,0:0:0:0:
448,192,31971,1,0,0:0:0:0:
320,192,31971,1,0,0:0:0:0:
192,192,32075,1,0,0:0:0:0:
64,192,32178,1,0,0:0:0:0:
192,192,32282,1,0,0:0:0:0:
448,192,32385,128,0,32489:0:0:0:0:
64,192,32489,1,0,0:0:0:0:
320,192,32592,128,0,32696:0:0:0:0:
64,192,32696,1,0,0:0:0:0:
192,192,32799,128,0,33213:0:0:0:0:
448,192,33213,1,0,0:0:0:0:
320,192,33316,1,0,0:0:0:0:
192,192,33420,1,0,0:0:0:0:
320,192,33523,1,0,0:0:0:0:
64,192,33627,1,0,0:0:0:0:
448,192,33627,1,0,0:0:0:0:
320,192,33730,1,0,0:0:0:0:
192,192,33833,1,0,0:0:0:0:
64,192,33937,1,0,0:0:0:0:
320,192,34040,1,0,0:0:0:0:
448,192,34040,1,0,0:0:0:0:
192,192,34144,1,0,0:0:0:0:
64,192,34247,1,0,0:0:0:0:
320,192,34351,1,0,0:0:0:0:
192,192,34454,1,0,0:0:0:0:
448,192,34454,1,0,0:0:0:0:
320,192,34558,1,0,0:0:0:0:
192,192,34661,1,0,0:0:0:0:
320,192,34765,1,0,0:0:0:0:
64,192,34868,128,0,35075:0:0:0:0:
448,192,34868,1,0,0:0:0:0:
320,192,35075,1,0,0:0:0:0:
192,192,35282,1,0,0:0:0:0:
448,192,35282,128,0,35489:0:0:0:0:
64,192,35489,1,0,0:0:0:0:
320,192,35696,128,0,35799:0:0:0:0:
192,192,36006,128,0,36109:0:0:0:0:
320,192,36316,128,0,36420:0:0:0:0:
64,192,36523,1,0,0:0:0:0:
448,192,36523,1,0,0:0:0:0:
192,192,36627,1,0,0:0:0:0:
320,192,36730,1,0,0:0:0:0:
448,192,36833,1,0,0:0:0:0:
64,192,36937,1,0,0:0:0:0:
192,192,36937,1,0,0:0:0:0:
448,192,37040,1,0,0:0:0:0:
320,192,37144,1,0,0:0:0:0:
192,192,37247,1,0,0:0:0:0:
64,192,37351,1,0,0:0:0:0:
448,192,37351,1,0,0:0:0:0:
320,192,37454,1,0,0:0:0:0:
192,192,37558,1,0,0:0:0:0:
64,192,37661,1,0,0:0:0:0:
448,192,37765,128,0,37868:0:0:0:0:
192,192,37868,1,0,0:0:0:0:
320,192,37971,128,0,38075:0:0:0:0:
64,192,38075,1,0,0:0:0:0:
192,192,38178,1,0,0:0:0:0:
448,192,38178,1,0,0:0:0:0:
320,192,38282,1,0,0:0:0:0:
192,192,38385,1,0,0:0:0:0:
64,192,38489,1,0,0:0:0:0:
320,192,38592,1,0,0:0:0:0:
448,192,38592,1,0,0:0:0:0:
192,192,38696,1,0,0:0:0:0:
320,192,38799,1,0,0:0:0:0:
448,192,38902,1,0,0:0:0:0:
64,192,39006,1,0,0:0:0:0:
320,192,39006,1,0,0:0:0:0:
192,192,39109,1,0,0:0:0:0:
320,192,39213,1,0,0:0:0:0:
448,192,39316,1,0,0:0:0:0:
64,192,39420,128,0,39523:0:0:0:0:
320,192,39523,128,0,39627:0:0:0:0:
192,192,39627,128,0,39730:0:0:0:0:
448,192,39730,128,0,39833:0:0:0:0:
64,192,39833,1,0,0:0:0:0:
192,192,39937,1,0,0:0:0:0:
320,192,40040,1,0,0:0:0:0:
448,192,40144,1,0,0:0:0:0:
320,192,40247,1,0,0:0:0:0:
64,192,40247,1,0,0:0:0:0:
192,192,40351,1,0,0:0:0:0:
320,192,40454,1,0,0:0:0:0:
448,192,40558,1,0,0:0:0:0:
192,192,40661,1,0,0:0:0:0:
64,192,40661,1,0,0:0:0:0:
320,192,40765,1,0,0:0:0:0:
448,192,40868,1,0,0:0:0:0:
320,192,40971,1,0,0:0:0:0:
64,192,41075,1,0,0:0:0:0:
448,192,41075,1,0,0:0:0:0:
320,192,41178,1,0,0:0:0:0:
192,192,41282,1,0,0:0:0:0:
64,192,41385,1,0,0:0:0:0:
448,192,41489,128,0,41696:0:0:0:0:
192,192,41489,1,0,0:0:0:0:
64,192,41696,1,0,0:0:0:0:
64,192,41902,128,0,42109:0:0:0:0:
320,192,41902,1,0,0:0:0:0:
448,192,42109,1,0,0:0:0:0:
192,192,42213,128,0,43144:0:0:0:0:
320,192,42213,128,0,42523:0:0:0:0:
448,192,43144,1,0,0:0:0:0:
320,192,43971,128,0,44282:0:0:0:0:
64,192,44282,1,0,0:0:0:0:
192,192,44592,128,0,44799:0:0:0:0:
448,192,44799,1,0,0:0:0:0:
64,192,45627,128,0,45937:0:0:0:0:
448,192,45937,1,0,0:0:0:0:
320,192,46247,128,0,46454:0:0:0:0:
64,192,46454,1,0,0:0:0:0:
448,192,46454,128,0,47696:0:0:0:0:
192,192,48109,128,0,48730:0:0:0:0:
448,192,48730,1,0,0:0:0:0:
320,192,48799,1,0,0:0:0:0:
192,192,48868,1,0,0:0:0:0:
64,192,48937,1,0,0:0:0:0:
320,192,49144,1,0,0:0:0:0:
192,192,49351,1,0,0:0:0:0:
448,192,49558,1,0,0:0:0:0:
64,192,49765,1,0,0:0:0:0:
320,192,49765,1,0,0:0:0:0:
192,192,49868,1,0,0:0:0:0:
320,192,49971,1,0,0:0:0:0:
448,192,50075,1,0,0:0:0:0:
192,192,50178,1,0,0:0:0:0:
320,192,50282,1,0,0:0:0:0:
448,192,50385,1,0,0:0:0:0:
64,192,50489,1,0,0:0:0:0:
192,192,50592,1,0,0:0:0:0:
320,192,50696,1,0,0:0:0:0:
448,192,50799,1,0,0:0:0:0:
320,192,50902,1,0,0:0:0:0:
64,192,51006,1,0,0:0:0:0:
192,192,51109,1,0,0:0:0:0:
448,192,51213,1,0,0:0:0:0:
64,192,51213,1,0,0:0:0:0:
320,192,51316,1,0,0:0:0:0:
64,192,51420,1,0,0:0:0:0:
448,192,51420,1,0,0:0:0:0:
192,192,51523,1,0,0:0:0:0:
320,192,51627,1,0,0:0:0:0:
448,192,51730,1,0,0:0:0:0:
192,192,51833,1,0,0:0:0:0:
64,192,51937,1,0,0:0:0:0:
192,192,52040,1,0,0:0:0:0:
320,192,52144,1,0,0:0:0:0:
448,192,52247,1,0,0:0:0:0:
64,192,52247,1,0,0:0:0:0:
320,192,52351,1,0,0:0:0:0:
192,192,52454,1,0,0:0:0:0:
448,192,52558,1,0,0:0:0:0:
64,192,52558,1,0,0:0:0:0:
192,192,52661,1,0,0:0:0:0:
320,192,52765,1,0,0:0:0:0:
64,192,52868,1,0,0:0:0:0:
448,192,52868,1,0,0:0:0:0:
320,192,52971,1,0,0:0:0:0:
192,192,53075,1,0,0:0:0:0:
64,192,53075,1,0,0:0:0:0:
448,192,53178,1,0,0:0:0:0:
320,192,53282,1,0,0:0:0:0:
192,192,53385,1,0,0:0:0:0:
64,192,53489,1,0,0:0:0:0:
192,192,53592,1,0,0:0:0:0:
320,192,53696,1,0,0:0:0:0:
448,192,53696,1,0,0:0:0:0:
192,192,53799,1,0,0:0:0:0:
64,192,53799,1,0,0:0:0:0:
320,192,53902,1,0,0:0:0:0:
448,192,53902,1,0,0:0:0:0:
192,192,54006,1,0,0:0:0:0:
64,192,54109,1,0,0:0:0:0:
320,192,54213,1,0,0:0:0:0:
448,192,54316,1,0,0:0:0:0:
320,192,54420,1,0,0:0:0:0:
64,192,54523,1,0,0:0:0:0:
192,192,54523,1,0,0:0:0:0:
320,192,54627,1,0,0:0:0:0:
448,192,54627,1,0,0:0:0:0:
64,192,54730,1,0,0:0:0:0:
192,192,54730,128,0,55144:0:0:0:0:
448,192,55144,128,0,55351:0:0:0:0:
320,192,55144,1,0,0:0:0:0:
64,192,55558,128,0,55765:0:0:0:0:
192,192,55558,1,0,0:0:0:0:
320,192,55971,128,0,56178:0:0:0:0:
448,192,55971,1,0,0:0:0:0:
64,192,56385,1,0,0:0:0:0:
192,192,56385,128,0,57213:0:0:0:0:
448,192,56489,1,0,0:0:0:0:
320,192,56592,1,0,0:0:0:0:
64,192,56696,1,0,0:0:0:0:
448,192,56799,1,0,0:0:0:0:
320,192,56902,1,0,0:0:0:0:
64,192,57006,1,0,0:0:0:0:
448,192,57109,1,0,0:0:0:0:
320,192,57213,1,0,0:0:0:0:
64,192,57316,1,0,0:0:0:0:
192,192,57420,1,0,0:0:0:0:
320,192,57523,1,0,0:0:0:0:
64,192,57833,1,0,0:0:0:0:
448,192,57833,1,0,0:0:0:0:
64,192,58040,128,0,58868:0:0:0:0:
448,192,58040,1,0,0:0:0:0:
192,192,58144,1,0,0:0:0:0:
320,192,58247,1,0,0:0:0:0:
448,192,58351,1,0,0:0:0:0:
192,192,58454,1,0,0:0:0:0:
320,192,58558,1,0,0:0:0:0:
448,192,58661,1,0,0:0:0:0:
192,192,58765,1,0,0:0:0:0:
320,192,58868,1,0,0:0:0:0:
448,192,58971,1,0,0:0:0:0:
192,192,59075,1,0,0:0:0:0:
64,192,59178,1,0,0:0:0:0:
448,192,59489,1,0,0:0:0:0:
192,192,59489,1,0,0:0:0:0:
320,192,59696,128,0,60523:0:0:0:0:
64,192,59696,1,0,0:0:0:0:
192,192,59799,1,0,0:0:0:0:
448,192,59902,1,0,0:0:0:0:
64,192,60006,1,0,0:0:0:0:
192,192,60109,1,0,0:0:0:0:
448,192,60213,1,0,0:0:0:0:
64,192,60316,1,0,0:0:0:0:
192,192,60420,1,0,0:0:0:0:
448,192,60523,1,0,0:0:0:0:
64,192,60627,1,0,0:0:0:0:
192,192,60730,1,0,0:0:0:0:
320,192,60833,1,0,0:0:0:0:
64,192,61144,1,0,0:0:0:0:
192,192,61144,1,0,0:0:0:0:
320,192,61351,1,0,0:0:0:0:
448,192,61351,128,0,62178:0:0:0:0:
64,192,61454,1,0,0:0:0:0:
192,192,61558,1,0,0:0:0:0:
320,192,61661,1,0,0:0:0:0:
192,192,61765,1,0,0:0:0:0:
64,192,61868,1,0,0:0:0:0:
320,192,61971,1,0,0:0:0:0:
64,192,62075,1,0,0:0:0:0:
192,192,62178,1,0,0:0:0:0:
192,192,62385,1,0,0:0:0:0:
192,192,62592,1,0,0:0:0:0:
192,192,62799,1,0,0:0:0:0:
192,192,63006,1,0,0:0:0:0:
448,192,63006,128,0,63316:0:0:0:0:
64,192,63316,128,0,63627:0:0:0:0:
320,192,63316,1,0,0:0:0:0:
320,192,63627,128,0,63937:0:0:0:0:
448,192,63627,1,0,0:0:0:0:
192,192,63937,128,0,64247:0:0:0:0:
64,192,63937,1,0,0:0:0:0:
448,192,64247,128,0,64558:0:0:0:0:
320,192,64247,1,0,0:0:0:0:
192,192,64558,128,0,64868:0:0:0:0:
320,192,64558,1,0,0:0:0:0:
448,192,64868,128,0,65178:0:0:0:0:
64,192,64868,1,0,0:0:0:0:
64,192,65178,128,0,65489:0:0:0:0:
320,192,65178,1,0,0:0:0:0:
320,192,65489,128,0,65799:0:0:0:0:
448,192,65489,1,0,0:0:0:0:
192,192,65799,128,0,66109:0:0:0:0:
64,192,65799,1,0,0:0:0:0:
448,192,66109,128,0,66316:0:0:0:0:
320,192,66109,1,0,0:0:0:0:
64,192,66316,128,0,66523:0:0:0:0:
192,192,66316,1,0,0:0:0:0:
192,192,66730,1,0,0:0:0:0:
448,192,66730,128,0,66937:0:0:0:0:
192,192,67144,128,0,67351:0:0:0:0:
320,192,67144,1,0,0:0:0:0:
64,192,67558,128,0,67765:0:0:0:0:
448,192,67558,1,0,0:0:0:0:
192,192,67971,1,0,0:0:0:0:
448,192,67971,128,0,68178:0:0:0:0:
64,192,68178,128,0,68385:0:0:0:0:
320,192,68178,1,0,0:0:0:0:
320,192,68385,128,0,68592:0:0:0:0:
448,192,68385,1,0,0:0:0:0:
192,192,68592,128,0,68799:0:0:0:0:
64,192,68592,1,0,0:0:0:0:
448,192,68799,128,0,68902:0:0:0:0:
320,192,68902,128,0,69006:0:0:0:0:
192,192,69006,128,0,69109:0:0:0:0:
64,192,69109,128,0,69213:0:0:0:0:
448,192,69213,128,0,69627:0:0:0:0:
64,192,69627,1,0,0:0:0:0:
64,192,72109,1,0,0:0:0:0:
448,192,72109,1,0,0:0:0:0:
64,192,72523,1,0,0:0:0:0:
320,192,72523,1,0,0:0:0:0:
192,192,72937,1,0,0:0:0:0:
448,192,72937,1,0,0:0:0:0:
320,192,73040,1,0,0:0:0:0:
192,192,73144,1,0,0:0:0:0:
320,192,73247,1,0,0:0:0:0:
192,192,73351,1,0,0:0:0:0:
64,192,73351,1,0,0:0:0:0:
320,192,73454,1,0,0:0:0:0:
448,192,73558,1,0,0:0:0:0:
320,192,73661,1,0,0:0:0:0:
64,192,73765,1,0,0:0:0:0:
448,192,73765,1,0,0:0:0:0:
192,192,73868,1,0,0:0:0:0:
320,192,73971,1,0,0:0:0:0:
448,192,74075,1,0,0:0:0:0:
320,192,74178,1,0,0:0:0:0:
64,192,74178,1,0,0:0:0:0:
192,192,74282,1,0,0:0:0:0:
320,192,74385,1,0,0:0:0:0:
448,192,74489,1,0,0:0:0:0:
320,192,74592,1,0,0:0:0:0:
192,192,74592,1,0,0:0:0:0:
64,192,74696,1,0,0:0:0:0:
192,192,74799,1,0,0:0:0:0:
320,192,74902,1,0,0:0:0:0:
448,192,75006,1,0,0:0:0:0:
64,192,75006,1,0,0:0:0:0:
320,192,75109,1,0,0:0:0:0:
192,192,75213,1,0,0:0:0:0:
64,192,75316,1,0,0:0:0:0:
192,192,75420,1,0,0:0:0:0:
448,192,75420,1,0,0:0:0:0:
320,192,75523,1,0,0:0:0:0:
192,192,75627,1,0,0:0:0:0:
64,192,75730,1,0,0:0:0:0:
192,192,75833,1,0,0:0:0:0:
448,192,75833,128,0,76040:0:0:0:0:
64,192,76040,128,0,76247:0:0:0:0:
320,192,76040,1,0,0:0:0:0:
448,192,76247,1,0,0:0:0:0:
320,192,76351,1,0,0:0:0:0:
192,192,76454,1,0,0:0:0:0:
64,192,76558,1,0,0:0:0:0:
192,192,76661,1,0,0:0:0:0:
448,192,76661,1,0,0:0:0:0:
320,192,76765,1,0,0:0:0:0:
448,192,76868,1,0,0:0:0:0:
320,192,76971,1,0,0:0:0:0:
64,192,77075,1,0,0:0:0:0:
448,192,77075,1,0,0:0:0:0:
192,192,77178,1,0,0:0:0:0:
320,192,77282,1,0,0:0:0:0:
448,192,77385,1,0,0:0:0:0:
192,192,77489,1,0,0:0:0:0:
64,192,77489,1,0,0:0:0:0:
320,192,77592,1,0,0:0:0:0:
448,192,77696,1,0,0:0:0:0:
320,192,77799,1,0,0:0:0:0:
64,192,77902,1,0,0:0:0:0:
448,192,77902,1,0,0:0:0:0:
320,192,78006,1,0,0:0:0:0:
192,192,78109,1,0,0:0:0:0:
64,192,78213,1,0,0:0:0:0:
192,192,78316,1,0,0:0:0:0:
448,192,78316,1,0,0:0:0:0:
64,192,78420,1,0,0:0:0:0:
192,192,78523,1,0,0:0:0:0:
320,192,78627,1,0,0:0:0:0:
64,192,78730,1,0,0:0:0:0:
192,192,78730,1,0,0:0:0:0:
320,192,78833,1,0,0:0:0:0:
448,192,78937,1,0,0:0:0:0:
320,192,79040,1,0,0:0:0:0:
64,192,79144,128,0,79351:0:0:0:0:
448,192,79144,1,0,0:0:0:0:
192,192,79351,1,0,0:0:0:0:
320,192,79351,128,0,79558:0:0:0:0:
64,192,79558,1,0,0:0:0:0:
192,192,79661,1,0,0:0:0:0:
320,192,79765,1,0,0:0:0:0:
192,192,79868,1,0,0:0:0:0:
64,192,79971,1,0,0:0:0:0:
320,192,79971,1,0,0:0:0:0:
448,192,80075,1,0,0:0:0:0:
320,192,80178,1,0,0:0:0:0:
192,192,80282,1,0,0:0:0:0:
64,192,80385,1,0,0:0:0:0:
448,192,80385,1,0,0:0:0:0:
320,192,80489,1,0,0:0:0:0:
192,192,80592,1,0,0:0:0:0:
64,192,80696,1,0,0:0:0:0:
320,192,80799,1,0,0:0:0:0:
448,192,80799,1,0,0:0:0:0:
192,192,80902,1,0,0:0:0:0:
64,192,81006,1,0,0:0:0:0:
192,192,81109,1,0,0:0:0:0:
64,192,81213,1,0,0:0:0:0:
320,192,81213,1,0,0:0:0:0:
448,192,81316,1,0,0:0:0:0:
320,192,81420,1,0,0:0:0:0:
192,192,81523,1,0,0:0:0:0:
320,192,81627,1,0,0:0:0:0:
448,192,81627,1,0,0:0:0:0:
192,192,81730,1,0,0:0:0:0:
64,192,81833,1,0,0:0:0:0:
192,192,81937,1,0,0:0:0:0:
320,192,82040,1,0,0:0:0:0:
64,192,82040,1,0,0:0:0:0:
192,192,82144,1,0,0:0:0:0:
320,192,82247,1,0,0:0:0:0:
448,192,82351,1,0,0:0:0:0:
64,192,82454,128,0,82661:0:0:0:0:
192,192,82454,1,0,0:0:0:0:
448,192,82661,128,0,82868:0:0:0:0:
320,192,82661,1,0,0:0:0:0:
64,192,82868,1,0,0:0:0:0:
192,192,82971,1,0,0:0:0:0:
320,192,83075,1,0,0:0:0:0:
192,192,83178,1,0,0:0:0:0:
64,192,83282,1,0,0:0:0:0:
448,192,83282,1,0,0:0:0:0:
192,192,83385,1,0,0:0:0:0:
320,192,83489,1,0,0:0:0:0:
448,192,83592,1,0,0:0:0:0:
320,192,83696,1,0,0:0:0:0:
192,192,83696,1,0,0:0:0:0:
64,192,83799,1,0,0:0:0:0:
192,192,83902,1,0,0:0:0:0:
320,192,84006,1,0,0:0:0:0:
448,192,84109,1,0,0:0:0:0:
64,192,84109,1,0,0:0:0:0:
192,192,84213,1,0,0:0:0:0:
320,192,84316,1,0,0:0:0:0:
192,192,84420,1,0,0:0:0:0:
64,192,84523,1,0,0:0:0:0:
320,192,84523,1,0,0:0:0:0:
448,192,84627,1,0,0:0:0:0:
320,192,84730,1,0,0:0:0:0:
192,192,84833,1,0,0:0:0:0:
320,192,84937,1,0,0:0:0:0:
448,192,84937,128,0,85040:0:0:0:0:
192,192,85040,128,0,85144:0:0:0:0:
320,192,85144,128,0,85247:0:0:0:0:
64,192,85247,128,0,85351:0:0:0:0:
448,192,85351,128,0,85558:0:0:0:0:
64,192,85558,128,0,85661:0:0:0:0:
320,192,85661,1,0,0:0:0:0:
192,192,85765,128,0,85868:0:0:0:0:
448,192,85868,1,0,0:0:0:0:
64,192,85971,128,0,86075:0:0:0:0:
320,192,86075,1,0,0:0:0:0:
192,192,86178,1,0,0:0:0:0:
448,192,86178,1,0,0:0:0:0:
320,192,86282,1,0,0:0:0:0:
192,192,86385,1,0,0:0:0:0:
64,192,86489,1,0,0:0:0:0:
192,192,86592,1,0,0:0:0:0:
448,192,86592,1,0,0:0:0:0:
320,192,86696,1,0,0:0:0:0:
192,192,86799,1,0,0:0:0:0:
64,192,86902,1,0,0:0:0:0:
192,192,87006,1,0,0:0:0:0:
320,192,87006,1,0,0:0:0:0:
448,192,87109,1,0,0:0:0:0:
320,192,87213,1,0,0:0:0:0:
192,192,87316,1,0,0:0:0:0:
64,192,87420,1,0,0:0:0:0:
448,192,87420,1,0,0:0:0:0:
192,192,87523,1,0,0:0:0:0:
320,192,87627,1,0,0:0:0:0:
192,192,87730,1,0,0:0:0:0:
64,192,87833,1,0,0:0:0:0:
320,192,87833,1,0,0:0:0:0:
192,192,87937,1,0,0:0:0:0:
320,192,88040,1,0,0:0:0:0:
448,192,88144,1,0,0:0:0:0:
320,192,88247,1,0,0:0:0:0:
192,192,88247,1,0,0:0:0:0:
64,192,88351,1,0,0:0:0:0:
192,192,88454,1,0,0:0:0:0:
320,192,88558,1,0,0:0:0:0:
192,192,88661,1,0,0:0:0:0:
448,192,88661,1,0,0:0:0:0:
320,192,88765,1,0,0:0:0:0:
192,192,88868,1,0,0:0:0:0:
64,192,88971,1,0,0:0:0:0:
192,192,89075,1,0,0:0:0:0:
448,192,89075,128,0,89282:0:0:0:0:
320,192,89282,1,0,0:0:0:0:
64,192,89282,128,0,89489:0:0:0:0:
448,192,89489,1,0,0:0:0:0:
320,192,89592,1,0,0:0:0:0:
192,192,89696,1,0,0:0:0:0:
64,192,89799,1,0,0:0:0:0:
192,192,89902,1,0,0:0:0:0:
320,192,89902,1,0,0:0:0:0:
448,192,90006,1,0,0:0:0:0:
320,192,90109,1,0,0:0:0:0:
192,192,90213,1,0,0:0:0:0:
64,192,90316,1,0,0:0:0:0:
320,192,90316,1,0,0:0:0:0:
192,192,90420,1,0,0:0:0:0:
320,192,90523,1,0,0:0:0:0:
192,192,90627,1,0,0:0:0:0:
320,192,90730,1,0,0:0:0:0:
448,192,90730,1,0,0:0:0:0:
192,192,90833,1,0,0:0:0:0:
64,192,90937,1,0,0:0:0:0:
192,192,91040,1,0,0:0:0:0:
320,192,91144,1,0,0:0:0:0:
64,192,91144,1,0,0:0:0:0:
448,192,91247,1,0,0:0:0:0:
320,192,91351,1,0,0:0:0:0:
192,192,91454,1,0,0:0:0:0:
64,192,91558,1,0,0:0:0:0:
448,192,91558,1,0,0:0:0:0:
192,192,91661,1,0,0:0:0:0:
320,192,91765,1,0,0:0:0:0:
448,192,91868,1,0,0:0:0:0:
320,192,91971,1,0,0:0:0:0:
64,192,91971,1,0,0:0:0:0:
192,192,92075,1,0,0:0:0:0:
320,192,92178,1,0,0:0:0:0:
192,192,92282,1,0,0:0:0:0:
448,192,92385,1,0,0:0:0:0:
64,192,92385,128,0,92592:0:0:0:0:
320,192,92592,128,0,92799:0:0:0:0:
192,192,92592,1,0,0:0:0:0:
64,192,92799,1,0,0:0:0:0:
192,192,92902,128,0,93213:0:0:0:0:
448,192,93213,1,0,0:0:0:0:
320,192,93316,1,0,0:0:0:0:
192,192,93420,1,0,0:0:0:0:
64,192,93523,1,0,0:0:0:0:
192,192,93627,1,0,0:0:0:0:
320,192,93627,1,0,0:0:0:0:
64,192,93730,1,0,0:0:0:0:
192,192,93833,1,0,0:0:0:0:
320,192,93937,1,0,0:0:0:0:
448,192,94040,1,0,0:0:0:0:
192,192,94040,1,0,0:0:0:0:
320,192,94144,1,0,0:0:0:0:
192,192,94247,1,0,0:0:0:0:
64,192,94351,1,0,0:0:0:0:
192,192,94454,1,0,0:0:0:0:
320,192,94454,1,0,0:0:0:0:
448,192,94558,1,0,0:0:0:0:
320,192,94661,1,0,0:0:0:0:
192,192,94765,1,0,0:0:0:0:
64,192,94868,1,0,0:0:0:0:
320,192,94868,1,0,0:0:0:0:
192,192,94971,1,0,0:0:0:0:
320,192,95075,1,0,0:0:0:0:
448,192,95178,1,0,0:0:0:0:
320,192,95282,1,0,0:0:0:0:
192,192,95282,1,0,0:0:0:0:
64,192,95385,1,0,0:0:0:0:
192,192,95489,1,0,0:0:0:0:
320,192,95592,1,0,0:0:0:0:
448,192,95696,1,0,0:0:0:0:
192,192,95696,1,0,0:0:0:0:
320,192,95799,1,0,0:0:0:0:
192,192,95902,1,0,0:0:0:0:
64,192,96006,1,0,0:0:0:0:
448,192,96109,1,0,0:0:0:0:
320,192,96109,1,0,0:0:0:0:
192,192,96213,1,0,0:0:0:0:
64,192,96316,1,0,0:0:0:0:
192,192,96420,1,0,0:0:0:0:
320,192,96523,1,0,0:0:0:0:
448,192,96523,1,0,0:0:0:0:
64,192,96627,1,0,0:0:0:0:
192,192,96730,1,0,0:0:0:0:
320,192,96833,1,0,0:0:0:0:
192,192,96937,1,0,0:0:0:0:
64,192,96937,1,0,0:0:0:0:
448,192,97040,1,0,0:0:0:0:
320,192,97144,1,0,0:0:0:0:
192,192,97247,1,0,0:0:0:0:
320,192,97351,1,0,0:0:0:0:
448,192,97351,1,0,0:0:0:0:
192,192,97454,1,0,0:0:0:0:
320,192,97558,1,0,0:0:0:0:
448,192,97661,1,0,0:0:0:0:
192,192,97765,1,0,0:0:0:0:
64,192,97765,1,0,0:0:0:0:
320,192,97868,1,0,0:0:0:0:
448,192,97971,1,0,0:0:0:0:
320,192,98075,1,0,0:0:0:0:
64,192,98178,1,0,0:0:0:0:
448,192,98178,1,0,0:0:0:0:
320,192,98230,1,0,0:0:0:0:
192,192,98282,1,0,0:0:0:0:
64,192,98333,1,0,0:0:0:0:
448,192,98385,1,0,0:0:0:0:
320,192,98437,1,0,0:0:0:0:
192,192,98489,1,0,0:0:0:0:
64,192,98540,1,0,0:0:0:0:
448,192,98592,128,0,99420:0:0:0:0:
64,192,98799,128,0,98902:0:0:0:0:
320,192,98902,1,0,0:0:0:0:
192,192,99006,128,0,99109:0:0:0:0:
320,192,99109,1,0,0:0:0:0:
64,192,99213,128,0,99316:0:0:0:0:
320,192,99316,1,0,0:0:0:0:
192,192,99420,128,0,100247:0:0:0:0:
448,192,100247,128,0,100558:0:0:0:0:
320,192,100558,128,0,100868:0:0:0:0:
64,192,100868,128,0,101075:0:0:0:0:
448,192,101075,128,0,101902:0:0:0:0:
192,192,101902,128,0,102213:0:0:0:0:
320,192,102213,128,0,102523:0:0:0:0:
64,192,102523,128,0,102730:0:0:0:0:
320,192,102730,128,0,103558:0:0:0:0:
192,192,103558,128,0,103868:0:0:0:0:
448,192,103868,128,0,104178:0:0:0:0:
64,192,104178,128,0,104385:0:0:0:0:
320,192,104385,128,0,105006:0:0:0:0:
448,192,105006,128,0,105213:0:0:0:0:
320,192,105213,128,0,105523:0:0:0:0:
192,192,105523,128,0,105833:0:0:0:0:
64,192,105833,128,0,106040:0:0:0:0:
320,192,106040,128,0,106868:0:0:0:0:
448,192,106868,128,0,107178:0:0:0:0:
192,192,107178,128,0,107489:0:0:0:0:
320,192,107489,128,0,107696:0:0:0:0:
64,192,107696,128,0,108523:0:0:0:0:
192,192,108523,128,0,108833:0:0:0:0:
448,192,108833,128,0,109144:0:0:0:0:
320,192,109144,128,0,109351:0:0:0:0:
64,192,109351,128,0,109558:0:0:0:0:
192,192,109558,128,0,109765:0:0:0:0:
448,192,109765,128,0,109971:0:0:0:0:
320,192,109971,128,0,110178:0:0:0:0:
64,192,110178,128,0,110385:0:0:0:0:
448,192,110385,1,0,0:0:0:0:
320,192,110454,1,0,0:0:0:0:
192,192,110523,1,0,0:0:0:0:
64,192,110592,1,0,0:0:0:0:
320,192,110799,1,0,0:0:0:0:
64,192,111006,1,0,0:0:0:0:
448,192,111006,1,0,0:0:0:0:
