osu file format v14

[General]
AudioFilename: audio.mp3
AudioLeadIn: 0
PreviewTime: 97332
Countdown: 0
SampleSet: Soft
StackLeniency: 0.7
Mode: 2
LetterboxInBreaks: 0
WidescreenStoryboard: 1

[Editor]
Bookmarks: 11861,21366,40376,49881,59386,68891,78396,99782,106911
DistanceSpacing: 1.1
BeatDivisor: 4
GridSize: 4
TimelineZoom: 3

[Metadata]
Title:PUPA
TitleUnicode:PUPA
Artist:Morimori Atsushi
ArtistUnicode:モリモリあつし
Creator:Spectator
Version:Rain
Source:Deemo
Tags:Jemzuu AJamez Electronic Instrumental Featured Artist FA Mappers' Guild MG BMS G2R2014 HARD RENAISSANCE VOEZ SOUND VOLTEX IV HEAVENLY HAVEN Muse Dash CHUNITHM チュウニズム CRYSTAL CIRCLINK Dynamix Rhythmsia SEVEN’s CODE VIVID WAVE SDVX RAC Collection 3 Rayark Artists Collaboration GO BACK 2 YOUR ROOTS THE OF FIGHTERS 2004 RELOADED osu! osu
BeatmapID:2681270
BeatmapSetID:660618

[Difficulty]
HPDrainRate:5
CircleSize:4
OverallDifficulty:9
ApproachRate:9
SliderMultiplier:1.8
SliderTickRate:2

[Events]
//Background and Video events
0,0,"pupa.jpg",0,0
//Break Periods
2,59647,67164
//Storyboard Layer 0 (Background)
//Storyboard Layer 1 (Fail)
//Storyboard Layer 2 (Pass)
//Storyboard Layer 3 (Foreground)
//Storyboard Layer 4 (Overlay)
//Storyboard Sound Samples

[TimingPoints]
2418,297.029702970297,4,1,1,80,1,0
11625,-90.9090909090909,4,2,4,60,0,0
11700,-90.9090909090909,4,2,1,90,0,0
11922,-90.9090909090909,4,2,2,90,0,0
11997,-95.2380952380952,4,2,1,90,0,0
16675,-95.2380952380952,4,2,1,70,0,0
17863,-95.2380952380952,4,2,1,80,0,0
19051,-95.2380952380952,4,2,1,90,0,0
21576,-95.2380952380952,4,2,10,90,0,0
21650,-95.2380952380952,4,2,1,90,0,0
21799,-95.2380952380952,4,2,10,90,0,0
21873,-95.2380952380952,4,2,1,90,0,0
22021,-95.2380952380952,4,2,10,90,0,0
22095,-95.2380952380952,4,2,1,90,0,0
22244,-95.2380952380952,4,2,10,90,0,0
22318,-95.2380952380952,4,2,1,90,0,0
22467,-95.2380952380952,4,2,10,90,0,0
22541,-95.2380952380952,4,2,1,90,0,0
22764,-95.2380952380952,4,2,10,90,0,0
22838,-95.2380952380952,4,2,1,90,0,0
22987,-95.2380952380952,4,2,10,90,0,0
23061,-95.2380952380952,4,2,1,90,0,0
23210,-95.2380952380952,4,2,10,90,0,0
23284,-95.2380952380952,4,2,1,90,0,0
23432,-95.2380952380952,4,2,10,90,0,0
23506,-95.2380952380952,4,2,1,90,0,0
23655,-95.2380952380952,4,2,10,90,0,0
23729,-95.2380952380952,4,2,1,90,0,0
23952,-95.2380952380952,4,2,10,90,0,0
24026,-95.2380952380952,4,2,1,90,0,0
24175,-95.2380952380952,4,2,10,90,0,0
24249,-95.2380952380952,4,2,1,90,0,0
24398,-95.2380952380952,4,2,10,90,0,0
24472,-95.2380952380952,4,2,1,90,0,0
24620,-95.2380952380952,4,2,10,90,0,0
24694,-95.2380952380952,4,2,1,90,0,0
24843,-95.2380952380952,4,2,10,90,0,0
24917,-95.2380952380952,4,2,1,90,0,0
25140,-95.2380952380952,4,2,10,90,0,0
25214,-95.2380952380952,4,2,1,90,0,0
25363,-95.2380952380952,4,2,10,90,0,0
25437,-95.2380952380952,4,2,1,90,0,0
25586,-95.2380952380952,4,2,10,90,0,0
25660,-95.2380952380952,4,2,1,90,0,0
25809,-95.2380952380952,4,2,10,90,0,0
25883,-95.2380952380952,4,2,1,90,0,0
26031,-95.2380952380952,4,2,10,90,0,0
26105,-95.2380952380952,4,2,1,90,0,0
26180,-95.2380952380952,4,2,10,90,0,0
26254,-95.2380952380952,4,2,1,90,0,0
27814,-95.2380952380952,4,2,1,90,0,0
27962,-95.2380952380952,4,2,1,90,0,0
31081,-95.2380952380952,4,2,10,90,0,0
31155,-95.2380952380952,4,2,1,90,0,0
31304,-95.2380952380952,4,2,10,90,0,0
31378,-95.2380952380952,4,2,1,90,0,0
31526,-95.2380952380952,4,2,10,90,0,0
31600,-95.2380952380952,4,2,1,90,0,0
31749,-95.2380952380952,4,2,10,90,0,0
31823,-95.2380952380952,4,2,1,90,0,0
31972,-95.2380952380952,4,2,10,90,0,0
32046,-95.2380952380952,4,2,1,90,0,0
32269,-95.2380952380952,4,2,10,90,0,0
32343,-95.2380952380952,4,2,1,90,0,0
32492,-95.2380952380952,4,2,10,90,0,0
32566,-95.2380952380952,4,2,1,90,0,0
32715,-95.2380952380952,4,2,10,90,0,0
32789,-95.2380952380952,4,2,1,90,0,0
32937,-95.2380952380952,4,2,10,90,0,0
33011,-95.2380952380952,4,2,1,90,0,0
33160,-95.2380952380952,4,2,10,90,0,0
33234,-95.2380952380952,4,2,1,90,0,0
33457,-95.2380952380952,4,2,10,90,0,0
33531,-95.2380952380952,4,2,1,90,0,0
33680,-95.2380952380952,4,2,10,90,0,0
33754,-95.2380952380952,4,2,1,90,0,0
33903,-95.2380952380952,4,2,10,90,0,0
33977,-95.2380952380952,4,2,1,90,0,0
34125,-95.2380952380952,4,2,10,90,0,0
34199,-95.2380952380952,4,2,1,90,0,0
34348,-95.2380952380952,4,2,10,90,0,0
34422,-95.2380952380952,4,2,1,90,0,0
34645,-95.2380952380952,4,2,10,90,0,0
34719,-95.2380952380952,4,2,1,90,0,0
34868,-95.2380952380952,4,2,10,90,0,0
34942,-95.2380952380952,4,2,1,90,0,0
44596,-95.2380952380952,4,2,3,90,0,0
44818,-95.2380952380952,4,2,1,90,0,0
49348,-95.2380952380952,4,2,3,90,0,0
49571,-95.2380952380952,4,2,1,90,0,0
49942,-95.2380952380952,4,2,1,90,0,0
56477,-95.2380952380952,4,2,1,90,0,0
59447,-95.2380952380952,4,2,4,75,0,0
59521,-95.2380952380952,4,2,1,90,0,0
67764,-95.2380952380952,4,2,1,90,0,0
68952,-95.2380952380952,4,2,3,90,0,0
69101,-95.2380952380952,4,2,1,90,0,0
69249,-95.2380952380952,4,2,1,75,0,0
69398,-95.2380952380952,4,2,1,90,0,0
71328,-95.2380952380952,4,2,3,90,0,0
71477,-95.2380952380952,4,2,1,90,0,0
71625,-95.2380952380952,4,2,1,75,0,0
71774,-95.2380952380952,4,2,1,90,0,0
73705,-95.2380952380952,4,2,3,90,0,0
73854,-95.2380952380952,4,2,1,90,0,0
74002,-95.2380952380952,4,2,1,75,0,0
74151,-95.2380952380952,4,2,1,90,0,0
74893,-95.2380952380952,4,2,3,90,0,0
75042,-95.2380952380952,4,2,1,90,0,0
76081,-95.2380952380952,4,2,3,90,0,0
76230,-95.2380952380952,4,2,1,90,0,0
78457,-90.9090909090909,4,2,2,90,0,1
78531,-90.9090909090909,4,2,1,90,0,1
79051,-90.9090909090909,4,2,1,90,0,1
95685,-90.9090909090909,4,2,1,90,0,1
96279,-90.9090909090909,4,2,1,90,0,1
97393,-90.9090909090909,4,2,1,90,0,0
97467,-90.9090909090909,4,2,2,90,0,1
97541,-90.9090909090909,4,2,1,90,0,0
97913,-90.9090909090909,4,2,5,90,0,0
97987,-90.9090909090909,4,2,1,90,0,0
98358,-90.9090909090909,4,2,5,90,0,0
98432,-90.9090909090909,4,2,1,90,0,0
98804,-90.9090909090909,4,2,5,90,0,0
98878,-90.9090909090909,4,2,1,90,0,0
99249,-90.9090909090909,4,2,5,90,0,0
99323,-90.9090909090909,4,2,1,90,0,0
99546,-90.9090909090909,4,2,5,90,0,0
99620,-90.9090909090909,4,2,1,90,0,0
99843,-90.9090909090909,4,2,5,90,0,0
99917,-90.9090909090909,4,2,1,90,0,0
100289,-90.9090909090909,4,2,5,90,0,0
100363,-90.9090909090909,4,2,1,90,0,0
100734,-90.9090909090909,4,2,5,90,0,0
100808,-90.9090909090909,4,2,1,90,0,0
101180,-90.9090909090909,4,2,5,90,0,0
101254,-90.9090909090909,4,2,1,90,0,0
101625,-90.9090909090909,4,2,5,90,0,0
101699,-90.9090909090909,4,2,1,90,0,0
101922,-90.9090909090909,4,2,5,90,0,0
101996,-90.9090909090909,4,2,1,90,0,0
102219,-90.9090909090909,4,2,5,90,0,0
102293,-90.9090909090909,4,2,1,90,0,0
102665,-90.9090909090909,4,2,5,90,0,0
102739,-90.9090909090909,4,2,1,90,0,0
103111,-90.9090909090909,4,2,5,90,0,0
103185,-90.9090909090909,4,2,1,90,0,0
103556,-90.9090909090909,4,2,5,90,0,0
103630,-90.9090909090909,4,2,1,90,0,0
104002,-90.9090909090909,4,2,5,90,0,0
104076,-90.9090909090909,4,2,1,90,0,0
104299,-90.9090909090909,4,2,5,90,0,0
104373,-90.9090909090909,4,2,1,90,0,0
104596,-90.9090909090909,4,2,5,90,0,0
104670,-90.9090909090909,4,2,1,90,0,0
105041,-90.9090909090909,4,2,5,90,0,0
105115,-90.9090909090909,4,2,1,90,0,0
105487,-90.9090909090909,4,2,5,90,0,0
105561,-90.9090909090909,4,2,1,90,0,0
106972,-90.9090909090909,4,2,2,90,0,1
107046,-90.9090909090909,4,2,1,90,0,0
116477,-90.9090909090909,4,1,1,80,0,0

[Colours]
Combo1 : 130,236,183
Combo2 : 243,210,97
Combo3 : 125,190,249

[HitObjects]
159,342,2120,5,0,1:0:0:0:
132,294,2195,1,0,1:0:0:0:
157,240,2269,1,0,1:0:0:0:
215,232,2343,1,0,1:0:0:0:
378,239,2418,6,0,P|432:207|364:132,1,180,8|0,1:2|1:0,0:0:0:0:
233,235,2863,2,0,P|179:203|247:128,1,180,8|0,1:2|1:0,0:0:0:0:
467,129,3309,1,8,1:2:0:0:
353,342,4497,5,0,0:0:0:0:
380,294,4572,1,0,0:0:0:0:
355,240,4646,1,0,0:0:0:0:
297,232,4720,1,0,0:0:0:0:
147,237,4794,6,0,P|92:206|162:137,1,180,8|0,0:0|0:0,0:0:0:0:
365,237,5239,2,0,P|420:206|350:137,1,180,8|0,0:0|0:0,0:0:0:0:
74,134,5685,1,8,0:0:0:0:
344,335,6873,5,0,0:0:0:0:
364,289,6947,1,0,0:0:0:0:
347,235,7021,1,0,0:0:0:0:
287,222,7096,1,0,0:0:0:0:
88,205,7170,6,0,P|100:139|217:100,1,180,8|0,0:0|0:0,0:0:0:0:
424,207,7616,2,0,P|412:141|295:102,1,180,8|0,0:0|0:0,0:0:0:0:
100,210,8061,1,8,0:0:0:0:
168,335,9249,5,0,0:0:0:0:
148,289,9323,1,0,0:0:0:0:
165,235,9397,1,0,0:0:0:0:
225,222,9472,1,0,0:0:0:0:
392,223,9546,6,0,P|380:157|263:118,1,180,8|0,0:0|0:0,0:0:0:0:
143,136,9992,2,0,P|155:70|272:31,1,180,8|0,0:0|0:0,0:0:0:0:
479,197,10437,6,0,L|265:199,1,180,8|0,0:0|0:0,0:0:0:0:
156,296,10883,1,0,0:0:0:0:
113,281,10957,1,0,0:0:0:0:
78,253,11031,1,0,0:0:0:0:
56,214,11105,1,0,0:0:0:0:
48,170,11180,1,0,0:0:0:0:
57,126,11254,1,0,0:0:0:0:
80,88,11328,1,0,0:0:0:0:
115,60,11402,1,0,0:0:0:0:
158,47,11477,1,0,0:0:0:0:
379,58,11625,1,2,1:2:0:0:
216,307,11922,6,0,P|158:281|163:159,1,198.000006042481,4|0,2:0|0:0,0:0:0:0:
289,213,12368,2,0,P|349:169|268:102,1,188.999994232178,0|0,1:0|0:0,0:0:0:0:
160,130,12814,2,0,L|40:118,1,94.499997116089
351,73,13111,6,0,L|359:205,1,94.499997116089,0|0,1:0|0:0,0:0:0:0:
247,193,13408,1,0,0:0:0:0:
120,249,13556,1,0,1:0:0:0:
171,255,13630,1,0,0:0:0:0:
223,261,13705,1,0,0:0:0:0:
333,303,13853,1,0,0:0:0:0:
211,368,14002,2,0,L|201:236,1,94.499997116089
457,301,14299,5,0,1:0:0:0:
480,222,14447,1,0,0:0:0:0:
458,136,14596,1,0,2:0:0:0:
360,87,14744,1,0,1:0:0:0:
219,156,14893,1,0,0:0:0:0:
270,153,14967,1,0,0:0:0:0:
321,150,15041,1,0,0:0:0:0:
470,202,15190,2,0,L|476:330,1,94.499997116089
359,295,15487,5,0,1:0:0:0:
137,290,15635,1,0,1:0:0:0:
285,267,15932,1,0,1:0:0:0:
53,303,16081,1,2,0:0:0:0:
34,259,16155,1,0,0:0:0:0:
31,212,16229,1,2,0:0:0:0:
41,166,16303,1,0,0:0:0:0:
66,126,16378,1,2,0:0:0:0:
102,96,16452,1,0,0:0:0:0:
145,78,16526,1,2,0:0:0:0:
430,176,16675,6,0,L|224:151,1,188.999994232178,8|8,1:0|0:0,0:0:0:0:
365,111,17120,1,8,1:0:0:0:
312,107,17195,1,8,0:0:0:0:
260,103,17269,1,8,0:0:0:0:
119,155,17418,2,0,P|133:94|248:33,1,188.999994232178,8|8,0:0|0:0,0:0:0:0:
464,276,17863,6,0,L|474:165,1,94.499997116089,8|8,1:0|0:0,0:0:0:0:
358,167,18160,1,8,0:0:0:0:
229,240,18309,1,8,1:0:0:0:
225,188,18383,1,8,0:0:0:0:
221,136,18457,1,8,0:0:0:0:
316,71,18606,1,8,0:0:0:0:
202,109,18754,2,0,L|86:96,1,94.499997116089,8|8,0:0|0:0,0:0:0:0:
386,335,19051,5,2,1:2:0:0:
442,310,19125,1,0,0:0:0:0:
455,263,19200,1,2,0:0:0:0:
430,208,19274,1,0,0:0:0:0:
373,194,19348,1,2,0:0:0:0:
317,169,19422,1,0,0:0:0:0:
304,122,19497,1,2,0:0:0:0:
324,68,19571,1,0,0:0:0:0:
462,210,19645,1,2,0:0:0:0:
496,171,19719,1,2,0:0:0:0:
501,118,19794,1,2,0:0:0:0:
471,75,19868,1,2,0:0:0:0:
411,65,19942,1,2,1:2:0:0:
113,100,20091,6,0,P|131:187|242:215,1,188.999994232178,0|0,1:0|1:0,0:0:0:0:
268,216,20462,1,0,1:0:0:0:
319,210,20536,1,0,1:0:0:0:
441,239,20685,1,0,1:0:0:0:
143,309,20833,1,0,1:0:0:0:
87,281,20932,1,0,1:0:0:0:
54,228,21031,1,0,1:0:0:0:
55,166,21130,1,0,1:0:0:0:
90,115,21229,1,0,1:0:0:0:
146,89,21328,1,0,1:0:0:0:
388,54,21427,6,0,L|391:154,1,94.499997116089,4|0,1:2|0:0,0:0:0:0:
260,142,21724,2,0,L|202:142,1,47.2499985580445,8|0,1:0|0:0,0:0:0:0:
326,295,22021,2,0,P|372:240|300:199,1,141.749995674133,0|0,1:0|0:0,0:0:0:0:
271,218,22318,2,0,L|166:204,1,94.499997116089,8|0,1:0|0:0,0:0:0:0:
486,137,22616,6,0,L|489:237,1,94.499997116089,0|0,1:0|0:0,0:0:0:0:
358,225,22913,2,0,L|300:225,1,47.2499985580445,8|0,1:0|0:0,0:0:0:0:
144,330,23210,2,0,L|312:329,1,141.749995674133,0|0,1:0|0:0,0:0:0:0:
357,285,23507,2,0,L|222:285,1,94.499997116089,8|0,1:0|0:0,0:0:0:0:
39,122,23804,6,0,L|36:222,1,94.499997116089,0|0,1:0|0:0,0:0:0:0:
167,210,24101,2,0,L|225:210,1,47.2499985580445,8|0,1:0|0:0,0:0:0:0:
418,252,24398,2,0,P|395:175|319:131,1,141.749995674133,0|0,1:0|0:0,0:0:0:0:
278,109,24695,2,0,L|389:98,1,94.499997116089,8|0,1:0|0:0,0:0:0:0:
115,175,24992,6,0,L|112:275,1,94.499997116089,0|0,1:0|0:0,0:0:0:0:
243,263,25289,2,0,L|301:263,1,47.2499985580445,8|0,1:0|0:0,0:0:0:0:
432,329,25586,2,0,L|281:328,1,141.749995674133,0|0,1:0|0:0,0:0:0:0:
352,284,25883,1,8,1:0:0:0:
490,287,26031,1,0,0:0:0:0:
261,247,26180,6,0,P|195:211|277:177,1,188.999994232178,0|8,1:0|1:0,0:0:0:0:
479,176,26625,2,0,P|466:108|356:49,1,188.999994232178,2|0,0:0|0:0,0:0:0:0:
238,53,27071,1,8,1:0:0:0:
365,128,27219,2,0,L|376:189,1,47.2499985580445,2|2,0:0|0:0,0:0:0:0:
221,217,27368,6,0,L|122:207,2,94.499997116089,2|2|10,1:2|0:2|1:2,0:0:0:0:
366,254,27814,2,0,L|167:267,2,188.999994232178,2|2|2,0:2|0:2|0:2,0:0:0:0:
146,336,28556,6,0,L|30:329,2,94.499997116089,2|2|8,1:2|0:0|1:0,0:0:0:0:
277,294,29002,2,0,L|173:243,2,94.499997116089,2|0|2,0:0|1:0|0:0,0:0:0:0:
396,235,29447,2,0,L|349:123,1,94.499997116089,8|2,1:0|0:0,0:0:0:0:
253,241,29744,5,2,1:2:0:0:
226,151,29893,1,2,0:0:0:0:
256,64,30041,1,10,1:2:0:0:
357,32,30190,1,2,0:0:0:0:
226,107,30338,2,0,L|161:97,1,47.2499985580445,0|0,1:0|1:0,0:0:0:0:
322,194,30561,2,0,L|390:202,1,47.2499985580445,0|0,1:0|1:0,0:0:0:0:
221,257,30784,1,0,1:0:0:0:
438,215,30932,6,0,L|442:328,1,94.499997116089,4|0,1:2|0:0,0:0:0:0:
304,326,31229,2,0,L|221:327,1,47.2499985580445,8|0,1:0|0:0,0:0:0:0:
86,319,31526,2,0,L|246:317,1,141.749995674133,0|0,1:0|0:0,0:0:0:0:
277,256,31823,2,0,L|148:255,1,94.499997116089,8|0,1:0|0:0,0:0:0:0:
417,66,32120,6,0,L|421:179,1,94.499997116089,0|0,1:0|0:0,0:0:0:0:
283,177,32417,2,0,L|200:178,1,47.2499985580445,8|0,1:0|0:0,0:0:0:0:
74,164,32715,2,0,P|93:95|191:69,1,141.749995674133,0|0,1:0|0:0,0:0:0:0:
218,84,33012,2,0,L|329:86,1,94.499997116089,8|0,1:0|0:0,0:0:0:0:
79,63,33309,6,0,L|75:176,1,94.499997116089,0|0,1:0|0:0,0:0:0:0:
213,174,33606,2,0,L|296:175,1,47.2499985580445,8|0,1:0|0:0,0:0:0:0:
418,254,33903,2,0,P|473:221|408:165,1,141.749995674133,0|0,1:0|0:0,0:0:0:0:
376,128,34200,2,0,L|493:115,1,94.499997116089,8|0,1:0|0:0,0:0:0:0:
206,183,34497,6,0,L|202:296,1,94.499997116089,0|0,1:0|0:0,0:0:0:0:
340,294,34794,2,0,L|423:295,1,47.2499985580445,8|0,1:0|0:0,0:0:0:0:
184,351,35091,2,0,L|184:285,1,47.2499985580445,8|0,1:0|1:0,0:0:0:0:
306,347,35314,2,0,L|385:343,1,47.2499985580445,0|8,1:0|1:0,0:0:0:0:
480,312,35536,1,0,1:0:0:0:
223,245,35685,6,0,P|142:231|116:117,1,188.999994232178,4|8,1:2|1:0,0:0:0:0:
255,130,36130,2,0,L|456:105,1,188.999994232178
316,157,36576,1,8,1:0:0:0:
446,193,36724,2,0,L|455:264,1,47.2499985580445
304,273,36873,6,0,L|192:262,2,94.499997116089,2|2|10,1:0|0:0|0:0,0:0:0:0:
446,314,37318,2,0,L|222:329,2,188.999994232178,2|2|2,0:0|0:0|0:0,0:0:0:0:
234,135,38061,6,0,P|165:117|115:5,1,188.999994232178,4|8,1:2|1:0,0:0:0:0:
239,20,38507,1,0,1:0:0:0:
114,93,38655,2,0,L|39:92,1,47.2499985580445,0|0,1:0|1:0,0:0:0:0:
205,230,38804,2,0,P|269:193|193:135,1,188.999994232178,8|0,1:2|1:0,0:0:0:0:
81,180,39249,6,0,L|21:178,2,47.2499985580445,4|0|0,1:2|0:0|0:0,0:0:0:0:
217,256,39546,2,0,L|332:262,1,94.499997116089,8|0,1:0|2:0,0:0:0:0:
52,333,39843,2,0,L|49:264,1,47.2499985580445,0|0,1:0|1:0,0:0:0:0:
167,249,40066,2,0,L|164:180,1,47.2499985580445,0|8,1:0|1:0,0:0:0:0:
23,166,40289,1,8,1:0:0:0:
272,329,40437,5,4,1:2:0:0:
360,310,40586,1,0,0:0:0:0:
391,221,40734,1,2,0:0:0:0:
364,131,40883,1,0,0:0:0:0:
222,188,41031,1,2,0:0:0:0:
216,95,41180,1,0,0:0:0:0:
266,12,41328,1,2,0:0:0:0:
374,3,41477,1,0,0:0:0:0:
148,157,41625,5,2,0:0:0:0:
55,161,41774,1,0,0:0:0:0:
148,157,41922,1,2,0:0:0:0:
358,152,42071,1,2,0:0:0:0:
203,129,42814,5,4,1:2:0:0:
311,138,42963,1,0,0:0:0:0:
361,221,43111,1,2,0:0:0:0:
355,314,43260,1,0,0:0:0:0:
222,316,43408,1,2,0:0:0:0:
195,232,43556,1,0,0:0:0:0:
228,154,43705,1,2,0:0:0:0:
334,113,43853,1,2,0:0:0:0:
75,70,44002,5,2,0:0:0:0:
66,161,44150,1,0,0:0:0:0:
203,129,44299,1,2,0:0:0:0:
212,220,44447,1,0,0:0:0:0:
78,221,44596,1,4,1:2:0:0:
308,159,44744,2,0,P|363:130|295:45,1,188.999994232178,4|0,1:2|0:0,0:0:0:0:
70,314,45190,5,6,1:2:0:0:
83,227,45338,1,0,0:0:0:0:
147,155,45487,1,2,0:0:0:0:
239,137,45635,1,0,0:0:0:0:
382,226,45784,1,2,0:0:0:0:
287,194,45932,1,0,0:0:0:0:
255,108,46081,1,2,0:0:0:0:
291,31,46229,1,2,0:0:0:0:
431,70,46378,5,2,0:0:0:0:
440,161,46526,1,0,0:0:0:0:
303,129,46675,1,2,0:0:0:0:
294,220,46823,1,0,0:0:0:0:
41,231,46972,2,0,P|57:147|236:47,1,283.499991348267,2|0,0:0|0:0,0:0:0:0:
470,321,47566,5,4,1:2:0:0:
464,234,47715,1,0,0:0:0:0:
415,155,47863,1,2,0:0:0:0:
328,126,48012,1,0,0:0:0:0:
180,232,48160,1,2,0:0:0:0:
76,188,48309,1,0,0:0:0:0:
46,98,48457,1,2,0:0:0:0:
81,13,48606,1,2,0:0:0:0:
352,84,48754,5,2,0:0:0:0:
361,175,48902,1,0,0:0:0:0:
224,143,49051,1,2,0:0:0:0:
215,234,49199,1,2,0:0:0:0:
349,235,49348,1,4,1:2:0:0:
89,231,49497,1,4,1:2:0:0:
361,280,49942,6,0,L|484:267,1,94.499997116089,4|0,1:2|0:0,0:0:0:0:
339,244,50239,1,8,1:0:0:0:
118,131,50388,2,0,L|19:119,1,94.499997116089,0|0,1:0|0:0,0:0:0:0:
155,88,50685,1,8,1:0:0:0:
401,257,50833,6,0,P|401:178|314:119,1,188.999994232178,0|8,1:0|1:0,0:0:0:0:
188,190,51279,2,0,L|379:166,1,188.999994232178,0|8,1:0|1:0,0:0:0:0:
148,300,51724,1,0,1:0:0:0:
96,289,51799,1,0,0:0:0:0:
44,279,51873,1,0,0:0:0:0:
167,236,52021,1,8,1:0:0:0:
272,221,52170,1,0,0:0:0:0:
37,296,52318,6,0,L|31:180,1,94.499997116089,0|0,1:0|0:0,0:0:0:0:
143,165,52615,1,8,1:0:0:0:
355,89,52764,2,0,L|454:77,1,94.499997116089,0|0,1:0|0:0,0:0:0:0:
318,46,53061,1,8,1:0:0:0:
99,254,53210,6,0,P|37:223|108:163,1,188.999994232178,0|8,1:0|1:0,0:0:0:0:
234,160,53655,2,0,P|219:97|87:45,1,188.999994232178,0|8,1:0|1:0,0:0:0:0:
400,226,54101,2,0,L|466:222,2,47.2499985580445,0|0|0,1:0|0:0|0:0,0:0:0:0:
264,260,54398,1,8,1:0:0:0:
315,265,54472,1,0,0:0:0:0:
366,270,54546,1,0,0:0:0:0:
134,289,54695,6,0,P|76:247|155:177,1,188.999994232178,4|8,1:2|1:0,0:0:0:0:
382,299,55140,1,0,1:0:0:0:
434,293,55215,1,0,0:0:0:0:
485,288,55289,1,0,0:0:0:0:
382,220,55437,1,8,1:0:0:0:
139,210,55586,6,0,L|333:195,1,188.999994232178,0|8,1:0|1:0,0:0:0:0:
105,113,56031,2,0,L|30:109,2,47.2499985580445,0|0|0,1:0|0:0|0:0,0:0:0:0:
214,85,56328,1,8,1:0:0:0:
453,114,56477,6,0,L|463:226,1,94.499997116089,0|0,1:0|0:0,0:0:0:0:
340,241,56774,1,0,1:0:0:0:
391,248,56848,1,0,1:0:0:0:
442,255,56922,1,0,1:0:0:0:
218,342,57071,5,0,1:0:0:0:
172,317,57145,1,0,2:0:0:0:
158,266,57219,1,8,1:0:0:0:
185,221,57294,1,0,0:0:0:0:
339,208,57368,1,0,1:0:0:0:
385,183,57442,1,0,2:0:0:0:
399,132,57516,1,8,1:0:0:0:
372,87,57591,1,0,0:0:0:0:
218,107,57665,1,8,1:0:0:0:
163,95,57739,1,0,1:0:0:0:
350,24,57814,1,8,1:0:0:0:
405,36,57888,1,0,1:0:0:0:
350,24,57962,1,8,1:0:0:0:
133,326,58111,6,0,L|333:315,1,188.999994232178,8|8,1:0|1:0,0:0:0:0:
52,348,58556,1,8,1:0:0:0:
43,220,58705,1,8,1:0:0:0:
172,176,58853,1,8,1:0:0:0:
121,170,58927,1,0,1:0:0:0:
69,165,59002,1,0,1:0:0:0:
373,135,59150,2,0,P|414:117|351:67,1,141.749995674133,6|0,0:0|0:0,0:0:0:0:
200,56,59447,1,4,1:2:0:0:
260,60,67764,5,2,0:0:0:0:
268,164,67913,1,0,0:0:0:0:
134,157,68061,1,2,0:0:0:0:
130,215,68136,1,0,0:0:0:0:
126,269,68210,1,0,0:0:0:0:
263,262,68358,1,2,0:0:0:0:
364,244,68507,1,2,0:0:0:0:
263,262,68655,1,2,0:0:0:0:
122,295,68804,2,0,L|118:228,1,47.2499985580445,2|2,0:0|0:0,0:0:0:0:
292,346,68952,6,0,P|350:315|281:242,1,188.999994232178,4|8,1:2|0:0,0:0:0:0:
57,175,69546,1,2,0:0:0:0:
203,175,69769,1,2,0:0:0:0:
57,175,69992,1,2,0:0:0:0:
313,271,70140,5,2,0:0:0:0:
182,271,70363,1,2,0:0:0:0:
313,271,70586,1,2,0:0:0:0:
440,274,70734,2,0,P|425:201|316:142,1,188.999994232178,2|0,0:0|0:0,0:0:0:0:
437,121,71180,1,0,0:0:0:0:
225,149,71328,6,0,P|167:118|239:49,1,188.999994232178,4|8,1:2|0:0,0:0:0:0:
444,283,71922,1,2,0:0:0:0:
313,283,72145,1,2,0:0:0:0:
444,283,72368,1,2,0:0:0:0:
188,187,72516,5,2,0:0:0:0:
347,187,72739,1,2,0:0:0:0:
188,187,72962,1,2,0:0:0:0:
305,104,73111,2,0,L|305:311,1,188.999994232178,2|0,0:0|0:0,0:0:0:0:
166,248,73556,1,2,0:0:0:0:
432,295,73705,6,0,P|415:231|296:180,1,188.999994232178,4|8,1:2|0:0,0:0:0:0:
421,143,74150,1,2,0:0:0:0:
302,128,74299,2,0,L|308:27,1,94.499997116089,2|0,0:0|0:0,0:0:0:0:
426,37,74596,1,0,1:0:0:0:
308,33,74744,1,0,1:0:0:0:
80,295,74893,6,0,P|97:231|216:180,1,188.999994232178,4|8,1:2|0:0,0:0:0:0:
326,146,75338,1,2,0:0:0:0:
210,128,75487,2,0,L|204:27,1,94.499997116089,2|0,0:0|0:0,0:0:0:0:
86,37,75784,1,0,1:0:0:0:
204,33,75932,1,0,1:0:0:0:
447,298,76081,5,4,1:2:0:0:
451,206,76229,1,0,1:0:0:0:
210,212,76378,1,0,1:0:0:0:
206,120,76526,1,0,1:0:0:0:
456,118,76675,1,0,1:0:0:0:
347,94,76823,1,0,1:0:0:0:
137,226,76972,1,0,1:0:0:0:
28,202,77120,1,0,1:0:0:0:
404,209,77566,5,0,1:0:0:0:
163,208,77863,1,0,1:0:0:0:
404,209,78160,1,0,1:0:0:0:
39,257,78457,6,0,P|54:178|168:132,1,198.000006042481,4|8,0:0|1:0,0:0:0:0:
280,130,78903,1,0,0:0:0:0:
43,252,79051,2,0,P|44:159|108:130,1,148.50000453186,2|2,1:0|0:0,0:0:0:0:
148,149,79348,1,8,0:0:0:0:
270,195,79497,1,2,0:0:0:0:
482,215,79645,6,0,P|466:149|372:91,1,148.50000453186,2|2,1:0|0:0,0:0:0:0:
346,102,79942,2,0,L|476:88,1,99.0000030212403,8|2,0:0|0:0,0:0:0:0:
285,254,80239,2,0,P|299:183|381:149,1,148.50000453186,2|2,1:0|0:0,0:0:0:0:
421,163,80536,1,8,0:0:0:0:
329,56,80685,2,0,L|270:55,1,49.5000015106202,2|2,0:0|0:0,0:0:0:0:
111,182,80833,6,0,P|52:142|126:66,1,198.000006042481,2|10,1:0|1:0,0:0:0:0:
242,116,81279,1,0,0:0:0:0:
474,237,81427,2,0,P|459:174|378:126,1,148.50000453186,2|2,1:0|0:0,0:0:0:0:
332,144,81724,2,0,L|219:132,1,99.0000030212403,8|2,0:0|0:0,0:0:0:0:
24,260,82021,6,0,P|42:194|150:158,1,148.50000453186,0|2,1:0|0:0,0:0:0:0:
284,244,82318,1,8,0:0:0:0:
409,247,82467,1,2,0:0:0:0:
163,200,82616,2,0,P|114:167|183:126,1,148.50000453186,2|0,1:0|0:0,0:0:0:0:
233,142,82913,2,0,L|348:137,1,99.0000030212403,8|0,1:0|1:0,0:0:0:0:
265,129,83135,1,0,0:0:0:0:
68,193,83210,6,0,P|79:117|206:71,1,198.000006042481,2|10,1:0|1:0,0:0:0:0:
310,112,83655,1,2,0:0:0:0:
51,306,83804,2,0,P|60:204|103:180,1,148.50000453186,2|2,1:0|0:0,0:0:0:0:
157,202,84101,1,8,0:0:0:0:
34,180,84249,1,2,0:0:0:0:
251,217,84398,6,0,P|301:187|237:142,1,148.50000453186,2|2,1:0|0:0,0:0:0:0:
186,135,84695,2,0,L|181:24,1,99.0000030212403,8|2,0:0|0:0,0:0:0:0:
475,177,84992,2,0,L|321:158,1,148.50000453186,2|2,1:0|0:0,0:0:0:0:
263,178,85289,2,0,L|149:167,1,99.0000030212403,8|2,0:0|1:0,0:0:0:0:
396,318,85586,6,0,P|442:284|381:227,1,148.50000453186,2|2,1:0|0:0,0:0:0:0:
338,187,85883,2,0,L|445:175,1,99.0000030212403,8|2,1:0|0:0,0:0:0:0:
281,207,86180,1,2,1:0:0:0:
278,152,86254,1,0,0:0:0:0:
301,103,86328,1,0,0:0:0:0:
350,79,86403,1,2,0:0:0:0:
414,72,86477,1,8,1:0:0:0:
275,44,86625,1,2,0:0:0:0:
46,163,86774,5,0,1:0:0:0:
209,160,86997,1,0,1:0:0:0:
46,163,87219,1,0,1:0:0:0:
307,160,87368,1,0,1:0:0:0:
46,163,87665,1,2,0:0:0:0:
413,264,87962,5,6,1:2:0:0:
423,169,88111,1,0,0:0:0:0:
300,143,88259,1,10,1:0:0:0:
427,126,88408,1,0,0:0:0:0:
169,206,88556,2,0,P|117:171|139:68,1,148.50000453186,2|2,1:0|0:0,0:0:0:0:
177,77,88853,1,8,0:0:0:0:
51,56,89002,1,2,0:0:0:0:
260,299,89150,6,0,P|310:268|245:202,1,148.50000453186,2|2,1:0|0:0,0:0:0:0:
212,199,89447,2,0,L|322:188,1,99.0000030212403,8|2,0:0|0:0,0:0:0:0:
443,207,89744,2,0,P|435:143|358:99,1,148.50000453186,2|0,1:0|0:0,0:0:0:0:
305,96,90041,1,8,1:0:0:0:
163,155,90190,2,0,L|247:153,1,49.5000015106202,2|0,0:0|0:0,0:0:0:0:
437,337,90338,5,6,1:2:0:0:
430,238,90487,1,0,0:0:0:0:
298,245,90635,1,10,1:0:0:0:
291,146,90784,1,0,0:0:0:0:
426,145,90932,2,0,P|411:84|320:47,1,148.50000453186,2|2,1:0|0:0,0:0:0:0:
272,74,91229,1,8,0:0:0:0:
159,60,91378,1,2,0:0:0:0:
465,160,91526,6,0,L|476:281,1,99.0000030212403,2|0,1:0|1:0,0:0:0:0:
337,291,91823,1,8,1:0:0:0:
461,291,91972,1,2,1:0:0:0:
197,159,92120,2,0,L|121:159,1,49.5000015106202,2|0,1:0|1:0,0:0:0:0:
271,235,92343,2,0,L|346:234,1,49.5000015106202,2|8,1:0|1:0,0:0:0:0:
178,288,92566,1,2,1:0:0:0:
425,369,92715,5,12,1:2:0:0:
482,337,92814,1,0,1:0:0:0:
512,281,92913,1,0,1:0:0:0:
512,215,93012,1,8,1:0:0:0:
482,159,93111,1,0,1:0:0:0:
425,127,93210,1,0,1:0:0:0:
232,269,93309,5,8,1:0:0:0:
164,265,93408,1,0,1:0:0:0:
232,269,93507,1,0,1:0:0:0:
305,238,93606,1,8,1:0:0:0:
375,236,93705,1,0,1:0:0:0:
305,238,93804,1,0,1:0:0:0:
128,63,93903,5,8,1:0:0:0:
58,61,94002,1,0,1:0:0:0:
128,63,94101,1,0,1:0:0:0:
301,93,94200,1,8,1:0:0:0:
371,91,94299,1,0,1:0:0:0:
301,93,94398,1,0,1:0:0:0:
128,260,94497,5,2,0:0:0:0:
84,238,94571,1,0,0:0:0:0:
51,202,94645,1,2,0:0:0:0:
33,156,94719,1,0,0:0:0:0:
33,107,94794,1,2,0:0:0:0:
51,61,94868,1,0,0:0:0:0:
85,26,94942,1,2,0:0:0:0:
143,7,95016,1,0,0:0:0:0:
327,197,95091,5,8,1:0:0:0:
383,174,95165,1,0,1:0:0:0:
400,130,95239,1,8,1:0:0:0:
378,88,95314,1,0,1:0:0:0:
225,145,95388,1,8,1:0:0:0:
169,122,95462,1,0,1:0:0:0:
152,78,95536,1,8,1:0:0:0:
174,36,95611,1,0,1:0:0:0:
358,37,95685,2,0,L|472:29,1,99.0000030212403,8|0,1:0|1:0,0:0:0:0:
220,254,95982,2,0,L|106:246,1,99.0000030212403,8|0,1:0|1:0,0:0:0:0:
342,295,96279,5,8,1:0:0:0:
492,264,96502,1,8,1:0:0:0:
342,295,96724,1,8,1:0:0:0:
52,223,96873,1,8,1:0:0:0:
52,122,97170,1,10,0:0:0:0:
419,308,97467,6,0,L|426:193,1,99.0000030212403,4|0,2:0|0:0,0:0:0:0:
313,179,97764,1,8,0:0:0:0:
56,195,97913,2,0,L|50:89,1,99.0000030212403,0|0,1:0|0:0,0:0:0:0:
176,83,98210,1,8,0:0:0:0:
397,243,98358,6,0,P|466:200|390:152,1,198.000006042481,0|8,1:0|0:0,0:0:0:0:
264,142,98804,2,0,L|482:107,1,198.000006042481,0|8,1:0|0:0,0:0:0:0:
228,78,99249,2,0,L|219:209,1,99.0000030212403,0|0,1:0|0:0,0:0:0:0:
346,180,99546,2,0,L|472:183,1,99.0000030212403,0|0,1:0|0:0,0:0:0:0:
180,291,99843,6,0,L|66:285,2,99.0000030212403,0|0|8,1:0|0:0|0:0,0:0:0:0:
396,164,100289,2,0,L|510:158,2,99.0000030212403,0|0|8,1:0|0:0|0:0,0:0:0:0:
172,217,100734,6,0,P|183:154|303:87,1,198.000006042481,0|8,1:0|0:0,0:0:0:0:
415,152,101180,2,0,L|202:159,1,198.000006042481,0|8,1:0|0:0,0:0:0:0:
474,261,101625,1,0,1:0:0:0:
474,206,101700,1,0,0:0:0:0:
449,158,101774,1,0,0:0:0:0:
400,135,101848,1,0,0:0:0:0:
346,129,101922,1,0,1:0:0:0:
224,128,102071,1,0,0:0:0:0:
468,335,102219,6,0,L|475:220,1,99.0000030212403,0|0,1:0|0:0,0:0:0:0:
362,206,102516,1,8,0:0:0:0:
138,226,102665,2,0,L|132:120,1,99.0000030212403,0|0,1:0|0:0,0:0:0:0:
258,114,102962,1,8,0:0:0:0:
483,211,103111,6,0,P|474:148|336:96,1,198.000006042481,0|8,1:0|0:0,0:0:0:0:
258,114,103556,2,0,L|475:93,1,198.000006042481,0|8,1:0|2:0,0:0:0:0:
206,46,104002,2,0,L|199:163,1,99.0000030212403,0|0,1:0|2:0,0:0:0:0:
331,176,104299,2,0,L|338:293,1,99.0000030212403,0|0,1:0|0:0,0:0:0:0:
104,126,104596,6,0,L|1:111,2,99.0000030212403,0|0|8,1:0|0:0|0:0,0:0:0:0:
324,197,105041,2,0,L|427:182,2,99.0000030212403,0|0|8,1:0|0:0|0:0,0:0:0:0:
99,134,105487,2,0,L|92:258,1,99.0000030212403,0|0,1:0|0:0,0:0:0:0:
242,332,105784,5,0,1:0:0:0:
190,315,105858,1,0,1:0:0:0:
137,299,105932,1,0,1:0:0:0:
476,218,106081,1,0,1:0:0:0:
233,215,106378,1,0,1:0:0:0:
476,218,106675,1,0,1:0:0:0:
82,101,106972,6,0,L|70:223,1,99.0000030212403,4|0,0:0|0:0,0:0:0:0:
191,180,107269,2,0,L|317:165,1,99.0000030212403,8|0,1:0|0:0,0:0:0:0:
79,323,107566,2,0,P|101:245|232:201,1,198.000006042481,0|8,1:0|1:0,0:0:0:0:
89,165,108012,1,0,0:0:0:0:
321,234,108160,6,0,L|327:119,1,99.0000030212403,0|0,1:0|0:0,0:0:0:0:
201,140,108457,2,0,L|81:131,1,99.0000030212403,8|0,1:0|0:0,0:0:0:0:
395,262,108754,1,0,1:0:0:0:
444,237,108828,1,0,0:0:0:0:
463,188,108903,1,0,0:0:0:0:
443,140,108977,1,0,0:0:0:0:
391,121,109051,1,8,1:0:0:0:
276,122,109200,1,0,0:0:0:0:
46,292,109348,6,0,L|36:188,1,99.0000030212403,0|0,1:0|0:0,0:0:0:0:
154,202,109645,2,0,L|164:98,1,99.0000030212403,8|0,1:0|0:0,0:0:0:0:
389,185,109942,2,0,P|374:115|261:64,1,198.000006042481,0|8,1:0|1:0,0:0:0:0:
130,67,110388,1,0,0:0:0:0:
361,280,110536,5,0,1:0:0:0:
422,257,110635,1,0,1:0:0:0:
459,203,110734,1,0,1:0:0:0:
457,138,110833,1,0,1:0:0:0:
418,86,110932,1,0,1:0:0:0:
356,67,111031,1,0,1:0:0:0:
186,138,111130,5,0,1:0:0:0:
114,137,111229,1,0,1:0:0:0:
186,138,111328,1,0,1:0:0:0:
352,178,111427,1,0,1:0:0:0:
419,177,111526,1,0,1:0:0:0:
352,178,111625,1,0,1:0:0:0:
190,311,111724,5,0,1:0:0:0:
98,291,111873,1,0,1:0:0:0:
61,207,112021,1,8,1:0:0:0:
98,121,112170,1,0,1:0:0:0:
312,178,112318,1,8,1:0:0:0:
322,82,112467,1,8,1:0:0:0:
180,131,112616,1,8,1:0:0:0:
78,122,112764,1,8,1:0:0:0:
322,311,112913,5,0,1:0:0:0:
414,291,113062,1,0,1:0:0:0:
451,207,113210,1,8,1:0:0:0:
414,121,113359,1,0,1:0:0:0:
187,203,113507,1,8,1:0:0:0:
86,205,113655,1,8,1:0:0:0:
325,203,113804,1,8,1:0:0:0:
426,205,113952,1,8,1:0:0:0:
152,328,114101,5,0,1:0:0:0:
102,318,114175,1,0,1:0:0:0:
65,282,114249,1,0,1:0:0:0:
44,232,114323,1,0,1:0:0:0:
44,177,114398,1,0,1:0:0:0:
68,129,114472,1,0,1:0:0:0:
106,95,114546,1,0,1:0:0:0:
154,87,114620,1,0,1:0:0:0:
321,139,114695,2,0,L|438:139,1,99.0000030212403,8|0,1:0|1:0,0:0:0:0:
148,262,114992,2,0,L|31:262,1,99.0000030212403,8|0,1:0|1:0,0:0:0:0:
428,211,115289,5,8,1:2:0:0:
472,171,115363,1,0,0:0:0:0:
490,112,115437,1,0,0:0:0:0:
472,53,115512,1,0,0:0:0:0:
428,6,115586,1,2,0:0:0:0:
323,10,115734,1,0,0:0:0:0:
106,270,115883,1,2,0:0:0:0:
81,221,115957,1,0,0:0:0:0:
105,174,116031,1,2,0:0:0:0:
163,159,116106,1,0,0:0:0:0:
348,240,116180,1,2,0:0:0:0:
396,238,116254,1,2,0:0:0:0:
195,313,116328,1,2,0:0:0:0:
147,311,116402,1,2,0:0:0:0:
330,350,116477,6,0,P|382:329|321:233,1,198.000006042481,8|0,1:0|1:0,0:0:0:0:
189,225,116922,2,0,P|137:204|198:108,1,198.000006042481,8|0,1:0|1:0,0:0:0:0:
413,104,117368,1,8,1:0:0:0:
223,281,118556,5,0,1:0:0:0:
170,280,118630,1,0,1:0:0:0:
170,280,118705,1,0,1:0:0:0:
223,281,118779,1,0,1:0:0:0:
390,218,118853,6,0,P|444:177|374:80,1,198.000006042481,8|0,1:0|1:0,0:0:0:0:
151,212,119299,2,0,P|97:171|167:74,1,198.000006042481,8|0,1:0|1:0,0:0:0:0:
391,80,119744,1,8,1:0:0:0:
172,263,120932,5,0,0:0:0:0:
149,211,121007,1,0,0:0:0:0:
170,154,121081,1,0,0:0:0:0:
228,145,121155,1,0,0:0:0:0:
408,189,121229,6,0,P|403:125|266:60,1,198.000006042481,8|0,0:0|0:0,0:0:0:0:
67,188,121675,2,0,P|72:124|209:59,1,198.000006042481,8|0,0:0|0:0,0:0:0:0:
395,54,122120,1,8,0:0:0:0:
171,327,123309,6,0,L|163:239,3,49.5000015106202
324,262,123606,6,0,L|335:35,1,198.000006042481,8|0,0:0|0:0,0:0:0:0:
184,262,124051,2,0,L|173:35,1,198.000006042481,8|0,0:0|0:0,0:0:0:0:
434,16,124497,1,8,0:0:0:0:
