osu file format v14

[General]
AudioFilename: audio.mp3
AudioLeadIn: 0
PreviewTime: 97332
Countdown: 0
SampleSet: Soft
StackLeniency: 0.7
Mode: 2
LetterboxInBreaks: 0
WidescreenStoryboard: 1

[Editor]
Bookmarks: 11861,21366,40376,49881,59386,68891,78396,99782,106911,116477
DistanceSpacing: 1.1
BeatDivisor: 4
GridSize: 8
TimelineZoom: 2.300001

[Metadata]
Title:PUPA
TitleUnicode:PUPA
Artist:Morimori Atsushi
ArtistUnicode:モリモリあつし
Creator:Spectator
Version:Platter
Source:Deemo
Tags:Jemzuu AJamez Electronic Instrumental Featured Artist FA Mappers' Guild MG BMS G2R2014 HARD RENAISSANCE VOEZ SOUND VOLTEX IV HEAVENLY HAVEN Muse Dash CHUNITHM チュウニズム CRYSTAL CIRCLINK Dynamix Rhythmsia SEVEN’s CODE VIVID WAVE SDVX RAC Collection 3 Rayark Artists Collaboration GO BACK 2 YOUR ROOTS THE OF FIGHTERS 2004 RELOADED osu! osu
BeatmapID:2682070
BeatmapSetID:660618

[Difficulty]
HPDrainRate:4.5
CircleSize:3.5
OverallDifficulty:8
ApproachRate:8
SliderMultiplier:1.55
SliderTickRate:1

[Events]
//Background and Video events
0,0,"pupa.jpg",0,0
//Break Periods
2,59647,67014
//Storyboard Layer 0 (Background)
//Storyboard Layer 1 (Fail)
//Storyboard Layer 2 (Pass)
//Storyboard Layer 3 (Foreground)
//Storyboard Layer 4 (Overlay)
//Storyboard Sound Samples

[TimingPoints]
2418,297.029702970297,4,1,1,80,1,0
11625,-90.9090909090909,4,2,4,60,0,0
11700,-90.9090909090909,4,2,1,90,0,0
11922,-90.9090909090909,4,2,2,90,0,0
11997,-95.2380952380952,4,2,1,90,0,0
16675,-95.2380952380952,4,2,1,70,0,0
17863,-95.2380952380952,4,2,1,80,0,0
19051,-95.2380952380952,4,2,1,90,0,0
21576,-95.2380952380952,4,2,10,90,0,0
21650,-95.2380952380952,4,2,1,90,0,0
21799,-95.2380952380952,4,2,10,90,0,0
21873,-95.2380952380952,4,2,1,90,0,0
22021,-95.2380952380952,4,2,10,90,0,0
22095,-95.2380952380952,4,2,1,90,0,0
22244,-95.2380952380952,4,2,10,90,0,0
22318,-95.2380952380952,4,2,1,90,0,0
22467,-95.2380952380952,4,2,10,90,0,0
22541,-95.2380952380952,4,2,1,90,0,0
22764,-95.2380952380952,4,2,10,90,0,0
22838,-95.2380952380952,4,2,1,90,0,0
22987,-95.2380952380952,4,2,10,90,0,0
23061,-95.2380952380952,4,2,1,90,0,0
23210,-95.2380952380952,4,2,10,90,0,0
23284,-95.2380952380952,4,2,1,90,0,0
23432,-95.2380952380952,4,2,10,90,0,0
23506,-95.2380952380952,4,2,1,90,0,0
23655,-95.2380952380952,4,2,10,90,0,0
23729,-95.2380952380952,4,2,1,90,0,0
23952,-95.2380952380952,4,2,10,90,0,0
24026,-95.2380952380952,4,2,1,90,0,0
24175,-95.2380952380952,4,2,10,90,0,0
24249,-95.2380952380952,4,2,1,90,0,0
24398,-95.2380952380952,4,2,10,90,0,0
24472,-95.2380952380952,4,2,1,90,0,0
24620,-95.2380952380952,4,2,10,90,0,0
24694,-95.2380952380952,4,2,1,90,0,0
24843,-95.2380952380952,4,2,10,90,0,0
24917,-95.2380952380952,4,2,1,90,0,0
25140,-95.2380952380952,4,2,10,90,0,0
25214,-95.2380952380952,4,2,1,90,0,0
25363,-95.2380952380952,4,2,10,90,0,0
25437,-95.2380952380952,4,2,1,90,0,0
25586,-95.2380952380952,4,2,10,90,0,0
25660,-95.2380952380952,4,2,1,90,0,0
25809,-95.2380952380952,4,2,10,90,0,0
25883,-95.2380952380952,4,2,1,90,0,0
26031,-95.2380952380952,4,2,10,90,0,0
26105,-95.2380952380952,4,2,1,90,0,0
26180,-95.2380952380952,4,2,10,90,0,0
26254,-95.2380952380952,4,2,1,90,0,0
27814,-95.2380952380952,4,2,1,90,0,0
27962,-95.2380952380952,4,2,1,90,0,0
31081,-95.2380952380952,4,2,10,90,0,0
31155,-95.2380952380952,4,2,1,90,0,0
31304,-95.2380952380952,4,2,10,90,0,0
31378,-95.2380952380952,4,2,1,90,0,0
31526,-95.2380952380952,4,2,10,90,0,0
31600,-95.2380952380952,4,2,1,90,0,0
31749,-95.2380952380952,4,2,10,90,0,0
31823,-95.2380952380952,4,2,1,90,0,0
31972,-95.2380952380952,4,2,10,90,0,0
32046,-95.2380952380952,4,2,1,90,0,0
32269,-95.2380952380952,4,2,10,90,0,0
32343,-95.2380952380952,4,2,1,90,0,0
32492,-95.2380952380952,4,2,10,90,0,0
32566,-95.2380952380952,4,2,1,90,0,0
32715,-95.2380952380952,4,2,10,90,0,0
32789,-95.2380952380952,4,2,1,90,0,0
32937,-95.2380952380952,4,2,10,90,0,0
33011,-95.2380952380952,4,2,1,90,0,0
33160,-95.2380952380952,4,2,10,90,0,0
33234,-95.2380952380952,4,2,1,90,0,0
33457,-95.2380952380952,4,2,10,90,0,0
33531,-95.2380952380952,4,2,1,90,0,0
33680,-95.2380952380952,4,2,10,90,0,0
33754,-95.2380952380952,4,2,1,90,0,0
33903,-95.2380952380952,4,2,10,90,0,0
33977,-95.2380952380952,4,2,1,90,0,0
34125,-95.2380952380952,4,2,10,90,0,0
34199,-95.2380952380952,4,2,1,90,0,0
34348,-95.2380952380952,4,2,10,90,0,0
34422,-95.2380952380952,4,2,1,90,0,0
34645,-95.2380952380952,4,2,10,90,0,0
34719,-95.2380952380952,4,2,1,90,0,0
34868,-95.2380952380952,4,2,10,90,0,0
34942,-95.2380952380952,4,2,1,90,0,0
44596,-95.2380952380952,4,2,3,90,0,0
44818,-95.2380952380952,4,2,1,90,0,0
49348,-95.2380952380952,4,2,3,90,0,0
49571,-95.2380952380952,4,2,1,90,0,0
49942,-95.2380952380952,4,2,1,90,0,0
56477,-95.2380952380952,4,2,1,90,0,0
59447,-95.2380952380952,4,2,4,75,0,0
59521,-95.2380952380952,4,2,1,90,0,0
67764,-95.2380952380952,4,2,1,90,0,0
68952,-95.2380952380952,4,2,3,90,0,0
69101,-95.2380952380952,4,2,1,90,0,0
69249,-95.2380952380952,4,2,1,75,0,0
69398,-95.2380952380952,4,2,1,90,0,0
71328,-95.2380952380952,4,2,3,90,0,0
71477,-95.2380952380952,4,2,1,90,0,0
71625,-95.2380952380952,4,2,1,75,0,0
71774,-95.2380952380952,4,2,1,90,0,0
73705,-95.2380952380952,4,2,3,90,0,0
73854,-95.2380952380952,4,2,1,90,0,0
74002,-95.2380952380952,4,2,1,75,0,0
74151,-95.2380952380952,4,2,1,90,0,0
74893,-95.2380952380952,4,2,3,90,0,0
75042,-95.2380952380952,4,2,1,90,0,0
76081,-95.2380952380952,4,2,3,90,0,0
76230,-95.2380952380952,4,2,1,90,0,0
78457,-90.9090909090909,4,2,2,90,0,1
78531,-90.9090909090909,4,2,1,90,0,1
79051,-90.9090909090909,4,2,1,90,0,1
95685,-90.9090909090909,4,2,1,90,0,1
96279,-90.9090909090909,4,2,1,90,0,1
97393,-90.9090909090909,4,2,1,90,0,0
97467,-100,4,2,2,90,0,1
97541,-95.2380952380952,4,2,1,90,0,0
97913,-95.2380952380952,4,2,5,90,0,0
97987,-95.2380952380952,4,2,1,90,0,0
98358,-95.2380952380952,4,2,5,90,0,0
98432,-95.2380952380952,4,2,1,90,0,0
98804,-95.2380952380952,4,2,5,90,0,0
98878,-95.2380952380952,4,2,1,90,0,0
99249,-95.2380952380952,4,2,5,90,0,0
99323,-95.2380952380952,4,2,1,90,0,0
99546,-95.2380952380952,4,2,5,90,0,0
99620,-95.2380952380952,4,2,1,90,0,0
99843,-95.2380952380952,4,2,5,90,0,0
99917,-95.2380952380952,4,2,1,90,0,0
100289,-95.2380952380952,4,2,5,90,0,0
100363,-95.2380952380952,4,2,1,90,0,0
100734,-95.2380952380952,4,2,5,90,0,0
100808,-95.2380952380952,4,2,1,90,0,0
101180,-95.2380952380952,4,2,5,90,0,0
101254,-95.2380952380952,4,2,1,90,0,0
101625,-95.2380952380952,4,2,5,90,0,0
101699,-95.2380952380952,4,2,1,90,0,0
101922,-95.2380952380952,4,2,5,90,0,0
101996,-95.2380952380952,4,2,1,90,0,0
102219,-95.2380952380952,4,2,5,90,0,0
102293,-95.2380952380952,4,2,1,90,0,0
102665,-95.2380952380952,4,2,5,90,0,0
102739,-95.2380952380952,4,2,1,90,0,0
103111,-95.2380952380952,4,2,5,90,0,0
103185,-95.2380952380952,4,2,1,90,0,0
103556,-95.2380952380952,4,2,5,90,0,0
103630,-95.2380952380952,4,2,1,90,0,0
104002,-95.2380952380952,4,2,5,90,0,0
104076,-95.2380952380952,4,2,1,90,0,0
104299,-95.2380952380952,4,2,5,90,0,0
104373,-95.2380952380952,4,2,1,90,0,0
104596,-95.2380952380952,4,2,5,90,0,0
104670,-95.2380952380952,4,2,1,90,0,0
105041,-95.2380952380952,4,2,5,90,0,0
105115,-95.2380952380952,4,2,1,90,0,0
105487,-95.2380952380952,4,2,5,90,0,0
105561,-95.2380952380952,4,2,1,90,0,0
106972,-95.2380952380952,4,2,2,90,0,1
107046,-95.2380952380952,4,2,1,90,0,0
116477,-95.2380952380952,4,1,1,80,0,0

[Colours]
Combo1 : 130,236,183
Combo2 : 243,210,97
Combo3 : 125,190,249

[HitObjects]
198,203,2120,5,0,1:0:0:0:
198,203,2269,1,0,1:0:0:0:
416,210,2418,6,0,P|459:184|402:112,1,155,8|0,1:2|1:0,0:0:0:0:
338,120,2863,2,0,L|171:101,1,155,8|0,1:2|1:0,0:0:0:0:
270,91,3309,1,8,1:2:0:0:
314,203,4497,5,0,0:0:0:0:
314,203,4646,1,0,0:0:0:0:
96,210,4795,6,0,P|53:184|110:112,1,155,8|0,0:0|0:0,0:0:0:0:
243,157,5240,2,0,L|410:138,1,155,8|0,0:0|0:0,0:0:0:0:
249,89,5686,1,8,0:0:0:0:
396,213,6873,5,0,0:0:0:0:
396,213,7022,1,0,0:0:0:0:
180,271,7170,6,0,P|124:250|94:159,1,155,8|0,0:0|0:0,0:0:0:0:
178,166,7616,2,0,L|366:166,1,155,8|0,0:0|0:0,0:0:0:0:
252,165,8061,1,8,0:0:0:0:
116,213,9249,5,0,0:0:0:0:
116,213,9398,1,0,0:0:0:0:
332,271,9546,6,0,P|388:250|418:159,1,155,8|0,0:0|0:0,0:0:0:0:
271,202,9992,2,0,L|83:202,1,155,8|0,0:0|0:0,0:0:0:0:
332,327,10437,6,0,P|388:289|332:256,1,155,8|0,0:0|0:0,0:0:0:0:
264,240,10883,1,0,0:0:0:0:
214,191,11031,1,0,0:0:0:0:
199,121,11180,1,0,0:0:0:0:
227,53,11328,1,0,0:0:0:0:
290,31,11477,1,0,0:0:0:0:
452,32,11625,1,2,1:2:0:0:
296,352,11922,6,0,P|226:330|193:235,1,170.500005203247,4|0,2:0|0:0,0:0:0:0:
348,250,12368,2,0,P|402:216|333:164,1,162.749995033264,0|0,1:0|0:0,0:0:0:0:
276,148,12814,2,0,L|195:122,1,81.3749975166322
354,140,13111,6,0,P|346:79|252:26,1,162.749995033264,0|0,1:0|0:0,0:0:0:0:
112,70,13556,2,0,L|280:74,1,162.749995033264,0|0,1:0|0:0,0:0:0:0:
324,138,14002,1,0,0:0:0:0:
274,75,14150,1,0,0:0:0:0:
119,209,14299,5,0,1:0:0:0:
91,134,14447,1,0,0:0:0:0:
119,59,14596,1,0,2:0:0:0:
188,23,14744,1,0,1:0:0:0:
351,220,14893,1,0,0:0:0:0:
351,220,14967,1,0,0:0:0:0:
351,220,15041,1,0,0:0:0:0:
188,219,15190,1,0,0:0:0:0:
110,218,15338,1,0,0:0:0:0:
188,219,15487,5,0,1:0:0:0:
423,220,15635,1,0,1:0:0:0:
346,47,15932,1,0,1:0:0:0:
424,85,16081,1,2,0:0:0:0:
458,165,16229,1,2,0:0:0:0:
428,242,16378,1,2,0:0:0:0:
349,284,16526,1,2,0:0:0:0:
112,283,16675,6,0,P|65:250|128:178,1,162.749995033264,8|8,1:0|0:0,0:0:0:0:
266,182,17120,2,0,L|448:163,1,162.749995033264,8|8,1:0|0:0,0:0:0:0:
451,86,17566,1,8,0:0:0:0:
427,165,17715,1,8,0:0:0:0:
274,166,17863,6,0,P|215:148|177:50,1,162.749995033264,8|8,1:0|0:0,0:0:0:0:
331,287,18309,2,0,L|330:94,1,162.749995033264,8|8,1:0|0:0,0:0:0:0:
257,93,18754,1,8,0:0:0:0:
183,55,18903,1,8,0:0:0:0:
417,50,19051,6,0,P|456:131|430:199,1,162.749995033264,2|2,1:2|0:0,0:0:0:0:
343,199,19497,1,2,0:0:0:0:
434,196,19645,1,2,0:0:0:0:
482,198,19719,1,2,0:0:0:0:
434,196,19794,1,2,0:0:0:0:
343,199,19942,1,2,1:2:0:0:
114,198,20091,6,0,P|71:162|129:77,1,162.749995033264,0|0,1:0|1:0,0:0:0:0:
266,83,20536,1,0,1:0:0:0:
266,83,20685,1,0,1:0:0:0:
111,78,20833,1,0,1:0:0:0:
59,90,20932,1,0,1:0:0:0:
26,133,21031,1,0,1:0:0:0:
27,186,21130,1,0,1:0:0:0:
61,227,21229,1,0,1:0:0:0:
113,238,21328,1,0,1:0:0:0:
229,239,21427,6,0,P|283:210|201:169,1,162.749995033264,4|8,1:2|1:0,0:0:0:0:
153,146,21873,1,0,0:0:0:0:
308,262,22021,1,0,1:0:0:0:
373,230,22170,1,0,0:0:0:0:
392,155,22318,1,8,1:0:0:0:
371,80,22467,1,0,0:0:0:0:
215,155,22616,6,0,P|225:105|335:53,1,162.749995033264,0|8,1:0|1:0,0:0:0:0:
387,89,23061,1,0,0:0:0:0:
231,254,23210,1,0,1:0:0:0:
159,212,23358,1,0,0:0:0:0:
159,212,23507,1,8,1:0:0:0:
231,254,23655,1,0,0:0:0:0:
386,291,23804,6,0,L|218:315,1,162.749995033264,0|8,1:0|1:0,0:0:0:0:
224,233,24249,1,0,0:0:0:0:
381,210,24398,1,0,1:0:0:0:
409,128,24546,1,0,0:0:0:0:
382,46,24695,1,8,1:0:0:0:
300,13,24843,1,0,0:0:0:0:
145,146,24992,6,0,L|313:170,1,162.749995033264,0|8,1:0|1:0,0:0:0:0:
307,88,25437,1,0,0:0:0:0:
71,284,25586,2,0,L|71:158,1,122.062496274948,0|0,1:0|0:0,0:0:0:0:
71,161,25883,1,8,1:0:0:0:
171,163,26031,1,0,0:0:0:0:
418,271,26180,6,0,P|463:244|407:165,1,162.749995033264,0|8,1:0|1:0,0:0:0:0:
260,164,26625,2,0,P|215:137|271:58,1,162.749995033264,2|0,0:0|0:0,0:0:0:0:
335,58,27071,1,8,1:0:0:0:
335,58,27219,1,2,0:0:0:0:
98,265,27368,6,0,L|92:171,1,81.3749975166322,2|2,1:2|0:2,0:0:0:0:
172,170,27665,1,10,1:2:0:0:
336,148,27814,2,0,L|166:129,2,162.749995033264,2|2|2,0:2|0:2|0:2,0:0:0:0:
174,129,28556,5,2,1:2:0:0:
107,174,28705,1,2,0:0:0:0:
83,248,28853,1,8,1:0:0:0:
107,321,29002,1,2,0:0:0:0:
174,363,29150,2,0,L|350:356,1,162.749995033264,0|8,1:0|1:0,0:0:0:0:
218,277,29744,5,2,1:2:0:0:
146,255,29893,1,2,0:0:0:0:
218,277,30041,1,10,1:2:0:0:
379,274,30338,1,0,1:0:0:0:
424,251,30413,2,0,L|423:120,1,81.3749975166322,0|0,1:0|1:0,0:0:0:0:
423,132,30635,1,0,1:0:0:0:
340,129,30784,1,0,1:0:0:0:
105,199,30932,6,0,P|117:147|231:94,1,162.749995033264,4|8,1:2|1:0,0:0:0:0:
281,91,31378,1,0,0:0:0:0:
126,271,31526,1,0,1:0:0:0:
92,198,31675,1,0,0:0:0:0:
124,124,31823,1,8,1:0:0:0:
209,106,31972,1,0,0:0:0:0:
364,250,32120,6,0,P|352:198|238:145,1,162.749995033264,0|8,1:0|1:0,0:0:0:0:
188,142,32566,1,0,0:0:0:0:
343,252,32715,1,0,1:0:0:0:
413,219,32863,1,0,0:0:0:0:
437,142,33012,1,8,1:0:0:0:
410,68,33160,1,0,0:0:0:0:
255,121,33309,6,0,L|71:102,1,162.749995033264,0|8,1:0|1:0,0:0:0:0:
93,188,33754,1,0,0:0:0:0:
248,298,33903,1,0,1:0:0:0:
236,224,34051,1,0,0:0:0:0:
176,165,34200,1,8,1:0:0:0:
102,150,34348,1,0,0:0:0:0:
257,147,34497,6,0,P|297:124|250:37,1,162.749995033264,0|8,1:0|1:0,0:0:0:0:
186,36,34942,1,0,0:0:0:0:
350,37,35091,1,8,1:0:0:0:
394,57,35165,2,0,L|394:167,1,81.3749975166322,0|0,1:0|1:0,0:0:0:0:
395,166,35388,1,8,1:0:0:0:
306,186,35536,1,0,1:0:0:0:
78,243,35685,6,0,L|79:65,1,162.749995033264,4|8,1:2|1:0,0:0:0:0:
241,210,36130,2,0,P|297:182|221:150,1,162.749995033264
158,132,36576,1,8,1:0:0:0:
159,47,36724,1,0,0:0:0:0:
384,104,36873,6,0,L|486:106,2,81.3749975166322,2|2|10,1:0|0:0|0:0,0:0:0:0:
222,161,37318,2,0,P|231:97|332:59,1,162.749995033264,2|2,0:0|0:0,0:0:0:0:
392,54,37764,1,8,1:0:0:0:
392,54,37913,1,2,0:0:0:0:
141,257,38061,6,0,P|99:229|156:146,1,162.749995033264,4|8,1:2|1:0,0:0:0:0:
220,147,38507,1,0,1:0:0:0:
382,147,38655,2,0,L|455:146,2,40.6874987583161,0|0|8,1:0|1:0|1:2,0:0:0:0:
211,151,39101,1,0,1:0:0:0:
373,277,39249,5,4,1:2:0:0:
441,257,39398,1,0,0:0:0:0:
463,186,39546,1,8,1:0:0:0:
439,112,39695,1,0,2:0:0:0:
196,212,39843,1,0,1:0:0:0:
147,192,39918,2,0,L|147:88,1,81.3749975166322,0|0,1:0|1:0,0:0:0:0:
147,110,40140,1,8,1:0:0:0:
237,66,40289,1,8,1:0:0:0:
464,347,40437,6,0,L|464:176,1,162.749995033264,4|2,1:2|0:0,0:0:0:0:
384,217,40883,2,0,P|334:186|412:132,1,162.749995033264
465,111,41328,2,0,L|282:96,1,162.749995033264,2|2,0:0|0:0,0:0:0:0:
302,97,41774,2,0,L|465:111,1,162.749995033264,0|2,0:0|0:0,0:0:0:0:
48,347,42814,6,0,L|48:176,1,162.749995033264,4|2,1:2|0:0,0:0:0:0:
128,217,43260,2,0,P|178:186|100:132,1,162.749995033264
51,111,43705,2,0,L|234:96,1,162.749995033264,2|2,0:0|0:0,0:0:0:0:
210,97,44151,2,0,L|47:111,1,162.749995033264
138,152,44596,1,4,1:2:0:0:
351,243,44744,1,4,1:2:0:0:
451,288,45190,6,0,P|444:227|341:168,1,162.749995033264,6|2,1:2|0:0,0:0:0:0:
285,175,45635,2,0,P|239:140|303:66,1,162.749995033264
369,65,46081,2,0,L|171:66,1,162.749995033264,2|2,0:0|0:0,0:0:0:0:
205,152,46526,2,0,L|403:153,1,162.749995033264
138,309,46972,2,0,P|71:268|157:152,1,244.124992549896,2|0,0:0|0:0,0:0:0:0:
367,303,47566,6,0,P|427:285|462:184,1,162.749995033264,4|2,1:2|0:0,0:0:0:0:
384,198,48012,2,0,P|324:180|289:79,1,162.749995033264
366,62,48457,2,0,L|200:64,1,162.749995033264,2|2,0:0|0:0,0:0:0:0:
358,182,48903,2,0,L|450:182,2,81.3749975166322,0|2|2,0:0|0:0|0:0,0:0:0:0:
122,189,49348,1,4,1:2:0:0:
122,189,49497,1,4,1:2:0:0:
342,297,49942,6,0,P|339:242|230:194,1,162.749995033264,4|8,1:2|1:0,0:0:0:0:
99,186,50388,2,0,P|102:131|211:83,1,162.749995033264,0|8,1:0|1:0,0:0:0:0:
342,82,50833,2,0,L|342:280,1,162.749995033264,0|8,1:0|1:0,0:0:0:0:
259,189,51279,2,0,L|259:387,1,162.749995033264,0|8,1:0|1:0,0:0:0:0:
413,307,51724,1,0,1:0:0:0:
405,227,51873,1,0,0:0:0:0:
361,161,52021,1,8,1:0:0:0:
281,132,52170,1,0,0:0:0:0:
48,249,52318,6,0,P|62:193|171:152,1,162.749995033264,0|8,1:0|1:0,0:0:0:0:
307,148,52764,2,0,P|293:92|184:51,1,162.749995033264,0|8,1:0|1:0,0:0:0:0:
49,235,53210,2,0,L|224:234,1,162.749995033264,0|8,1:0|1:0,0:0:0:0:
282,159,53655,2,0,L|107:158,1,162.749995033264,0|8,1:0|1:0,0:0:0:0:
282,300,54101,1,0,1:0:0:0:
356,298,54249,1,0,0:0:0:0:
282,300,54398,1,8,1:0:0:0:
209,301,54546,1,0,0:0:0:0:
438,190,54695,6,0,P|483:167|423:92,1,162.749995033264,4|8,1:2|1:0,0:0:0:0:
277,187,55140,2,0,P|232:164|292:89,1,162.749995033264,0|8,1:0|1:0,0:0:0:0:
438,88,55586,2,0,L|439:274,1,162.749995033264,0|8,1:0|1:0,0:0:0:0:
276,255,56031,2,0,L|100:252,1,162.749995033264,0|8,1:0|1:0,0:0:0:0:
352,341,56477,2,0,P|407:306|339:255,1,162.749995033264,0|0,1:0|1:0,0:0:0:0:
280,254,56922,1,0,1:0:0:0:
43,256,57071,5,0,1:0:0:0:
51,179,57219,1,0,1:0:0:0:
106,130,57368,1,8,1:0:0:0:
183,113,57517,1,0,1:0:0:0:
411,119,57665,1,8,1:0:0:0:
491,119,57814,1,8,1:0:0:0:
411,119,57962,1,8,1:0:0:0:
183,113,58111,1,8,1:0:0:0:
76,209,58408,5,8,1:0:0:0:
160,237,58556,1,8,1:0:0:0:
244,266,58705,1,8,1:0:0:0:
406,226,58853,1,8,1:0:0:0:
446,227,58927,1,0,1:0:0:0:
406,226,59002,1,0,1:0:0:0:
248,317,59150,2,0,L|163:317,1,81.3749975166322,6|0,0:0|0:0,0:0:0:0:
405,131,59447,1,4,1:2:0:0:
277,291,67764,6,0,P|319:264|262:175,1,162.749995033264,2|2,0:0|0:0,0:0:0:0:
201,178,68210,1,0,0:0:0:0:
348,177,68358,1,2,0:0:0:0:
424,178,68507,1,2,0:0:0:0:
348,177,68655,1,2,0:0:0:0:
78,267,68952,6,0,P|87:215|192:165,1,162.749995033264,4|8,1:2|0:0,0:0:0:0:
443,267,69546,2,0,P|434:215|329:165,1,162.749995033264,2|8,0:0|0:0,0:0:0:0:
77,250,70140,2,0,L|77:76,1,162.749995033264,2|8,0:0|0:0,0:0:0:0:
224,86,70734,1,2,0:0:0:0:
77,87,71031,1,8,0:0:0:0:
466,217,71328,6,0,P|449:158|354:105,1,162.749995033264,4|8,1:2|0:0,0:0:0:0:
107,220,71922,2,0,P|113:165|220:110,1,162.749995033264,2|8,0:0|0:0,0:0:0:0:
455,217,72517,2,0,L|455:36,1,162.749995033264,2|8,0:0|0:0,0:0:0:0:
296,57,73111,1,2,0:0:0:0:
451,55,73408,1,8,0:0:0:0:
452,142,73556,1,2,0:0:0:0:
232,232,73705,6,0,P|179:212|139:102,1,162.749995033264,4|8,1:2|0:0,0:0:0:0:
214,119,74150,1,2,0:0:0:0:
372,119,74299,2,0,L|372:312,1,162.749995033264,2|0,0:0|1:0,0:0:0:0:
294,280,74744,1,0,1:0:0:0:
66,285,74893,6,0,P|74:235|177:180,1,162.749995033264,4|8,1:2|0:0,0:0:0:0:
239,178,75338,1,2,0:0:0:0:
395,178,75487,2,0,P|310:170|230:161,1,162.749995033264,2|0,0:0|1:0,0:0:0:0:
224,73,75932,1,0,1:0:0:0:
437,268,76081,5,4,1:2:0:0:
480,197,76229,1,0,1:0:0:0:
441,123,76378,1,0,1:0:0:0:
362,106,76526,1,0,1:0:0:0:
207,249,76675,1,0,1:0:0:0:
131,252,76823,1,0,1:0:0:0:
207,249,76972,1,0,1:0:0:0:
432,249,77120,1,0,1:0:0:0:
456,170,77566,5,0,1:0:0:0:
293,171,77863,1,0,1:0:0:0:
456,170,78160,1,0,1:0:0:0:
46,260,78457,6,0,P|56:205|167:151,1,170.500005203247,4|8,0:0|1:0,0:0:0:0:
218,149,78903,1,0,0:0:0:0:
384,207,79051,1,2,1:0:0:0:
406,134,79200,1,0,0:0:0:0:
382,55,79348,1,8,0:0:0:0:
307,28,79497,1,2,0:0:0:0:
75,315,79645,6,0,L|68:139,1,170.500005203247,2|8,1:0|0:0,0:0:0:0:
147,136,80091,1,2,0:0:0:0:
309,231,80239,2,0,L|316:55,1,170.500005203247,2|8,1:0|0:0,0:0:0:0:
237,52,80685,1,2,0:0:0:0:
463,307,80833,6,0,L|476:116,1,170.500005203247,2|10,1:0|1:0,0:0:0:0:
395,129,81279,1,0,0:0:0:0:
229,194,81427,1,2,1:0:0:0:
158,212,81576,1,0,0:0:0:0:
158,212,81724,1,8,0:0:0:0:
229,194,81873,1,2,0:0:0:0:
470,312,82021,6,0,P|459:247|359:206,1,170.500005203247,0|8,1:0|0:0,0:0:0:0:
294,203,82467,1,2,0:0:0:0:
131,207,82616,1,2,1:0:0:0:
123,127,82764,1,0,1:0:0:0:
286,125,82913,1,8,1:0:0:0:
294,45,83061,1,0,1:0:0:0:
42,309,83210,6,0,P|54:247|165:205,1,170.500005203247,2|10,1:0|1:0,0:0:0:0:
217,201,83655,1,2,0:0:0:0:
384,206,83804,1,2,1:0:0:0:
405,131,83952,1,0,0:0:0:0:
387,59,84101,1,8,0:0:0:0:
310,38,84249,1,2,0:0:0:0:
131,164,84398,6,0,P|74:144|30:38,1,170.500005203247,2|8,1:0|0:0,0:0:0:0:
104,48,84843,1,2,0:0:0:0:
320,289,84992,2,0,L|495:292,1,170.500005203247,2|8,1:0|0:0,0:0:0:0:
417,291,85437,1,2,1:0:0:0:
195,297,85586,5,2,1:0:0:0:
151,222,85734,1,0,0:0:0:0:
191,151,85883,1,8,1:0:0:0:
267,136,86031,1,2,0:0:0:0:
433,208,86180,1,2,1:0:0:0:
424,134,86328,1,0,0:0:0:0:
379,67,86477,1,8,1:0:0:0:
308,37,86625,1,2,0:0:0:0:
94,135,86774,6,0,L|220:81,2,127.875003902435,0|0|0,1:0|1:0|1:0,0:0:0:0:
323,131,87368,1,0,1:0:0:0:
452,112,87665,1,2,0:0:0:0:
46,315,87962,6,0,P|71:246|176:221,1,170.500005203247,6|10,1:2|1:0,0:0:0:0:
233,219,88408,1,0,0:0:0:0:
400,223,88556,1,2,1:0:0:0:
467,179,88705,1,0,0:0:0:0:
486,107,88853,1,8,0:0:0:0:
464,33,89002,1,2,0:0:0:0:
241,108,89150,6,0,L|58:90,1,170.500005203247,2|8,1:0|0:0,0:0:0:0:
148,78,89596,1,2,0:0:0:0:
305,134,89744,2,0,L|488:116,1,170.500005203247,2|8,1:0|1:0,0:0:0:0:
398,104,90190,1,2,0:0:0:0:
177,245,90338,6,0,P|127:206|194:136,1,170.500005203247,6|10,1:2|1:0,0:0:0:0:
253,157,90784,1,0,0:0:0:0:
95,159,90932,1,2,1:0:0:0:
103,85,91081,1,0,0:0:0:0:
156,32,91229,1,8,0:0:0:0:
232,20,91378,1,2,0:0:0:0:
400,128,91526,5,2,1:0:0:0:
475,109,91675,1,0,1:0:0:0:
400,128,91823,1,8,1:0:0:0:
325,152,91972,1,2,1:0:0:0:
54,140,92120,2,0,L|171:210,2,127.875003902435,2|2|2,1:0|1:0|1:0,0:0:0:0:
317,284,92715,5,12,1:2:0:0:
375,260,92814,1,0,1:0:0:0:
403,204,92913,1,0,1:0:0:0:
403,141,93012,1,8,1:0:0:0:
374,85,93111,1,0,1:0:0:0:
313,68,93210,1,0,1:0:0:0:
198,284,93309,5,8,1:0:0:0:
140,260,93408,1,0,1:0:0:0:
112,204,93507,1,0,1:0:0:0:
112,141,93606,1,8,1:0:0:0:
141,85,93705,1,0,1:0:0:0:
202,68,93804,1,0,1:0:0:0:
320,166,93903,5,8,1:0:0:0:
374,167,94002,1,0,1:0:0:0:
320,166,94101,1,0,1:0:0:0:
203,165,94200,1,8,1:0:0:0:
149,166,94299,1,0,1:0:0:0:
203,165,94398,1,0,1:0:0:0:
318,297,94497,6,0,P|374:290|419:177,1,170.500005203247,2|2,0:0|0:0,0:0:0:0:
343,197,94942,1,2,0:0:0:0:
110,314,95091,5,8,1:0:0:0:
38,290,95239,1,8,1:0:0:0:
110,314,95388,1,8,1:0:0:0:
182,338,95536,1,8,1:0:0:0:
401,269,95685,1,8,1:0:0:0:
409,183,95833,1,0,1:0:0:0:
250,230,95982,1,8,1:0:0:0:
174,240,96130,1,0,1:0:0:0:
396,57,96279,6,0,L|521:85,2,127.875003902435,8|8|8,1:0|1:0|1:0,0:0:0:0:
164,99,96873,1,8,1:0:0:0:
54,100,97170,1,10,0:0:0:0:
451,304,97467,6,0,P|429:237|345:197,1,155,4|8,2:0|0:0,0:0:0:0:
278,199,97913,2,0,L|453:194,1,162.749995033264,0|8,1:0|0:0,0:0:0:0:
291,106,98358,2,0,L|116:101,1,162.749995033264,0|8,1:0|0:0,0:0:0:0:
204,119,98804,2,0,P|256:138|301:241,1,162.749995033264,0|8,1:0|0:0,0:0:0:0:
152,230,99249,1,0,1:0:0:0:
87,232,99398,1,0,0:0:0:0:
87,232,99546,1,0,1:0:0:0:
152,230,99695,1,0,0:0:0:0:
363,324,99843,6,0,L|371:226,1,81.3749975166322,0|0,1:0|0:0,0:0:0:0:
292,235,100140,1,8,0:0:0:0:
140,130,100289,2,0,L|53:148,2,81.3749975166322,0|0|8,1:0|0:0|0:0,0:0:0:0:
291,111,100734,6,0,L|378:129,2,81.3749975166322,0|0|8,1:0|0:0|0:0,0:0:0:0:
140,129,101180,2,0,L|126:32,1,81.3749975166322,0|0,1:0|0:0,0:0:0:0:
202,33,101477,1,8,0:0:0:0:
414,117,101625,5,0,1:0:0:0:
458,123,101700,1,0,0:0:0:0:
501,130,101774,1,0,0:0:0:0:
429,197,101922,2,0,L|314:179,1,81.3749975166322,0|0,1:0|0:0,0:0:0:0:
112,271,102219,6,0,P|126:215|239:169,1,162.749995033264,0|8,1:0|0:0,0:0:0:0:
294,163,102665,2,0,L|113:146,1,162.749995033264,0|8,1:0|0:0,0:0:0:0:
285,52,103111,2,0,P|357:83|385:157,1,162.749995033264,0|8,1:0|0:0,0:0:0:0:
303,200,103556,2,0,L|484:183,1,162.749995033264,0|8,1:0|2:0,0:0:0:0:
313,289,104002,1,0,1:0:0:0:
322,210,104150,1,0,2:0:0:0:
374,151,104299,1,0,1:0:0:0:
450,143,104447,1,0,0:0:0:0:
202,150,104596,6,0,P|147:122|217:82,1,162.749995033264,0|8,1:0|0:0,0:0:0:0:
432,147,105041,2,0,P|487:119|417:79,1,162.749995033264,0|8,1:0|0:0,0:0:0:0:
272,123,105487,1,0,1:0:0:0:
205,113,105635,1,0,0:0:0:0:
430,177,105784,5,0,1:0:0:0:
430,177,105932,1,0,1:0:0:0:
207,244,106081,2,0,L|43:268,2,162.749995033264,0|0|0,1:0|1:0|1:0,0:0:0:0:
484,315,106972,6,0,P|477:262|383:206,1,162.749995033264,4|8,0:0|1:0,0:0:0:0:
312,192,107418,1,0,0:0:0:0:
466,288,107566,2,0,L|468:118,1,162.749995033264,0|8,1:0|1:0,0:0:0:0:
390,123,108012,1,0,0:0:0:0:
232,176,108160,6,0,L|49:151,1,162.749995033264,0|8,1:0|1:0,0:0:0:0:
149,131,108606,1,0,0:0:0:0:
380,240,108754,1,0,1:0:0:0:
449,218,108903,1,0,0:0:0:0:
449,218,109051,1,8,1:0:0:0:
380,240,109200,1,0,0:0:0:0:
149,264,109348,6,0,P|83:243|43:142,1,162.749995033264,0|8,1:0|1:0,0:0:0:0:
119,135,109794,1,0,0:0:0:0:
277,120,109942,2,0,L|110:96,1,162.749995033264,0|8,1:0|1:0,0:0:0:0:
115,18,110388,1,0,0:0:0:0:
358,327,110536,5,0,1:0:0:0:
407,293,110635,1,0,1:0:0:0:
428,237,110734,1,0,1:0:0:0:
428,177,110833,1,0,1:0:0:0:
404,122,110932,1,0,1:0:0:0:
351,94,111031,1,0,1:0:0:0:
240,97,111130,5,0,1:0:0:0:
183,100,111229,1,0,1:0:0:0:
240,97,111328,1,0,1:0:0:0:
351,94,111427,1,0,1:0:0:0:
408,97,111526,1,0,1:0:0:0:
351,94,111625,1,0,1:0:0:0:
238,168,111724,6,0,L|231:272,1,81.3749975166322,0|0,1:0|1:0,0:0:0:0:
392,207,112021,2,0,L|492:207,1,81.3749975166322,8|0,1:0|1:0,0:0:0:0:
237,347,112318,1,8,1:0:0:0:
163,321,112467,1,8,1:0:0:0:
128,252,112616,1,8,1:0:0:0:
162,179,112764,1,8,1:0:0:0:
397,140,112913,6,0,L|404:244,1,81.3749975166322,0|0,1:0|1:0,0:0:0:0:
243,179,113210,2,0,L|143:179,1,81.3749975166322,8|0,1:0|1:0,0:0:0:0:
425,308,113507,1,8,1:0:0:0:
466,308,113581,1,0,0:0:0:0:
425,308,113655,1,8,1:0:0:0:
268,311,113804,2,0,L|152:310,1,81.3749975166322,8|8,1:0|1:0,0:0:0:0:
437,217,114101,5,0,1:0:0:0:
431,172,114175,1,0,1:0:0:0:
408,133,114249,1,0,1:0:0:0:
368,109,114323,1,0,1:0:0:0:
324,95,114398,1,0,1:0:0:0:
244,95,114546,1,0,1:0:0:0:
85,121,114695,1,8,1:0:0:0:
152,140,114843,1,0,1:0:0:0:
304,193,114992,1,8,1:0:0:0:
303,121,115140,1,0,1:0:0:0:
63,229,115289,5,8,1:2:0:0:
63,184,115363,1,0,0:0:0:0:
63,139,115437,1,0,0:0:0:0:
137,71,115586,2,0,L|252:57,1,81.3749975166322,2|0,0:0|0:0,0:0:0:0:
380,178,115883,1,2,0:0:0:0:
417,173,115957,1,2,0:0:0:0:
446,147,116031,1,2,0:0:0:0:
457,108,116105,1,2,0:0:0:0:
447,70,116180,1,2,0:0:0:0:
418,45,116254,1,2,0:0:0:0:
381,40,116328,1,2,0:0:0:0:
135,207,116477,6,0,P|92:181|158:103,1,162.749995033264,8|0,1:0|1:0,0:0:0:0:
281,170,116922,2,0,L|448:151,1,162.749995033264,8|0,1:0|1:0,0:0:0:0:
296,89,117368,1,8,1:0:0:0:
107,152,118556,5,0,1:0:0:0:
107,152,118705,1,0,1:0:0:0:
342,261,118853,6,0,P|387:250|440:144,1,162.749995033264,8|0,1:0|1:0,0:0:0:0:
286,154,119299,2,0,L|106:155,1,162.749995033264,8|0,1:0|1:0,0:0:0:0:
279,62,119744,1,8,1:0:0:0:
405,152,120932,5,0,0:0:0:0:
405,152,121081,1,0,0:0:0:0:
169,302,121229,6,0,P|123:280|185:209,1,162.749995033264,8|0,0:0|0:0,0:0:0:0:
315,207,121675,2,0,P|361:185|299:114,1,162.749995033264,8|0,0:0|0:0,0:0:0:0:
170,111,122120,1,8,0:0:0:0:
107,152,123309,5,0,0:0:0:0:
107,152,123458,1,0,0:0:0:0:
334,259,123606,6,0,P|395:251|436:148,1,162.749995033264,8|0,0:0|0:0,0:0:0:0:
298,163,124051,2,0,P|221:144|191:72,1,162.749995033264,8|0,0:0|0:0,0:0:0:0:
412,72,124497,1,8,0:0:0:0:
