osu file format v14

[General]
AudioFilename: audio.mp3
AudioLeadIn: 0
PreviewTime: 97332
Countdown: 0
SampleSet: Soft
StackLeniency: 0.7
Mode: 2
LetterboxInBreaks: 0
WidescreenStoryboard: 1

[Editor]
Bookmarks: 11861,21366,40376,49881,59386,68891,78396,99782,106911
DistanceSpacing: 1.2
BeatDivisor: 4
GridSize: 32
TimelineZoom: 3

[Metadata]
Title:PUPA
TitleUnicode:PUPA
Artist:Morimori Atsushi
ArtistUnicode:モリモリあつし
Creator:Spectator
Version:Jemzuu's Deluge
Source:Deemo
Tags:Jemzuu AJamez Electronic Instrumental Featured Artist FA Mappers' Guild MG BMS G2R2014 HARD RENAISSANCE VOEZ SOUND VOLTEX IV HEAVENLY HAVEN Muse Dash CHUNITHM チュウニズム CRYSTAL CIRCLINK Dynamix Rhythmsia SEVEN’s CODE VIVID WAVE SDVX RAC Collection 3 Rayark Artists Collaboration GO BACK 2 YOUR ROOTS THE OF FIGHTERS 2004 RELOADED osu! osu
BeatmapID:2676273
BeatmapSetID:660618

[Difficulty]
HPDrainRate:6
CircleSize:4.4
OverallDifficulty:9.5
ApproachRate:9.5
SliderMultiplier:1.92
SliderTickRate:2

[Events]
//Background and Video events
0,0,"pupa.jpg",0,0
//Break Periods
2,59647,67239
//Storyboard Layer 0 (Background)
//Storyboard Layer 1 (Fail)
//Storyboard Layer 2 (Pass)
//Storyboard Layer 3 (Foreground)
//Storyboard Layer 4 (Overlay)
//Storyboard Sound Samples

[TimingPoints]
2418,297.029702970297,4,1,1,80,1,0
11625,-33.3333333333333,4,2,4,60,0,0
11700,-40,4,2,1,5,0,0
11922,-100,4,2,2,90,0,0
11997,-100,4,2,1,90,0,0
16675,-100,4,2,1,70,0,0
17863,-100,4,2,1,80,0,0
19051,-100,4,2,1,90,0,0
27814,-90.9090909090909,4,2,1,90,0,0
27962,-100,4,2,1,90,0,0
44596,-100,4,2,3,90,0,0
44818,-100,4,2,1,90,0,0
49348,-100,4,2,3,90,0,0
49571,-100,4,2,1,90,0,0
49942,-90.9090909090909,4,2,1,90,0,0
56477,-80,4,2,1,90,0,0
59447,-80,4,2,4,75,0,0
59521,-80,4,2,1,90,0,0
67764,-100,4,2,1,90,0,0
69249,-100,4,2,1,75,0,0
69398,-100,4,2,1,90,0,0
71625,-100,4,2,1,75,0,0
71774,-100,4,2,1,90,0,0
74002,-100,4,2,1,75,0,0
74151,-100,4,2,1,90,0,0
77566,-26.6666666666667,4,2,1,90,0,0
77863,-26.6666666666667,4,2,99,90,0,0
78012,-26.6666666666667,4,2,1,90,0,0
78160,-26.6666666666667,4,2,99,90,0,0
78309,-26.6666666666667,4,2,1,90,0,0
78383,-26.6666666666667,4,2,1,5,0,0
78457,-90.9090909090909,4,2,2,90,0,1
78531,-90.9090909090909,4,2,1,90,0,1
79051,-83.3333333333333,4,2,1,90,0,1
86774,-40,4,2,1,90,0,1
86997,-76.9230769230769,4,2,1,90,0,1
87219,-90.9090909090909,4,2,1,90,0,1
95685,-76.9230769230769,4,2,1,90,0,1
96279,-40,4,2,1,90,0,1
96502,-36.3636363636364,4,2,1,90,0,1
96724,-90.9090909090909,4,2,1,90,0,1
97393,-83.3333333333333,4,2,1,90,0,0
97467,-83.3333333333333,4,2,2,90,0,1
97541,-83.3333333333333,4,2,1,90,0,0
97913,-83.3333333333333,4,2,5,90,0,0
97987,-83.3333333333333,4,2,1,90,0,0
98358,-83.3333333333333,4,2,5,90,0,0
98432,-83.3333333333333,4,2,1,90,0,0
98804,-83.3333333333333,4,2,5,90,0,0
98878,-83.3333333333333,4,2,1,90,0,0
99249,-83.3333333333333,4,2,5,90,0,0
99323,-83.3333333333333,4,2,1,90,0,0
99546,-83.3333333333333,4,2,5,90,0,0
99620,-83.3333333333333,4,2,1,90,0,0
99843,-83.3333333333333,4,2,5,90,0,0
99917,-83.3333333333333,4,2,1,90,0,0
100289,-83.3333333333333,4,2,5,90,0,0
100363,-83.3333333333333,4,2,1,90,0,0
100734,-83.3333333333333,4,2,5,90,0,0
100808,-83.3333333333333,4,2,1,90,0,0
101180,-83.3333333333333,4,2,5,90,0,0
101254,-83.3333333333333,4,2,1,90,0,0
101625,-83.3333333333333,4,2,5,90,0,0
101699,-83.3333333333333,4,2,1,90,0,0
101922,-83.3333333333333,4,2,5,90,0,0
101996,-83.3333333333333,4,2,1,90,0,0
102219,-83.3333333333333,4,2,5,90,0,0
102293,-83.3333333333333,4,2,1,90,0,0
102665,-83.3333333333333,4,2,5,90,0,0
102739,-83.3333333333333,4,2,1,90,0,0
103111,-83.3333333333333,4,2,5,90,0,0
103185,-83.3333333333333,4,2,1,90,0,0
103556,-83.3333333333333,4,2,5,90,0,0
103630,-83.3333333333333,4,2,1,90,0,0
104002,-83.3333333333333,4,2,5,90,0,0
104076,-83.3333333333333,4,2,1,90,0,0
104299,-83.3333333333333,4,2,5,90,0,0
104373,-83.3333333333333,4,2,1,90,0,0
104596,-83.3333333333333,4,2,5,90,0,0
104670,-83.3333333333333,4,2,1,90,0,0
105041,-83.3333333333333,4,2,5,90,0,0
105115,-83.3333333333333,4,2,1,90,0,0
105487,-83.3333333333333,4,2,5,90,0,0
105561,-83.3333333333333,4,2,1,90,0,0
106081,-36.3636363636364,4,2,1,90,0,0
106972,-83.3333333333333,4,2,2,90,0,1
107046,-83.3333333333333,4,2,1,90,0,0
114695,-76.9230769230769,4,2,1,90,0,0
115289,-83.3333333333333,4,2,1,90,0,0
116477,-83.3333333333333,4,1,1,80,0,0

[Colours]
Combo1 : 130,236,183
Combo2 : 243,210,97
Combo3 : 125,190,249

[HitObjects]
287,286,2120,6,0,L|296:253,1,24,0|0,1:0|1:0,0:0:0:0:
177,231,2269,2,0,L|169:189,1,24,0|0,1:0|1:0,0:0:0:0:
415,108,2418,5,8,1:2:0:0:
285,81,2566,1,0,1:0:0:0:
237,77,2640,1,0,1:0:0:0:
189,73,2714,1,0,1:0:0:0:
434,17,2863,5,8,1:2:0:0:
304,206,3012,1,0,1:0:0:0:
351,209,3086,1,0,1:0:0:0:
399,212,3160,1,0,1:0:0:0:
154,344,3309,5,8,1:2:0:0:
173,251,4497,2,0,L|213:248,1,24
79,180,4645,2,0,L|55:182,1,24
286,136,4794,5,8,0:0:0:0:
152,139,4942,1,0,0:0:0:0:
150,91,5016,1,0,0:0:0:0:
149,43,5090,1,0,0:0:0:0:
389,217,5239,5,8,0:0:0:0:
255,220,5387,1,0,0:0:0:0:
253,172,5461,1,0,0:0:0:0:
252,124,5535,1,0,0:0:0:0:
502,88,5685,5,8,0:0:0:0:
471,200,6873,2,0,L|431:203,1,24
231,326,7021,2,0,L|193:330,1,24
439,336,7170,5,8,0:0:0:0:
311,249,7318,1,0,0:0:0:0:
263,243,7392,1,0,0:0:0:0:
215,237,7466,1,0,0:0:0:0:
448,93,7616,5,8,0:0:0:0:
311,36,7764,1,0,0:0:0:0:
358,32,7838,1,0,0:0:0:0:
406,28,7912,1,0,0:0:0:0:
165,89,8061,5,8,0:0:0:0:
201,180,9249,2,0,L|240:178,1,24
16,284,9398,2,0,L|50:286,1,24
274,342,9546,5,8,0:0:0:0:
137,335,9695,1,0,0:0:0:0:
132,287,9769,1,0,0:0:0:0:
127,239,9843,1,0,0:0:0:0:
377,218,9992,5,8,0:0:0:0:
149,153,10141,1,0,0:0:0:0:
144,105,10215,1,0,0:0:0:0:
139,57,10289,1,0,0:0:0:0:
396,28,10437,6,0,P|332:33|415:149,1,288,8|0,0:0|0:0,0:0:0:0:
456,162,10957,1,0,0:0:0:0:
387,198,11031,2,0,L|317:202,1,48
400,234,11180,2,0,L|342:233,1,48
284,274,11328,2,0,L|352:286,1,48
401,314,11477,2,0,L|350:332,1,48
186,371,11625,6,0,B|471:319|471:319|472:68,1,432.000016479493,2|0,1:2|0:0,0:0:0:0:
237,74,11922,6,0,P|200:137|258:186,1,144,4|0,0:0|0:0,0:0:0:0:
295,187,12219,1,0,0:0:0:0:
64,260,12368,2,0,L|149:255,2,48,0|0|0,1:0|0:0|0:0,0:0:0:0:
194,154,12665,2,0,L|320:135,1,96
134,88,12962,1,0,0:0:0:0:
374,42,13111,5,0,1:0:0:0:
235,55,13259,2,0,L|226:170,1,96
461,221,13556,2,0,L|402:227,2,48,0|0|0,1:0|0:0|0:0,0:0:0:0:
325,298,13853,2,0,L|224:309,1,96
373,364,14150,1,0,0:0:0:0:
112,345,14299,5,0,1:0:0:0:
232,273,14447,1,0,0:0:0:0:
367,246,14596,1,0,2:0:0:0:
119,195,14744,1,0,1:0:0:0:
254,121,14893,2,0,L|187:92,1,48
155,98,15041,1,0,0:0:0:0:
285,50,15190,1,0,0:0:0:0:
417,38,15338,1,0,0:0:0:0:
143,46,15487,5,0,1:0:0:0:
453,156,15635,1,0,1:0:0:0:
24,319,15932,6,0,L|145:314,1,96,0|0,1:0|0:0,0:0:0:0:
170,297,16155,1,0,0:0:0:0:
190,254,16229,1,0,0:0:0:0:
168,211,16303,1,0,0:0:0:0:
116,196,16378,2,0,L|46:198,1,48
138,166,16526,2,0,L|71:165,1,48
286,122,16675,6,0,L|337:116,1,48,8|8,1:0|0:0,0:0:0:0:
270,90,16823,2,0,L|218:85,1,48,8|8,0:0|0:0,0:0:0:0:
153,35,16972,2,0,L|208:30,1,48,8|8,0:0|0:0,0:0:0:0:
388,75,17120,2,0,L|354:153,1,48,8|8,1:0|0:0,0:0:0:0:
305,145,17269,2,0,L|222:157,1,48,8|8,0:0|0:0,0:0:0:0:
450,185,17418,5,8,0:0:0:0:
473,224,17492,1,8,0:0:0:0:
455,266,17566,1,8,0:0:0:0:
410,276,17640,1,8,0:0:0:0:
241,350,17715,2,0,L|312:345,1,48,8|8,0:0|0:0,0:0:0:0:
112,286,17863,6,0,L|40:284,1,48,8|8,1:0|0:0,0:0:0:0:
122,260,18012,2,0,L|188:250,1,48,8|8,0:0|0:0,0:0:0:0:
115,223,18160,2,0,L|41:222,1,48,8|8,0:0|0:0,0:0:0:0:
242,160,18309,2,0,L|298:155,3,48,8|8|8|8,1:0|0:0|0:0|0:0,0:0:0:0:
465,90,18606,2,0,L|411:76,1,48,8|8,0:0|0:0,0:0:0:0:
353,70,18754,2,0,L|401:43,1,48,8|8,0:0|0:0,0:0:0:0:
463,16,18903,2,0,L|417:-1,1,48,8|8,0:0|0:0,0:0:0:0:
220,304,19051,6,0,L|206:258,1,48,0|0,1:0|0:0,0:0:0:0:
265,264,19200,2,0,L|275:203,1,48
201,196,19348,2,0,L|166:163,1,48
261,136,19497,2,0,L|311:117,1,48
138,83,19645,2,0,L|91:72,1,48
291,42,19794,2,0,L|339:40,1,48
91,72,19942,5,0,1:0:0:0:
386,350,20091,6,0,L|179:357,1,192,0|0,1:0|1:0,0:0:0:0:
250,336,20462,1,0,1:0:0:0:
187,321,20536,2,0,L|117:311,1,48,0|0,1:0|1:0,0:0:0:0:
343,245,20685,2,0,L|386:240,2,24,0|0|0,1:0|1:0|1:0,0:0:0:0:
143,193,20833,5,0,1:0:0:0:
225,150,20932,1,0,1:0:0:0:
319,134,21031,1,0,1:0:0:0:
78,38,21130,1,0,1:0:0:0:
168,67,21229,1,0,1:0:0:0:
78,55,21328,1,0,1:0:0:0:
319,44,21427,5,4,1:2:0:0:
200,186,21576,2,0,L|325:208,1,96,0|8,0:0|1:0,0:0:0:0:
353,213,21799,2,0,L|361:344,1,96
282,280,22021,2,0,L|389:281,1,96,0|0,1:0|0:0,0:0:0:0:
458,310,22244,2,0,L|464:201,1,96
274,169,22467,6,0,L|163:164,1,96,0|0,0:0|1:0,0:0:0:0:
325,92,22764,2,0,L|336:221,1,96,0|8,0:0|1:0,0:0:0:0:
253,206,22987,2,0,L|241:325,1,96
159,340,23210,2,0,L|268:352,1,96,0|0,1:0|0:0,0:0:0:0:
336,290,23432,2,0,L|223:274,1,96
50,268,23655,6,0,L|42:159,1,96,0|0,0:0|1:0,0:0:0:0:
184,82,23952,2,0,L|47:73,1,96,0|8,0:0|1:0,0:0:0:0:
18,38,24175,2,0,L|135:19,1,96
191,83,24398,2,0,L|77:102,1,96,0|0,1:0|0:0,0:0:0:0:
179,144,24620,2,0,L|293:153,1,96
79,324,24843,6,0,L|185:331,1,96,0|0,0:0|1:0,0:0:0:0:
323,321,25140,2,0,L|326:200,1,96,0|8,0:0|1:0,0:0:0:0:
242,214,25363,2,0,L|233:98,1,96
317,84,25586,2,0,L|197:64,1,96,0|0,1:0|0:0,0:0:0:0:
406,24,25809,2,0,L|506:13,1,96
315,58,26031,1,0,0:0:0:0:
440,77,26180,6,0,P|454:142|385:182,1,144,0|0,1:0|0:0,0:0:0:0:
343,190,26477,1,8,1:0:0:0:
96,220,26625,2,0,L|92:206,1,12
96,220,26922,2,0,L|113:216,1,12
357,50,27219,2,0,L|274:40,1,48
114,122,27368,6,0,L|227:122,1,96,0|0,1:0|0:0,0:0:0:0:
66,239,27665,2,0,L|56:132,2,96,8|0|0,1:0|0:0|0:0,0:0:0:0:
296,319,28111,2,0,L|160:339,1,96
66,345,28408,1,0,0:0:0:0:
324,180,28556,6,0,L|165:154,1,144,0|0,1:0|0:0,0:0:0:0:
125,146,28853,1,8,1:0:0:0:
386,72,29002,2,0,L|389:88,1,12
386,72,29299,2,0,L|374:71,1,12
120,54,29596,1,0,0:0:0:0:
375,149,29744,6,0,L|493:167,1,96,0|0,1:0|0:0,0:0:0:0:
331,254,30041,2,0,L|449:245,1,96,8|0,1:0|0:0,0:0:0:0:
180,359,30338,2,0,L|238:364,1,48,0|0,1:0|1:0,0:0:0:0:
364,242,30561,2,0,L|297:250,1,48,0|8,1:0|1:0,0:0:0:0:
79,274,30784,1,0,1:0:0:0:
318,158,30932,5,4,1:2:0:0:
177,91,31081,2,0,L|290:69,1,96,0|8,0:0|1:0,0:0:0:0:
187,54,31304,2,0,L|256:46,1,48
463,322,31526,2,0,L|330:326,1,96,0|0,1:0|0:0,0:0:0:0:
282,257,31749,2,0,L|350:251,1,48,0|8,0:0|1:0,0:0:0:0:
192,243,31972,2,0,L|186:105,1,96,0|0,0:0|1:0,0:0:0:0:
254,130,32195,1,0,0:0:0:0:
178,105,32269,6,0,L|50:95,1,96,0|8,0:0|1:0,0:0:0:0:
166,34,32492,2,0,L|105:29,1,48
348,64,32715,2,0,L|470:69,1,96,0|0,1:0|0:0,0:0:0:0:
361,144,32937,2,0,L|433:140,1,48,0|8,0:0|1:0,0:0:0:0:
268,238,33160,2,0,L|138:252,1,96,0|0,0:0|1:0,0:0:0:0:
233,288,33383,1,0,0:0:0:0:
305,322,33457,6,0,L|174:333,1,96,0|8,0:0|1:0,0:0:0:0:
297,360,33680,2,0,L|219:377,1,48
18,186,33903,2,0,L|129:167,1,96,0|0,1:0|0:0,0:0:0:0:
194,100,34125,2,0,L|115:98,1,48,0|8,0:0|1:0,0:0:0:0:
283,41,34348,2,0,L|290:151,1,96,0|0,0:0|1:0,0:0:0:0:
231,156,34571,1,0,0:0:0:0:
301,178,34645,6,0,L|414:185,1,96,0|8,0:0|1:0,0:0:0:0:
310,234,34868,2,0,L|394:237,1,48
117,339,35091,2,0,L|107:275,1,48,0|0,1:0|1:0,0:0:0:0:
260,266,35314,2,0,L|266:211,1,48,0|8,1:0|1:0,0:0:0:0:
18,155,35536,1,0,1:0:0:0:
276,38,35685,5,4,1:2:0:0:
320,50,35759,1,0,0:0:0:0:
338,93,35833,1,0,0:0:0:0:
323,134,35907,1,0,0:0:0:0:
270,141,35982,1,8,1:0:0:0:
326,161,36056,1,0,0:0:0:0:
121,275,36130,5,0,0:0:0:0:
73,264,36204,1,0,0:0:0:0:
49,222,36278,1,0,1:0:0:0:
63,176,36352,1,0,0:0:0:0:
256,168,36427,2,0,L|266:121,3,48,0|0|8|0,0:0|0:0|1:0|0:0,0:0:0:0:
465,52,36724,2,0,L|386:48,1,48
219,135,36873,6,0,L|214:208,1,48,0|0,1:0|0:0,0:0:0:0:
286,213,37021,2,0,L|205:226,1,48
320,259,37170,2,0,L|398:264,1,48,8|0,0:0|0:0,0:0:0:0:
158,350,37318,5,0,0:0:0:0:
110,340,37392,1,0,0:0:0:0:
63,331,37466,1,0,1:0:0:0:
16,322,37540,1,0,0:0:0:0:
223,276,37616,1,0,0:0:0:0:
223,228,37690,1,0,0:0:0:0:
224,180,37764,1,8,1:0:0:0:
224,132,37838,1,0,0:0:0:0:
428,78,37913,2,0,L|490:71,1,48
263,167,38061,6,0,P|199:149|202:54,1,144,4|0,1:2|0:0,0:0:0:0:
386,31,38358,1,8,1:0:0:0:
135,148,38507,1,0,1:0:0:0:
267,247,38655,2,0,L|211:254,1,48,0|0,1:0|1:0,0:0:0:0:
426,332,38804,5,0,1:0:0:0:
425,207,39101,1,0,1:0:0:0:
153,129,39249,5,0,1:0:0:0:
201,119,39323,1,0,0:0:0:0:
248,110,39397,1,0,0:0:0:0:
295,101,39471,1,0,0:0:0:0:
101,289,39546,1,8,1:0:0:0:
79,247,39620,1,0,0:0:0:0:
95,203,39694,1,0,2:0:0:0:
137,183,39768,1,0,0:0:0:0:
296,155,39843,5,0,1:0:0:0:
139,102,39918,2,0,L|65:98,2,48,0|0|0,1:0|0:0|1:0,0:0:0:0:
290,45,40140,2,0,L|230:44,1,48,8|8,1:0|2:0,0:0:0:0:
407,130,40289,2,0,L|454:126,1,48,0|0,1:0|0:0,0:0:0:0:
249,125,40437,5,4,1:2:0:0:
357,121,40586,2,0,L|368:2,1,96,0|2,0:0|0:0,0:0:0:0:
197,218,40883,1,0,0:0:0:0:
305,214,41032,2,0,L|316:95,1,96,2|0,0:0|0:0,0:0:0:0:
144,297,41328,1,2,0:0:0:0:
252,293,41477,2,0,L|263:174,1,96,2|2,0:0|0:0,0:0:0:0:
85,348,41774,1,0,0:0:0:0:
193,344,41922,1,2,0:0:0:0:
201,254,42071,6,0,P|66:231|161:6,1,432
327,109,42814,5,4,1:2:0:0:
219,105,42963,2,0,L|208:-14,1,96,0|2,0:0|0:0,0:0:0:0:
379,202,43260,1,0,0:0:0:0:
271,198,43409,2,0,L|260:79,1,96,2|0,0:0|0:0,0:0:0:0:
432,281,43705,1,2,0:0:0:0:
324,277,43854,2,0,L|313:158,1,96,2|2,0:0|0:0,0:0:0:0:
491,332,44151,1,0,0:0:0:0:
383,328,44300,2,0,L|372:209,1,96,2|0,0:0|0:0,0:0:0:0:
133,175,44596,5,4,1:2:0:0:
403,76,44744,2,0,P|439:145|314:254,1,240,4|0,1:2|0:0,0:0:0:0:
128,340,45190,5,6,1:2:0:0:
236,314,45338,2,0,L|245:209,1,96,0|2,0:0|0:0,0:0:0:0:
403,196,45635,1,0,0:0:0:0:
295,170,45783,2,0,L|286:65,1,96,2|0,0:0|0:0,0:0:0:0:
119,131,46081,1,2,0:0:0:0:
227,105,46229,2,0,L|236:0,1,96,2|2,0:0|0:0,0:0:0:0:
403,196,46526,1,0,0:0:0:0:
295,170,46674,2,0,L|286:65,1,96,2|0,0:0|0:0,0:0:0:0:
37,195,46972,5,2,0:0:0:0:
36,179,46997,2,0,P|94:182|26:336,1,320
307,355,47566,5,4,1:2:0:0:
194,328,47714,2,0,L|185:218,1,96,0|2,0:0|0:0,0:0:0:0:
19,204,48011,1,0,0:0:0:0:
132,177,48160,2,0,L|142:67,1,96,2|0,0:0|0:0,0:0:0:0:
317,136,48457,1,2,0:0:0:0:
204,109,48605,2,0,L|194:0,1,96,2|2,0:0|0:0,0:0:0:0:
19,204,48902,1,0,0:0:0:0:
132,177,49051,2,0,L|142:67,1,96,2|2,0:0|0:0,0:0:0:0:
382,41,49348,5,4,1:2:0:0:
114,40,49497,2,0,P|74:89|183:177,1,240,4|0,1:2|0:0,0:0:0:0:
394,294,49942,6,0,L|285:305,1,105.600003222656,0|0,1:0|0:0,0:0:0:0:
480,271,50165,2,0,L|485:209,1,52.8000016113282,0|8,0:0|1:0,0:0:0:0:
222,100,50388,6,0,L|364:85,1,105.600003222656,0|0,1:0|0:0,0:0:0:0:
262,64,50611,1,0,0:0:0:0:
74,41,50685,2,0,L|14:47,1,52.8000016113282,8|0,1:0|0:0,0:0:0:0:
231,189,50833,6,0,L|362:203,1,105.600003222656,0|0,1:0|0:0,0:0:0:0:
184,283,51130,1,8,1:0:0:0:
438,332,51279,6,0,L|325:341,1,105.600003222656,0|0,1:0|0:0,0:0:0:0:
482,255,51576,1,8,1:0:0:0:
214,163,51724,6,0,L|337:146,1,105.600003222656,0|0,1:0|0:0,0:0:0:0:
132,82,51947,1,0,0:0:0:0:
79,72,52021,2,0,L|198:56,1,105.600003222656,8|0,1:0|0:0,0:0:0:0:
442,314,52318,6,0,L|314:304,1,105.600003222656,0|0,1:0|0:0,0:0:0:0:
164,281,52541,2,0,L|161:217,1,52.8000016113282,0|8,0:0|1:0,0:0:0:0:
417,157,52764,6,0,L|301:158,1,105.600003222656,0|0,1:0|0:0,0:0:0:0:
457,88,53061,2,0,L|394:79,1,52.8000016113282,8|0,1:0|0:0,0:0:0:0:
199,52,53210,1,0,1:0:0:0:
331,35,53358,1,0,0:0:0:0:
77,67,53507,1,8,1:0:0:0:
339,149,53655,6,0,L|348:302,1,105.600003222656,0|0,1:0|2:0,0:0:0:0:
198,297,53952,1,8,1:0:0:0:
448,348,54101,1,0,1:0:0:0:
327,352,54249,2,0,L|271:353,1,52.8000016113282
78,223,54398,1,8,1:0:0:0:
321,178,54546,1,0,0:0:0:0:
54,164,54695,6,0,L|46:51,1,105.600003222656,0|0,1:0|0:0,0:0:0:0:
104,46,54918,1,0,0:0:0:0:
298,80,54992,1,8,1:0:0:0:
167,132,55140,5,0,1:0:0:0:
144,177,55214,1,0,0:0:0:0:
166,223,55288,1,0,0:0:0:0:
216,234,55362,1,0,0:0:0:0:
403,295,55437,2,0,L|481:302,1,52.8000016113282,8|0,1:0|0:0,0:0:0:0:
268,355,55586,5,0,1:0:0:0:
399,208,55734,2,0,L|325:204,1,52.8000016113282
165,156,55883,1,8,1:0:0:0:
412,177,56031,5,0,1:0:0:0:
431,129,56105,1,0,0:0:0:0:
408,83,56179,1,0,0:0:0:0:
359,70,56253,1,0,0:0:0:0:
194,27,56328,2,0,L|261:34,1,52.8000016113282,8|0,1:0|0:0,0:0:0:0:
57,91,56477,6,0,L|55:229,1,120,0|0,1:0|0:0,0:0:0:0:
118,226,56700,1,0,0:0:0:0:
303,325,56774,2,0,L|212:343,1,60,0|0,1:0|1:0,0:0:0:0:
55,210,56922,2,0,L|165:221,1,60,0|0,1:0|1:0,0:0:0:0:
307,212,57071,6,0,L|296:141,1,60,0|0,1:0|0:0,0:0:0:0:
221,153,57219,2,0,L|207:91,1,60,8|0,1:0|0:0,0:0:0:0:
390,89,57368,2,0,L|356:34,1,60,0|0,1:0|0:0,0:0:0:0:
283,64,57517,2,0,L|245:9,1,60,8|0,1:0|0:0,0:0:0:0:
436,160,57665,2,0,L|367:147,1,60,8|0,1:0|1:0,0:0:0:0:
438,191,57814,1,8,1:0:0:0:
467,188,57851,1,0,1:0:0:0:
497,185,57888,1,0,1:0:0:0:
331,287,57962,1,8,1:0:0:0:
162,307,58036,1,0,0:0:0:0:
377,364,58111,5,8,1:0:0:0:
381,248,58408,2,0,L|388:212,1,30,8|0,1:0|0:0,0:0:0:0:
210,195,58556,2,0,L|215:157,1,30,8|0,1:0|0:0,0:0:0:0:
35,112,58705,2,0,L|43:60,1,30,8|0,1:0|0:0,0:0:0:0:
286,49,58853,1,8,1:0:0:0:
345,45,58927,1,0,1:0:0:0:
405,42,59001,1,0,1:0:0:0:
111,306,59150,5,6,0:0:0:0:
76,296,59187,1,0,0:0:0:0:
53,274,59224,1,0,0:0:0:0:
45,245,59261,1,0,0:0:0:0:
55,216,59298,1,0,0:0:0:0:
95,202,59335,1,0,0:0:0:0:
135,198,59372,1,0,0:0:0:0:
405,173,59447,5,4,1:2:0:0:
136,306,67764,5,2,0:0:0:0:
272,302,67913,1,0,0:0:0:0:
406,288,68061,1,2,0:0:0:0:
422,243,68135,1,0,0:0:0:0:
406,199,68209,1,0,0:0:0:0:
276,177,68358,1,2,0:0:0:0:
138,185,68507,1,2,0:0:0:0:
122,140,68581,1,0,0:0:0:0:
138,96,68655,1,2,0:0:0:0:
385,66,68804,2,0,L|474:68,1,48,2|2,0:0|0:0,0:0:0:0:
225,298,68952,6,0,L|97:308,1,96,0|0,1:0|0:0,0:0:0:0:
264,229,69249,1,8,0:0:0:0:
121,218,69398,1,2,0:0:0:0:
374,151,69546,1,2,0:0:0:0:
192,111,69769,1,2,0:0:0:0:
372,56,69992,1,2,0:0:0:0:
113,182,70140,5,2,0:0:0:0:
268,137,70363,1,2,0:0:0:0:
115,87,70586,1,2,0:0:0:0:
376,47,70734,2,0,L|383:215,1,144,2|8,0:0|0:0,0:0:0:0:
323,217,71031,1,0,0:0:0:0:
457,298,71180,2,2,L|395:301,1,48
190,358,71328,6,0,P|172:298|248:262,1,144,0|0,1:0|0:0,0:0:0:0:
284,250,71625,1,8,0:0:0:0:
153,210,71774,1,2,0:0:0:0:
400,122,71922,1,2,0:0:0:0:
246,76,72145,1,2,0:0:0:0:
401,47,72368,1,2,0:0:0:0:
133,178,72517,1,2,0:0:0:0:
325,141,72740,1,2,0:0:0:0:
132,103,72963,1,2,0:0:0:0:
396,68,73111,6,0,P|396:130|306:177,1,144,2|8,0:0|0:0,0:0:0:0:
281,184,73408,1,0,0:0:0:0:
414,266,73556,2,2,L|485:268,1,48
250,337,73705,6,0,L|140:333,1,96,0|0,1:0|0:0,0:0:0:0:
292,266,74002,1,8,0:0:0:0:
154,244,74150,1,2,0:0:0:0:
404,255,74299,2,0,P|419:193|337:142,1,144,2|8,0:0|0:0,0:0:0:0:
173,123,74596,1,0,1:0:0:0:
306,52,74744,2,0,L|238:47,1,48,0|0,1:0|1:0,0:0:0:0:
50,110,74893,5,0,1:0:0:0:
214,224,75116,1,2,0:0:0:0:
48,295,75338,1,2,0:0:0:0:
281,348,75487,2,0,L|388:337,1,96,2|0,0:0|0:0,0:0:0:0:
241,280,75784,1,0,1:0:0:0:
487,190,75932,2,0,L|411:192,1,48,0|0,1:0|1:0,0:0:0:0:
220,128,76081,5,0,1:0:0:0:
351,107,76229,1,0,1:0:0:0:
120,60,76378,1,0,1:0:0:0:
252,39,76526,1,0,1:0:0:0:
25,173,76675,1,0,1:0:0:0:
282,256,76823,1,0,1:0:0:0:
149,281,76972,1,0,1:0:0:0:
390,344,77120,1,0,1:0:0:0:
149,336,77269,5,0,1:0:0:0:
120,329,77306,1,0,1:0:0:0:
107,308,77343,1,0,1:0:0:0:
120,287,77380,1,0,1:0:0:0:
149,281,77417,1,0,1:0:0:0:
207,277,77492,1,0,1:0:0:0:
440,267,77566,6,0,B|451:85|451:85|440:269|440:269|87:237|87:237|74:58|74:58|88:238|88:238|448:267|448:267|459:85|459:85|470:260|470:260|453:65,1,1980.00004720688,0|0,1:0|0:0,0:0:0:0:
210,75,78457,6,0,L|339:56,1,105.600003222656,4|0,0:0|0:0,0:0:0:0:
177,183,78754,1,8,1:0:0:0:
124,176,78828,1,0,0:0:0:0:
72,169,78902,1,0,0:0:0:0:
334,89,79051,6,0,L|346:219,1,115.199996484375,2|0,1:0|0:0,0:0:0:0:
151,307,79274,2,0,L|212:339,1,57.5999982421876,2|8,0:0|1:2,0:0:0:0:
263,345,79422,1,0,0:0:0:0:
86,364,79497,2,0,L|77:265,1,57.5999982421876,2|0,0:0|0:0,0:0:0:0:
269,249,79645,6,0,L|408:213,1,115.199996484375,2|0,1:0|0:0,0:0:0:0:
217,180,79868,2,0,L|212:114,1,57.5999982421876,2|8,0:0|1:2,0:0:0:0:
344,74,80091,2,0,L|284:67,1,57.5999982421876,2|0,0:0|0:0,0:0:0:0:
113,48,80239,2,0,L|39:60,2,57.5999982421876,2|0|0,1:0|0:0|0:0,0:0:0:0:
294,189,80462,2,0,L|218:196,1,57.5999982421876,2|8,0:0|1:2,0:0:0:0:
366,286,80685,2,0,L|433:293,1,57.5999982421876,2|2,0:0|0:0,0:0:0:0:
237,357,80833,6,0,L|225:223,1,115.199996484375,2|0,1:0|0:0,0:0:0:0:
488,123,81130,2,0,L|370:95,1,115.199996484375,10|0,1:0|0:0,0:0:0:0:
434,83,81353,1,0,0:0:0:0:
263,84,81427,2,0,L|149:55,1,115.199996484375,2|0,1:0|0:0,0:0:0:0:
321,174,81650,2,0,L|248:195,1,57.5999982421876,2|8,0:0|1:2,0:0:0:0:
138,209,81873,1,2,0:0:0:0:
390,332,82021,6,0,L|255:323,1,115.199996484375,0|0,1:0|0:0,0:0:0:0:
97,236,82244,2,0,L|169:221,1,57.5999982421876,2|8,0:0|1:2,0:0:0:0:
287,147,82467,2,0,L|354:158,1,57.5999982421876,2|0,0:0|1:0,0:0:0:0:
155,73,82616,6,0,L|276:29,1,115.199996484375,2|0,1:0|1:0,0:0:0:0:
79,41,82838,2,0,L|20:28,1,57.5999982421876,0|8,0:0|1:2,0:0:0:0:
270,231,83061,2,0,L|344:224,1,57.5999982421876,0|0,1:0|0:0,0:0:0:0:
127,303,83210,6,0,L|9:261,1,115.199996484375,2|0,1:0|0:0,0:0:0:0:
77,237,83432,1,0,0:0:0:0:
256,238,83507,2,0,L|266:158,1,57.5999982421876,10|0,1:0|0:0,0:0:0:0:
186,173,83655,2,0,L|178:87,1,57.5999982421876,2|0,0:0|0:0,0:0:0:0:
353,73,83804,6,0,L|483:115,1,115.199996484375,2|0,1:0|0:0,0:0:0:0:
293,158,84026,2,0,L|290:235,1,57.5999982421876,2|8,0:0|1:2,0:0:0:0:
425,268,84249,1,2,0:0:0:0:
165,347,84398,6,0,L|155:211,1,115.199996484375,2|0,1:0|0:0,0:0:0:0:
324,169,84620,2,0,L|330:93,1,57.5999982421876,2|8,0:0|1:2,0:0:0:0:
188,96,84843,1,2,0:0:0:0:
436,29,84992,2,0,L|321:97,1,115.199996484375,2|0,1:0|0:0,0:0:0:0:
152,209,85215,2,0,L|223:233,1,57.5999982421876,2|8,0:0|1:2,0:0:0:0:
443,247,85437,1,2,1:0:0:0:
185,348,85586,6,0,L|31:311,1,115.199996484375,2|0,1:0|0:0,0:0:0:0:
239,286,85809,2,0,L|241:213,1,57.5999982421876,2|8,0:0|1:2,0:0:0:0:
112,211,86031,2,0,L|106:136,1,57.5999982421876,2|0,0:0|0:0,0:0:0:0:
290,98,86180,2,0,L|355:97,2,57.5999982421876,2|0|0,1:0|0:0|0:0,0:0:0:0:
113,37,86403,2,0,L|50:39,2,57.5999982421876,2|8|0,0:0|1:0|0:0,0:0:0:0:
294,25,86625,2,0,L|368:26,1,57.5999982421876,2|0,0:0|0:0,0:0:0:0:
139,271,86774,6,0,L|417:253,1,240,0|0,1:0|0:0,0:0:0:0:
310,233,86997,2,0,L|479:218,1,124.79999428711,0|0,1:0|0:0,0:0:0:0:
229,106,87219,2,0,L|146:103,1,52.8000016113282,0|0,1:0|0:0,0:0:0:0:
369,38,87368,5,0,1:0:0:0:
147,26,87665,2,0,L|144:200,1,158.400004833985,2|0,0:0|0:0,0:0:0:0:
369,269,87962,6,0,L|258:280,1,105.600003222656,6|0,1:2|0:0,0:0:0:0:
322,314,88185,1,0,0:0:0:0:
384,343,88259,2,0,L|495:312,1,105.600003222656,10|0,1:0|0:0,0:0:0:0:
237,212,88556,2,0,L|230:67,1,105.600003222656,2|0,1:0|0:0,0:0:0:0:
439,61,88779,2,0,L|380:32,1,52.8000016113282,2|8,0:0|1:2,0:0:0:0:
276,20,89002,1,2,0:0:0:0:
23,295,89150,2,0,L|168:276,1,105.600003222656,2|0,1:0|0:0,0:0:0:0:
322,157,89373,2,0,L|253:144,1,52.8000016113282,2|8,0:0|1:2,0:0:0:0:
27,42,89596,2,0,L|103:24,1,52.8000016113282,2|0,0:0|0:0,0:0:0:0:
262,49,89744,6,0,L|337:53,2,52.8000016113282,2|0|0,1:0|0:0|0:0,0:0:0:0:
428,165,89967,2,0,L|493:156,1,52.8000016113282,0|8,0:0|1:2,0:0:0:0:
347,275,90190,2,0,L|431:275,1,52.8000016113282,2|0,0:0|0:0,0:0:0:0:
198,360,90338,6,0,L|85:349,1,105.600003222656,2|0,1:0|0:0,0:0:0:0:
344,346,90635,2,0,L|408:335,1,52.8000016113282,10|0,1:0|0:0,0:0:0:0:
458,269,90784,2,0,L|378:255,1,52.8000016113282
221,198,90932,2,0,L|338:177,1,105.600003222656,2|0,1:0|0:0,0:0:0:0:
129,93,91155,2,0,L|62:84,2,52.8000016113282,2|8|0,0:0|1:2|0:0,0:0:0:0:
325,180,91378,1,2,0:0:0:0:
57,285,91526,6,0,L|39:159,1,105.600003222656,2|0,1:0|1:0,0:0:0:0:
241,137,91749,2,0,L|311:130,1,52.8000016113282,0|8,0:0|1:0,0:0:0:0:
173,93,91972,1,2,1:0:0:0:
435,32,92120,2,0,L|375:30,1,52.8000016113282,2|0,1:0|1:0,0:0:0:0:
262,31,92343,1,2,1:0:0:0:
491,274,92417,5,8,1:0:0:0:
260,312,92566,1,2,1:0:0:0:
28,140,92715,5,8,1:0:0:0:
103,159,92814,1,0,1:0:0:0:
27,168,92913,1,0,1:0:0:0:
242,139,93012,1,8,1:0:0:0:
321,167,93111,1,0,1:0:0:0:
241,167,93210,1,0,1:0:0:0:
476,91,93309,5,8,1:0:0:0:
390,111,93408,1,0,1:0:0:0:
477,119,93507,1,0,1:0:0:0:
243,92,93606,1,8,1:0:0:0:
150,124,93705,1,0,1:0:0:0:
244,120,93804,1,0,1:0:0:0:
11,205,93903,6,0,L|78:236,1,70.4000021484376,8|0,1:0|1:0,0:0:0:0:
267,271,94101,1,0,1:0:0:0:
68,339,94200,2,0,L|155:353,1,70.4000021484376,8|0,1:0|1:0,0:0:0:0:
330,355,94398,1,0,1:0:0:0:
110,351,94497,6,0,L|75:312,2,52.8000016113282,2|0|2,0:0|0:0|0:0,0:0:0:0:
183,351,94719,1,0,0:0:0:0:
103,355,94794,2,0,L|23:348,2,52.8000016113282,2|0|2,0:0|0:0|0:0,0:0:0:0:
177,356,95017,1,0,0:0:0:0:
406,239,95091,6,0,L|475:238,2,52.8000016113282,0|0|0,1:0|1:0|1:0,0:0:0:0:
213,204,95314,2,0,L|236:142,1,52.8000016113282,0|0,1:0|1:0,0:0:0:0:
301,132,95462,1,0,1:0:0:0:
104,91,95536,2,0,L|12:81,1,52.8000016113282,0|0,1:0|1:0,0:0:0:0:
264,40,95685,6,0,L|149:111,1,124.79999428711,0|0,1:0|1:0,0:0:0:0:
146,133,95870,1,0,1:0:0:0:
157,105,95908,1,0,1:0:0:0:
360,164,95982,6,0,L|245:235,1,124.79999428711,0|0,1:0|1:0,0:0:0:0:
242,257,96167,1,0,1:0:0:0:
253,229,96205,1,0,1:0:0:0:
480,337,96279,6,0,L|202:319,1,240,0|0,1:0|0:0,0:0:0:0:
312,295,96502,2,0,L|44:255,1,264.0000025177,0|0,1:0|0:0,0:0:0:0:
239,175,96724,2,0,L|322:172,1,52.8000016113282,0|0,1:0|0:0,0:0:0:0:
69,105,96873,5,0,1:0:0:0:
288,86,97170,2,0,L|295:258,1,158.400004833985,10|0,0:0|0:0,0:0:0:0:
61,329,97467,6,0,L|83:187,1,115.199996484375,4|0,2:0|0:0,0:0:0:0:
216,184,97764,1,8,0:0:0:0:
448,111,97913,2,0,L|383:74,1,57.5999982421876,0|0,1:0|0:0,0:0:0:0:
330,77,98061,1,0,0:0:0:0:
474,35,98210,1,8,0:0:0:0:
221,104,98358,6,0,L|307:200,1,115.199996484375,0|0,1:0|0:0,0:0:0:0:
440,222,98655,1,8,0:0:0:0:
157,246,98804,2,0,L|309:309,1,115.199996484375,0|0,1:0|0:0,0:0:0:0:
407,355,99101,2,0,L|347:369,1,57.5999982421876,8|0,0:0|0:0,0:0:0:0:
150,348,99249,5,0,1:0:0:0:
285,326,99398,1,0,0:0:0:0:
45,263,99546,1,0,1:0:0:0:
285,240,99695,1,0,0:0:0:0:
39,220,99843,5,2,1:2:0:0:
15,169,99917,1,2,0:0:0:0:
37,118,99992,1,2,0:2:0:0:
90,101,100065,1,2,0:0:0:0:
157,97,100140,1,10,0:0:0:0:
90,101,100215,1,2,0:0:0:0:
283,37,100289,5,2,1:2:0:0:
312,84,100363,1,2,0:0:0:0:
295,137,100437,1,2,0:0:0:0:
243,158,100511,1,2,0:0:0:0:
180,162,100586,1,10,0:0:0:0:
243,158,100660,1,2,0:0:0:0:
435,244,100734,6,0,L|526:256,2,57.5999982421876,2|0|2,1:2|0:0|0:0,0:0:0:0:
372,239,100957,2,0,L|363:206,2,28.7999991210938,2|0|10,0:0|0:0|0:0,0:0:0:0:
101,101,101180,6,0,L|227:73,1,115.199996484375,0|2,1:0|0:0,0:0:0:0:
267,90,101402,1,0,0:0:0:0:
292,140,101476,1,10,0:0:0:0:
270,192,101550,1,0,0:0:0:0:
65,317,101625,5,2,1:2:0:0:
43,265,101700,1,0,0:0:0:0:
68,215,101774,1,2,0:0:0:0:
121,202,101848,1,0,0:0:0:0:
310,173,101922,1,2,1:2:0:0:
165,109,102071,2,0,L|243:95,1,57.5999982421876
436,77,102219,6,0,L|439:209,1,115.199996484375,0|0,1:0|0:0,0:0:0:0:
307,258,102517,1,8,0:0:0:0:
61,311,102665,6,0,L|128:273,1,57.5999982421876,0|0,1:0|0:0,0:0:0:0:
175,275,102814,1,0,0:0:0:0:
25,226,102962,1,8,0:0:0:0:
289,244,103111,2,0,L|227:144,1,115.199996484375,0|0,1:0|0:0,0:0:0:0:
78,123,103408,1,8,0:0:0:0:
347,64,103556,1,0,1:0:0:0:
217,38,103705,1,0,0:0:0:0:
68,33,103853,2,0,L|151:25,1,57.5999982421876,8|0,2:0|0:0,0:0:0:0:
332,187,104002,5,0,1:0:0:0:
191,200,104150,1,0,2:0:0:0:
438,269,104299,1,0,1:0:0:0:
180,291,104447,1,0,0:0:0:0:
453,348,104596,5,0,1:0:0:0:
469,294,104670,1,2,0:0:0:0:
443,244,104744,1,2,0:0:0:0:
389,227,104818,1,2,0:0:0:0:
450,206,104893,1,10,0:0:0:0:
385,198,104967,1,2,0:0:0:0:
200,214,105041,5,2,1:2:0:0:
165,170,105115,1,2,0:0:0:0:
180,117,105190,1,2,0:0:0:0:
232,98,105263,1,2,0:0:0:0:
306,53,105338,2,0,L|230:48,1,57.5999982421876,10|0,0:0|0:0,0:0:0:0:
61,123,105487,2,0,L|55:185,1,57.5999982421876,0|0,1:0|0:0,0:0:0:0:
129,188,105635,2,0,L|124:252,1,57.5999982421876
328,335,105784,5,0,1:0:0:0:
311,311,105821,1,0,1:0:0:0:
289,293,105858,1,0,1:0:0:0:
262,282,105895,1,0,1:0:0:0:
233,280,105932,1,0,1:0:0:0:
165,286,106007,1,0,1:0:0:0:
403,195,106081,6,0,L|97:186,1,264.0000025177,8|0,1:0|0:0,0:0:0:0:
139,187,106378,2,0,L|404:264,1,264.0000025177,8|0,1:0|0:0,0:0:0:0:
392,260,106675,2,0,L|143:393,1,264.0000025177,8|0,1:0|0:0,0:0:0:0:
479,57,106972,5,4,0:0:0:0:
423,64,107046,1,0,0:0:0:0:
397,113,107120,1,0,0:0:0:0:
420,163,107194,1,0,0:0:0:0:
474,175,107269,1,8,1:0:0:0:
412,193,107343,1,0,0:0:0:0:
347,192,107417,1,0,0:0:0:0:
412,223,107492,1,0,0:0:0:0:
219,313,107566,6,0,L|153:303,1,57.5999982421876,0|0,1:0|0:0,0:0:0:0:
235,260,107715,2,0,L|235:200,1,57.5999982421876
309,197,107863,2,0,L|324:136,1,57.5999982421876,8|0,1:0|0:0,0:0:0:0:
141,88,108012,2,0,L|55:79,1,57.5999982421876
264,37,108160,6,0,L|334:40,1,57.5999982421876,0|0,1:0|0:0,0:0:0:0:
249,64,108309,2,0,L|243:141,1,57.5999982421876
437,150,108457,2,0,L|446:229,1,57.5999982421876,8|0,1:0|0:0,0:0:0:0:
373,224,108606,2,0,L|365:290,1,57.5999982421876
173,359,108754,5,0,1:0:0:0:
152,306,108828,1,0,0:0:0:0:
178,257,108902,1,0,0:0:0:0:
232,243,108976,1,0,0:0:0:0:
39,237,109051,5,8,1:0:0:0:
18,184,109125,1,0,0:0:0:0:
44,135,109199,1,0,0:0:0:0:
98,121,109273,1,0,0:0:0:0:
286,65,109348,6,0,L|228:48,1,57.5999982421876,0|0,1:0|0:0,0:0:0:0:
165,33,109497,2,0,L|239:23,1,57.5999982421876
406,90,109645,1,8,1:0:0:0:
377,139,109719,1,0,0:0:0:0:
328,167,109793,1,0,0:0:0:0:
271,168,109867,1,0,0:0:0:0:
463,201,109942,6,0,L|476:275,1,57.5999982421876,0|0,1:0|0:0,0:0:0:0:
403,282,110091,2,0,L|475:285,1,57.5999982421876
393,315,110239,2,0,L|320:324,1,57.5999982421876,8|0,1:0|0:0,0:0:0:0:
402,340,110388,2,0,L|477:343,1,57.5999982421876
223,349,110536,6,0,L|208:331,1,19.1999994140625,0|0,1:0|0:0,0:0:0:0:
146,298,110635,2,0,L|145:271,1,19.1999994140625,0|0,1:0|0:0,0:0:0:0:
211,246,110734,2,0,L|237:239,1,19.1999994140625,0|0,1:0|0:0,0:0:0:0:
423,220,110833,2,0,L|408:202,1,19.1999994140625,0|0,1:0|0:0,0:0:0:0:
342,170,110932,2,0,L|341:143,1,19.1999994140625,0|0,1:0|0:0,0:0:0:0:
411,117,111031,2,0,L|437:110,1,19.1999994140625,0|0,1:0|0:0,0:0:0:0:
245,108,111130,6,0,L|239:84,1,19.1999994140625,0|0,1:0|0:0,0:0:0:0:
304,69,111229,2,0,L|306:43,1,19.1999994140625,0|0,1:0|0:0,0:0:0:0:
131,40,111328,2,0,L|106:40,1,19.1999994140625,0|0,1:0|0:0,0:0:0:0:
308,161,111427,2,0,L|315:188,1,19.1999994140625,0|0,1:0|0:0,0:0:0:0:
172,230,111526,2,0,L|171:250,1,19.1999994140625,0|0,1:0|0:0,0:0:0:0:
28,291,111625,2,0,L|22:315,1,19.1999994140625,0|0,1:0|0:0,0:0:0:0:
250,306,111724,6,0,L|328:314,1,57.5999982421876,0|0,1:0|0:0,0:0:0:0:
247,331,111873,2,0,L|177:342,1,57.5999982421876,0|0,1:0|0:0,0:0:0:0:
400,353,112021,1,8,1:0:0:0:
416,299,112095,1,0,0:0:0:0:
388,250,112169,1,0,1:0:0:0:
334,236,112243,1,0,0:0:0:0:
134,223,112318,6,0,L|125:140,1,57.5999982421876,8|0,1:0|0:0,0:0:0:0:
197,140,112467,2,0,L|129:133,1,57.5999982421876,8|0,1:0|0:0,0:0:0:0:
70,90,112616,2,0,L|134:79,1,57.5999982421876,8|0,1:0|0:0,0:0:0:0:
306,40,112764,2,0,L|229:33,1,57.5999982421876,8|0,1:0|0:0,0:0:0:0:
444,75,112913,6,0,L|453:162,1,57.5999982421876,0|0,1:0|2:0,0:0:0:0:
269,175,113061,2,0,L|257:260,1,57.5999982421876,0|0,1:0|0:0,0:0:0:0:
446,316,113210,2,0,L|453:246,1,57.5999982421876,8|0,1:0|0:0,0:0:0:0:
378,257,113358,2,0,L|382:190,1,57.5999982421876,0|0,1:0|0:0,0:0:0:0:
178,187,113507,6,0,L|232:141,1,57.5999982421876,8|0,1:0|0:0,0:0:0:0:
289,128,113655,2,0,L|357:120,1,57.5999982421876,8|0,1:0|0:0,0:0:0:0:
153,81,113804,2,0,L|85:71,1,57.5999982421876,8|0,1:0|0:0,0:0:0:0:
294,26,113952,2,0,L|368:19,1,57.5999982421876,8|8,1:0|0:0,0:0:0:0:
141,88,114101,6,0,L|132:151,1,57.5999982421876,0|0,1:0|1:0,0:0:0:0:
312,166,114249,2,0,L|330:229,1,57.5999982421876,0|0,1:0|1:0,0:0:0:0:
114,252,114398,2,0,L|157:304,1,57.5999982421876,0|0,1:0|1:0,0:0:0:0:
340,338,114546,2,0,L|434:344,1,57.5999982421876,0|0,1:0|1:0,0:0:0:0:
188,123,114695,6,0,L|303:194,1,124.79999428711,8|0,1:0|1:0,0:0:0:0:
306,216,114880,1,0,1:0:0:0:
295,188,114918,1,0,1:0:0:0:
92,247,114992,6,0,L|207:318,1,124.79999428711,8|0,1:0|1:0,0:0:0:0:
210,340,115177,1,0,1:0:0:0:
199,312,115215,1,0,1:0:0:0:
26,330,115289,6,0,L|12:258,1,57.5999982421876,8|0,1:2|0:0,0:0:0:0:
152,200,115437,2,0,L|138:127,1,57.5999982421876
296,104,115586,2,0,L|283:26,1,57.5999982421876,2|0,0:0|0:0,0:0:0:0:
465,56,115734,2,0,L|455:-2,1,57.5999982421876
252,190,115883,6,0,L|237:118,1,57.5999982421876,2|0,0:0|0:0,0:0:0:0:
435,279,116031,2,0,L|446:204,1,57.5999982421876
249,173,116180,2,0,L|260:95,1,57.5999982421876,2|2,0:0|0:0,0:0:0:0:
58,108,116328,2,0,L|69:50,1,57.5999982421876,2|2,0:0|0:0,0:0:0:0:
311,31,116477,5,8,1:0:0:0:
185,82,116625,1,0,1:0:0:0:
180,139,116699,1,0,1:0:0:0:
176,196,116773,1,0,1:0:0:0:
438,159,116922,5,8,1:0:0:0:
305,214,117070,1,0,1:0:0:0:
300,271,117144,1,0,1:0:0:0:
296,328,117218,1,0,1:0:0:0:
30,354,117368,5,8,1:0:0:0:
38,262,118556,2,0,L|78:256,1,28.7999991210938,0|0,1:0|0:0,0:0:0:0:
178,198,118705,2,0,L|215:196,1,28.7999991210938,0|0,1:0|0:0,0:0:0:0:
417,136,118853,5,8,1:0:0:0:
286,107,119002,1,0,1:0:0:0:
228,101,119076,1,0,1:0:0:0:
171,96,119150,1,0,1:0:0:0:
447,37,119299,5,8,1:0:0:0:
291,252,119447,1,0,1:0:0:0:
348,254,119521,1,0,1:0:0:0:
406,256,119595,1,0,1:0:0:0:
136,362,119744,5,8,1:0:0:0:
147,245,120932,2,0,L|201:239,1,28.7999991210938
377,117,121081,2,0,L|329:113,1,28.7999991210938
99,80,121229,5,8,0:0:0:0:
230,97,121378,1,0,0:0:0:0:
233,154,121452,1,0,0:0:0:0:
236,211,121526,1,0,0:0:0:0:
496,96,121675,5,8,0:0:0:0:
366,132,121824,1,0,0:0:0:0:
362,189,121898,1,0,0:0:0:0:
359,246,121972,1,0,0:0:0:0:
70,319,122120,5,8,0:0:0:0:
70,358,123309,2,0,L|103:360,1,28.7999991210938
327,305,123457,2,0,L|367:296,1,28.7999991210938
118,241,123606,5,8,0:0:0:0:
244,164,123754,1,0,0:0:0:0:
186,159,123828,1,0,0:0:0:0:
129,155,123902,1,0,0:0:0:0:
375,52,124051,1,8,0:0:0:0:
114,46,124200,2,0,L|175:59,1,57.5999982421876
348,74,124348,1,0,0:0:0:0:
75,140,124497,5,8,0:0:0:0:
