osu file format v14

[General]
AudioFilename: audio.mp3
AudioLeadIn: 0
PreviewTime: 97332
Countdown: 0
SampleSet: Soft
StackLeniency: 0.7
Mode: 2
LetterboxInBreaks: 0
WidescreenStoryboard: 1

[Editor]
Bookmarks: 11861,21366,40376,49881,59386,68891,78396,99782,106911
DistanceSpacing: 1.1
BeatDivisor: 4
GridSize: 4
TimelineZoom: 2.300001

[Metadata]
Title:PUPA
TitleUnicode:PUPA
Artist:Morimori Atsushi
ArtistUnicode:モリモリあつし
Creator:Spectator
Version:Cup
Source:Deemo
Tags:Jemzuu AJamez Electronic Instrumental Featured Artist FA Mappers' Guild MG BMS G2R2014 HARD RENAISSANCE VOEZ SOUND VOLTEX IV HEAVENLY HAVEN Muse Dash CHUNITHM チュウニズム CRYSTAL CIRCLINK Dynamix Rhythmsia SEVEN’s CODE VIVID WAVE SDVX RAC Collection 3 Rayark Artists Collaboration GO BACK 2 YOUR ROOTS THE OF FIGHTERS 2004 RELOADED osu! osu
BeatmapID:2676272
BeatmapSetID:660618

[Difficulty]
HPDrainRate:3
CircleSize:2
OverallDifficulty:6
ApproachRate:6
SliderMultiplier:1.15
SliderTickRate:1

[Events]
//Background and Video events
0,0,"pupa.jpg",0,0
//Break Periods
2,59647,66714
//Storyboard Layer 0 (Background)
//Storyboard Layer 1 (Fail)
//Storyboard Layer 2 (Pass)
//Storyboard Layer 3 (Foreground)
//Storyboard Layer 4 (Overlay)
//Storyboard Sound Samples

[TimingPoints]
2418,297.029702970297,4,1,1,80,1,0
11625,-90.9090909090909,4,2,4,60,0,0
11700,-90.9090909090909,4,2,1,90,0,0
11922,-90.9090909090909,4,2,2,90,0,0
11997,-95.2380952380952,4,2,1,90,0,0
16675,-95.2380952380952,4,2,1,70,0,0
17863,-95.2380952380952,4,2,1,80,0,0
19051,-95.2380952380952,4,2,1,90,0,0
21576,-95.2380952380952,4,2,10,90,0,0
21650,-95.2380952380952,4,2,1,90,0,0
21799,-95.2380952380952,4,2,10,90,0,0
21873,-95.2380952380952,4,2,1,90,0,0
22021,-95.2380952380952,4,2,10,90,0,0
22095,-95.2380952380952,4,2,1,90,0,0
22244,-95.2380952380952,4,2,10,90,0,0
22318,-95.2380952380952,4,2,1,90,0,0
22467,-95.2380952380952,4,2,10,90,0,0
22541,-95.2380952380952,4,2,1,90,0,0
22764,-95.2380952380952,4,2,10,90,0,0
22838,-95.2380952380952,4,2,1,90,0,0
22987,-95.2380952380952,4,2,10,90,0,0
23061,-95.2380952380952,4,2,1,90,0,0
23210,-95.2380952380952,4,2,10,90,0,0
23284,-95.2380952380952,4,2,1,90,0,0
23432,-95.2380952380952,4,2,10,90,0,0
23506,-95.2380952380952,4,2,1,90,0,0
23655,-95.2380952380952,4,2,10,90,0,0
23729,-95.2380952380952,4,2,1,90,0,0
23952,-95.2380952380952,4,2,10,90,0,0
24026,-95.2380952380952,4,2,1,90,0,0
24175,-95.2380952380952,4,2,10,90,0,0
24249,-95.2380952380952,4,2,1,90,0,0
24398,-95.2380952380952,4,2,10,90,0,0
24472,-95.2380952380952,4,2,1,90,0,0
24620,-95.2380952380952,4,2,10,90,0,0
24694,-95.2380952380952,4,2,1,90,0,0
24843,-95.2380952380952,4,2,10,90,0,0
24917,-95.2380952380952,4,2,1,90,0,0
25140,-95.2380952380952,4,2,10,90,0,0
25214,-95.2380952380952,4,2,1,90,0,0
25363,-95.2380952380952,4,2,10,90,0,0
25437,-95.2380952380952,4,2,1,90,0,0
25586,-95.2380952380952,4,2,10,90,0,0
25660,-95.2380952380952,4,2,1,90,0,0
25809,-95.2380952380952,4,2,10,90,0,0
25883,-95.2380952380952,4,2,1,90,0,0
26031,-95.2380952380952,4,2,10,90,0,0
26105,-95.2380952380952,4,2,1,90,0,0
26180,-95.2380952380952,4,2,10,90,0,0
26254,-95.2380952380952,4,2,1,90,0,0
27814,-95.2380952380952,4,2,1,90,0,0
27962,-95.2380952380952,4,2,1,90,0,0
31081,-95.2380952380952,4,2,10,90,0,0
31155,-95.2380952380952,4,2,1,90,0,0
31304,-95.2380952380952,4,2,10,90,0,0
31378,-95.2380952380952,4,2,1,90,0,0
31526,-95.2380952380952,4,2,10,90,0,0
31600,-95.2380952380952,4,2,1,90,0,0
31749,-95.2380952380952,4,2,10,90,0,0
31823,-95.2380952380952,4,2,1,90,0,0
31972,-95.2380952380952,4,2,10,90,0,0
32046,-95.2380952380952,4,2,1,90,0,0
32269,-95.2380952380952,4,2,10,90,0,0
32343,-95.2380952380952,4,2,1,90,0,0
32492,-95.2380952380952,4,2,10,90,0,0
32566,-95.2380952380952,4,2,1,90,0,0
32715,-95.2380952380952,4,2,10,90,0,0
32789,-95.2380952380952,4,2,1,90,0,0
32937,-95.2380952380952,4,2,10,90,0,0
33011,-95.2380952380952,4,2,1,90,0,0
33160,-95.2380952380952,4,2,10,90,0,0
33234,-95.2380952380952,4,2,1,90,0,0
33457,-95.2380952380952,4,2,10,90,0,0
33531,-95.2380952380952,4,2,1,90,0,0
33680,-95.2380952380952,4,2,10,90,0,0
33754,-95.2380952380952,4,2,1,90,0,0
33903,-95.2380952380952,4,2,10,90,0,0
33977,-95.2380952380952,4,2,1,90,0,0
34125,-95.2380952380952,4,2,10,90,0,0
34199,-95.2380952380952,4,2,1,90,0,0
34348,-95.2380952380952,4,2,10,90,0,0
34422,-95.2380952380952,4,2,1,90,0,0
34645,-95.2380952380952,4,2,10,90,0,0
34719,-95.2380952380952,4,2,1,90,0,0
34868,-95.2380952380952,4,2,10,90,0,0
34942,-95.2380952380952,4,2,1,90,0,0
44596,-95.2380952380952,4,2,3,90,0,0
44818,-95.2380952380952,4,2,1,90,0,0
49348,-95.2380952380952,4,2,3,90,0,0
49571,-95.2380952380952,4,2,1,90,0,0
49942,-95.2380952380952,4,2,1,90,0,0
56477,-95.2380952380952,4,2,1,90,0,0
59447,-95.2380952380952,4,2,4,75,0,0
59521,-95.2380952380952,4,2,1,90,0,0
67764,-95.2380952380952,4,2,1,90,0,0
68952,-95.2380952380952,4,2,3,90,0,0
69101,-95.2380952380952,4,2,1,90,0,0
69249,-95.2380952380952,4,2,1,75,0,0
69398,-95.2380952380952,4,2,1,90,0,0
71328,-95.2380952380952,4,2,3,90,0,0
71477,-95.2380952380952,4,2,1,90,0,0
71625,-95.2380952380952,4,2,1,75,0,0
71774,-95.2380952380952,4,2,1,90,0,0
73705,-95.2380952380952,4,2,3,90,0,0
73854,-95.2380952380952,4,2,1,90,0,0
74002,-95.2380952380952,4,2,1,75,0,0
74151,-95.2380952380952,4,2,1,90,0,0
74893,-95.2380952380952,4,2,3,90,0,0
75042,-95.2380952380952,4,2,1,90,0,0
76081,-95.2380952380952,4,2,3,90,0,0
76230,-95.2380952380952,4,2,1,90,0,0
78457,-90.9090909090909,4,2,2,90,0,1
78531,-90.9090909090909,4,2,1,90,0,1
79051,-90.9090909090909,4,2,1,90,0,1
95685,-90.9090909090909,4,2,1,90,0,1
96279,-90.9090909090909,4,2,1,90,0,1
97393,-90.9090909090909,4,2,1,90,0,0
97467,-100,4,2,2,90,0,1
97541,-95.2380952380952,4,2,1,90,0,0
97913,-95.2380952380952,4,2,5,90,0,0
97987,-95.2380952380952,4,2,1,90,0,0
98358,-95.2380952380952,4,2,5,90,0,0
98432,-95.2380952380952,4,2,1,90,0,0
98804,-95.2380952380952,4,2,5,90,0,0
98878,-95.2380952380952,4,2,1,90,0,0
99249,-95.2380952380952,4,2,5,90,0,0
99323,-95.2380952380952,4,2,1,90,0,0
99546,-95.2380952380952,4,2,5,90,0,0
99620,-95.2380952380952,4,2,1,90,0,0
99843,-95.2380952380952,4,2,5,90,0,0
99917,-95.2380952380952,4,2,1,90,0,0
100289,-95.2380952380952,4,2,5,90,0,0
100363,-95.2380952380952,4,2,1,90,0,0
100734,-95.2380952380952,4,2,5,90,0,0
100808,-95.2380952380952,4,2,1,90,0,0
101180,-95.2380952380952,4,2,5,90,0,0
101254,-95.2380952380952,4,2,1,90,0,0
101625,-95.2380952380952,4,2,5,90,0,0
101699,-95.2380952380952,4,2,1,90,0,0
101922,-95.2380952380952,4,2,5,90,0,0
101996,-95.2380952380952,4,2,1,90,0,0
102219,-95.2380952380952,4,2,5,90,0,0
102293,-95.2380952380952,4,2,1,90,0,0
102665,-95.2380952380952,4,2,5,90,0,0
102739,-95.2380952380952,4,2,1,90,0,0
103111,-95.2380952380952,4,2,5,90,0,0
103185,-95.2380952380952,4,2,1,90,0,0
103556,-95.2380952380952,4,2,5,90,0,0
103630,-95.2380952380952,4,2,1,90,0,0
104002,-95.2380952380952,4,2,5,90,0,0
104076,-95.2380952380952,4,2,1,90,0,0
104299,-95.2380952380952,4,2,5,90,0,0
104373,-95.2380952380952,4,2,1,90,0,0
104596,-95.2380952380952,4,2,5,90,0,0
104670,-95.2380952380952,4,2,1,90,0,0
105041,-95.2380952380952,4,2,5,90,0,0
105115,-95.2380952380952,4,2,1,90,0,0
105487,-95.2380952380952,4,2,5,90,0,0
105561,-95.2380952380952,4,2,1,90,0,0
106972,-95.2380952380952,4,2,2,90,0,1
107046,-95.2380952380952,4,2,1,90,0,0
116477,-95.2380952380952,4,1,1,80,0,0

[Colours]
Combo1 : 130,236,183
Combo2 : 243,210,97
Combo3 : 125,190,249

[HitObjects]
308,244,2418,6,0,L|484:155,2,172.5,8|8|8,1:2|1:2|1:2,0:0:0:0:
204,244,4794,6,0,L|1:212,2,172.5,8|8|8,0:0|0:0|0:0,0:0:0:0:
308,244,7170,6,0,L|484:155,2,172.5,8|8|8,0:0|0:0|0:0,0:0:0:0:
134,260,9546,6,0,P|76:226|149:184,1,172.5,8|8,0:0|0:0,0:0:0:0:
328,176,10437,1,8,0:0:0:0:
256,192,10734,12,2,11625,1:2:0:0:
251,298,11922,6,0,P|320:278|364:160,1,189.750005790711,4|0,2:0|1:0,0:0:0:0:
185,178,12814,1,0,0:0:0:0:
64,179,13111,2,0,L|282:180,1,181.124994472504,0|0,1:0|1:0,0:0:0:0:
426,186,14002,1,0,0:0:0:0:
305,186,14299,6,0,P|247:132|327:78,1,181.124994472504,0|0,1:0|1:0,0:0:0:0:
468,75,15190,1,0,0:0:0:0:
347,74,15487,1,0,1:0:0:0:
151,251,16675,6,0,P|79:224|46:117,1,181.124994472504,8|8,1:0|1:0,0:0:0:0:
224,135,17566,1,8,0:0:0:0:
344,139,17863,2,0,P|416:112|449:5,1,181.124994472504,8|8,1:0|1:0,0:0:0:0:
289,21,18754,1,8,0:0:0:0:
421,22,19051,5,2,1:2:0:0:
197,272,20091,2,0,P|114:224|212:87,1,301.874990787506,0|0,1:0|1:0,0:0:0:0:
335,90,21130,1,0,1:0:0:0:
184,85,21427,6,0,P|104:173|236:165,1,241.499992630005,4|0,1:2|1:0,0:0:0:0:
310,212,22318,1,8,1:0:0:0:
440,213,22616,2,0,L|166:251,1,241.499992630005,0|0,1:0|1:0,0:0:0:0:
331,225,23507,1,8,1:0:0:0:
463,213,23804,6,0,P|435:96|282:53,1,241.499992630005,0|0,1:0|1:0,0:0:0:0:
200,47,24695,1,8,1:0:0:0:
67,56,24992,2,0,P|95:173|248:216,1,241.499992630005,0|0,1:0|1:0,0:0:0:0:
329,223,25883,1,8,1:0:0:0:
178,225,26180,6,0,P|103:160|213:74,1,241.499992630005,0|0,1:0|1:0,0:0:0:0:
291,67,27071,1,8,1:0:0:0:
140,71,27368,1,2,1:2:0:0:
104,176,27665,1,10,1:2:0:0:
140,284,27962,1,0,1:0:0:0:
253,318,28259,1,8,0:0:0:0:
381,315,28556,6,0,P|461:234|358:209,1,241.499992630005,2|0,1:2|1:0,0:0:0:0:
257,199,29447,1,8,1:0:0:0:
378,100,29744,2,0,L|380:357,1,241.499992630005,2|0,1:2|1:0,0:0:0:0:
256,340,30635,1,8,1:0:0:0:
106,342,30932,6,0,L|390:323,1,241.499992630005,4|0,1:2|1:0,0:0:0:0:
215,327,31823,1,8,1:0:0:0:
348,327,32120,2,0,P|437:312|491:164,1,241.499992630005,0|0,1:0|1:0,0:0:0:0:
360,183,33012,1,8,1:0:0:0:
226,185,33309,6,0,P|158:119|253:12,1,241.499992630005,0|0,1:0|1:0,0:0:0:0:
359,11,34200,1,8,1:0:0:0:
226,12,34497,2,0,L|227:167,1,120.749996315003,0|8,1:0|1:0,0:0:0:0:
347,131,35091,1,0,1:0:0:0:
347,249,35388,1,8,1:0:0:0:
196,245,35685,5,4,1:2:0:0:
108,209,35982,1,8,1:0:0:0:
79,113,36279,1,0,1:0:0:0:
117,20,36576,1,8,1:0:0:0:
263,28,36873,2,0,P|339:108|236:183,1,241.499992630005,2|0,1:0|1:0,0:0:0:0:
143,188,37764,1,8,1:0:0:0:
292,187,38061,6,0,L|293:381,1,181.124994472504,4|0,1:2|1:0,0:0:0:0:
171,306,38804,1,8,1:2:0:0:
394,313,39249,1,4,1:2:0:0:
373,214,39546,1,8,1:0:0:0:
293,138,39843,1,0,1:0:0:0:
187,107,40140,1,8,1:0:0:0:
43,106,40437,5,4,1:2:0:0:
435,111,42814,5,4,1:2:0:0:
256,100,44596,5,4,1:2:0:0:
256,100,44744,1,4,1:2:0:0:
92,104,45190,1,6,1:2:0:0:
319,237,46972,6,0,P|395:193|285:111,1,241.499992630005,2|4,0:0|1:2,0:0:0:0:
90,96,49348,5,4,1:2:0:0:
90,96,49496,1,4,1:2:0:0:
277,241,49942,6,0,P|351:219|380:108,1,181.124994472504,4|0,1:2|1:0,0:0:0:0:
185,131,50833,2,0,P|122:182|204:211,1,181.124994472504,0|0,1:0|1:0,0:0:0:0:
383,219,51724,1,0,1:0:0:0:
383,219,52021,1,8,1:0:0:0:
238,217,52318,6,0,P|159:194|130:75,1,181.124994472504,0|0,1:0|1:0,0:0:0:0:
321,118,53210,2,0,P|400:95|429:-24,1,181.124994472504,0|0,1:0|1:0,0:0:0:0:
237,9,54101,1,0,1:0:0:0:
237,9,54398,1,8,1:0:0:0:
381,10,54695,6,0,P|430:47|361:134,1,181.124994472504,4|0,1:2|1:0,0:0:0:0:
162,134,55586,2,0,L|364:135,1,181.124994472504,0|0,1:0|1:0,0:0:0:0:
136,202,56477,1,0,1:0:0:0:
280,200,56774,1,8,1:0:0:0:
136,202,57071,5,8,1:0:0:0:
153,115,57368,1,8,1:0:0:0:
217,50,57665,1,0,1:1:0:0:
326,34,57962,1,8,1:0:0:0:
326,34,58111,1,8,1:0:0:0:
133,38,58556,5,8,1:0:0:0:
48,75,58853,1,8,1:0:0:0:
133,38,59150,1,6,0:0:0:0:
283,77,59447,1,4,1:2:0:0:
399,49,67764,6,0,L|399:194,1,120.749996315003,2|2,0:0|0:0,0:0:0:0:
278,170,68358,1,2,0:0:0:0:
398,167,68655,1,2,0:0:0:0:
247,165,68952,6,0,P|163:223|264:292,1,241.499992630005,4|2,1:2|0:0,0:0:0:0:
428,294,70140,2,0,P|394:190|256:147,1,241.499992630005,2|2,0:0|0:0,0:0:0:0:
38,302,71328,6,0,P|72:198|210:155,1,241.499992630005,4|2,1:2|0:0,0:0:0:0:
389,69,72517,2,0,L|389:338,1,241.499992630005,2|2,0:0|0:0,0:0:0:0:
121,317,73705,6,0,P|46:261|138:166,1,241.499992630005,4|2,1:2|0:0,0:0:0:0:
240,163,74596,1,0,1:0:0:0:
385,316,74893,2,0,P|460:260|368:165,1,241.499992630005,4|2,1:2|0:0,0:0:0:0:
266,162,75784,1,0,1:0:0:0:
122,166,76081,5,4,1:2:0:0:
137,259,76378,1,0,1:0:0:0:
211,333,76675,1,0,1:0:0:0:
332,349,76972,1,0,1:0:0:0:
64,293,77566,1,0,1:0:0:0:
142,246,77863,1,0,1:0:0:0:
64,293,78160,1,0,1:0:0:0:
222,293,78457,6,0,P|295:276|363:101,1,253.000007720947,4|2,0:0|1:0,0:0:0:0:
237,129,79348,1,8,0:0:0:0:
103,123,79645,2,0,L|103:275,1,126.500003860474,2|8,1:0|0:0,0:0:0:0:
229,247,80239,2,0,L|363:247,1,126.500003860474,2|8,1:0|0:0,0:0:0:0:
196,347,80833,6,0,P|116:301|227:220,1,253.000007720947,2|2,1:0|1:0,0:0:0:0:
320,205,81724,1,8,0:0:0:0:
162,209,82021,2,0,P|184:112|333:69,1,253.000007720947,0|2,1:0|1:0,0:0:0:0:
434,69,82913,1,8,1:0:0:0:
276,69,83210,6,0,P|192:126|288:206,1,253.000007720947,2|2,1:0|1:0,0:0:0:0:
410,203,84101,1,8,0:0:0:0:
270,208,84398,2,0,L|270:351,1,126.500003860474,2|8,1:0|0:0,0:0:0:0:
409,329,84992,1,2,1:0:0:0:
270,334,85289,1,8,0:0:0:0:
137,335,85586,6,0,P|72:299|68:224,1,126.500003860474,2|8,1:0|1:0,0:0:0:0:
194,257,86180,2,0,P|259:221|263:146,1,126.500003860474,2|8,1:0|1:0,0:0:0:0:
119,177,86774,2,0,P|54:138|135:92,1,189.750005790711,0|0,1:0|1:0,0:0:0:0:
197,86,87368,1,0,1:0:0:0:
430,271,87962,6,0,P|414:183|271:107,1,253.000007720947,6|2,1:2|1:0,0:0:0:0:
141,106,88853,1,8,0:0:0:0:
280,106,89150,2,0,L|280:261,1,126.500003860474,2|8,1:0|0:0,0:0:0:0:
153,238,89744,2,0,L|153:393,1,126.500003860474,2|8,1:0|1:0,0:0:0:0:
311,368,90338,6,0,P|374:311|287:175,1,253.000007720947,6|2,1:2|1:0,0:0:0:0:
177,178,91229,1,8,0:0:0:0:
335,176,91526,2,0,P|392:157|412:74,1,126.500003860474,2|8,1:0|1:0,0:0:0:0:
265,98,92120,1,2,1:0:0:0:
416,99,92417,1,8,1:0:0:0:
259,98,92715,6,0,L|241:257,1,126.500003860474,12|8,1:2|1:0,0:0:0:0:
395,230,93309,2,0,L|413:389,1,126.500003860474,8|8,1:0|1:0,0:0:0:0:
254,362,93903,2,0,L|97:361,1,126.500003860474,8|8,1:0|1:0,0:0:0:0:
254,362,94497,1,2,0:0:0:0:
254,362,94794,1,2,0:0:0:0:
407,252,95091,6,0,L|407:75,1,126.500003860474,8|8,1:0|1:0,0:0:0:0:
248,131,95685,2,0,L|249:294,1,126.500003860474,8|8,1:0|1:0,0:0:0:0:
402,252,96279,2,0,L|106:255,1,253.000007720947,8|8,1:0|1:0,0:0:0:0:
277,241,97467,6,0,P|351:219|384:128,1,172.5,4|0,2:0|1:0,0:0:0:0:
185,131,98358,2,0,P|122:182|204:211,1,181.124994472504,0|0,1:0|1:0,0:0:0:0:
383,219,99249,1,0,1:0:0:0:
383,219,99546,1,0,1:0:0:0:
238,217,99843,6,0,P|159:194|130:75,1,181.124994472504,0|0,1:0|1:0,0:0:0:0:
321,118,100735,2,0,P|400:95|429:-24,1,181.124994472504,0|0,1:0|1:0,0:0:0:0:
237,9,101626,1,0,1:0:0:0:
237,9,101923,1,0,1:0:0:0:
381,10,102220,6,0,P|430:47|361:134,1,181.124994472504,0|0,1:0|1:0,0:0:0:0:
162,134,103111,2,0,L|364:135,1,181.124994472504,0|0,1:0|1:0,0:0:0:0:
136,202,104002,1,0,1:0:0:0:
136,202,104299,1,0,1:0:0:0:
293,204,104596,6,0,P|356:159|271:142,1,181.124994472504,0|0,1:0|1:0,0:0:0:0:
100,126,105487,1,0,1:0:0:0:
232,305,105784,5,0,1:0:0:0:
137,285,106081,1,0,1:0:0:0:
75,218,106378,1,0,1:0:0:0:
59,123,106675,1,0,1:0:0:0:
210,119,106972,6,0,P|291:133|355:298,1,241.499992630005,4|0,0:0|1:0,0:0:0:0:
233,266,107863,1,8,1:0:0:0:
103,268,108160,2,0,L|94:104,1,120.749996315003,0|8,1:0|1:0,0:0:0:0:
229,143,108754,2,0,L|364:144,1,120.749996315003,0|8,1:0|1:0,0:0:0:0:
216,143,109348,6,0,P|132:194|236:254,1,241.499992630005,0|0,1:0|1:0,0:0:0:0:
346,263,110239,1,8,1:0:0:0:
213,263,110536,1,0,1:0:0:0:
227,168,110833,1,0,1:0:0:0:
278,88,111130,1,0,1:0:0:0:
374,58,111427,1,0,1:0:0:0:
223,55,111724,6,0,L|218:191,1,120.749996315003,0|8,1:0|1:0,0:0:0:0:
344,175,112318,2,0,L|349:311,1,120.749996315003,8|8,1:0|1:0,0:0:0:0:
215,299,112913,2,0,L|60:301,1,120.749996315003,0|8,1:0|1:0,0:0:0:0:
252,300,113507,2,0,L|395:298,1,120.749996315003,8|8,1:0|1:0,0:0:0:0:
214,298,114101,5,0,1:0:0:0:
154,209,114398,1,8,1:0:0:0:
211,117,114695,1,8,1:0:0:0:
312,112,114992,1,8,1:0:0:0:
161,116,115289,2,0,P|104:171|170:313,1,241.499992630005,8|2,1:2|0:0,0:0:0:0:
264,303,116180,1,2,0:0:0:0:
409,296,116477,6,0,L|229:242,2,181.124994472504,8|8|8,1:0|1:0|1:0,0:0:0:0:
98,297,118853,6,0,L|291:296,2,181.124994472504,8|8|8,1:0|1:0|1:0,0:0:0:0:
414,297,121229,6,0,L|234:243,2,181.124994472504,8|8|8,0:0|0:0|0:0,0:0:0:0:
98,297,123606,6,0,L|301:296,1,181.124994472504,8|8,0:0|0:0,0:0:0:0:
456,296,124497,1,8,0:0:0:0:
