osu file format v14

[General]
AudioFilename: PUPA.mp3
AudioLeadIn: 0
PreviewTime: 76487
Countdown: 0
SampleSet: Soft
StackLeniency: 0.7
Mode: 3
LetterboxInBreaks: 0
SpecialStyle: 0
WidescreenStoryboard: 0

[Editor]
Bookmarks: 10099,19604,29109,38614,48119,57624,67129,76634,86139,95644,105149,114654
DistanceSpacing: 1.7
BeatDivisor: 4
GridSize: 32
TimelineZoom: 2.1

[Metadata]
Title:PUPA
TitleUnicode:PUPA
Artist:Morimori Atsushi
ArtistUnicode:モリモリあつし
Creator:Rilene
Version:7K Advanced
Source:BMS
Tags:g2r2014 GO BACK 2 YOUR ROOTS HARD RENAISSANCE Re:no subject Naryuga
BeatmapID:698615
BeatmapSetID:312902

[Difficulty]
HPDrainRate:7
CircleSize:7
OverallDifficulty:8
ApproachRate:5
SliderMultiplier:1.4
SliderTickRate:1

[Events]
//Background and Video events
0,0,"bg.png",0,0
//Break Periods
//Storyboard Layer 0 (Background)
//Storyboard Layer 1 (Fail)
//Storyboard Layer 2 (Pass)
//Storyboard Layer 3 (Foreground)
//Storyboard Sound Samples

[TimingPoints]
595,297.029702970297,4,2,0,20,1,0
76634,-100,4,2,0,20,0,1
84951,-100,4,2,0,20,0,0
86139,-100,4,2,0,20,0,1
94456,-100,4,2,0,20,0,0
105149,-100,4,2,0,20,0,1
114654,-100,4,2,0,20,0,0

[HitObjects]
329,192,297,5,0,0:0:0:0:
329,192,446,1,0,0:0:0:0:
36,192,595,1,0,0:0:0:0:
182,192,595,1,0,0:0:0:0:
402,192,743,1,0,0:0:0:0:
475,192,817,1,0,0:0:0:0:
402,192,892,1,0,0:0:0:0:
182,192,1040,1,0,0:0:0:0:
36,192,1040,1,0,0:0:0:0:
475,192,1189,1,0,0:0:0:0:
402,192,1263,1,0,0:0:0:0:
475,192,1337,1,0,0:0:0:0:
182,192,1486,1,0,0:0:0:0:
36,192,1486,1,0,0:0:0:0:
182,192,2674,5,0,0:0:0:0:
182,192,2822,1,0,0:0:0:0:
329,192,2971,1,0,0:0:0:0:
475,192,2971,1,0,0:0:0:0:
182,192,3119,1,0,0:0:0:0:
36,192,3194,1,0,0:0:0:0:
182,192,3268,1,0,0:0:0:0:
475,192,3416,1,0,0:0:0:0:
329,192,3416,1,0,0:0:0:0:
36,192,3565,1,0,0:0:0:0:
182,192,3639,1,0,0:0:0:0:
36,192,3713,1,0,0:0:0:0:
475,192,3862,1,0,0:0:0:0:
329,192,3862,1,0,0:0:0:0:
182,192,5050,1,0,0:0:0:0:
182,192,5198,1,0,0:0:0:0:
329,192,5347,1,0,0:0:0:0:
475,192,5347,1,0,0:0:0:0:
109,192,5495,1,0,0:0:0:0:
36,192,5570,1,0,0:0:0:0:
109,192,5644,1,0,0:0:0:0:
329,192,5793,1,0,0:0:0:0:
475,192,5793,1,0,0:0:0:0:
36,192,5941,1,0,0:0:0:0:
109,192,6015,1,0,0:0:0:0:
36,192,6090,1,0,0:0:0:0:
329,192,6238,1,0,0:0:0:0:
475,192,6238,1,0,0:0:0:0:
402,192,7426,1,0,0:0:0:0:
402,192,7575,1,0,0:0:0:0:
36,192,7723,1,0,0:0:0:0:
182,192,7723,1,0,0:0:0:0:
329,192,7872,1,0,0:0:0:0:
475,192,7946,1,0,0:0:0:0:
329,192,8020,1,0,0:0:0:0:
182,192,8169,1,0,0:0:0:0:
36,192,8169,1,0,0:0:0:0:
475,192,8317,1,0,0:0:0:0:
329,192,8392,1,0,0:0:0:0:
475,192,8466,1,0,0:0:0:0:
182,192,8614,1,0,0:0:0:0:
36,192,8614,1,0,0:0:0:0:
402,192,9060,1,0,0:0:0:0:
329,192,9134,1,0,0:0:0:0:
109,192,9208,1,0,0:0:0:0:
182,192,9283,1,0,0:0:0:0:
402,192,9357,1,0,0:0:0:0:
329,192,9431,1,0,0:0:0:0:
109,192,9505,1,0,0:0:0:0:
182,192,9580,1,0,0:0:0:0:
402,192,9654,1,0,0:0:0:0:
329,192,9728,1,0,0:0:0:0:
182,192,9802,128,0,9951:0:0:0:0:
109,192,10099,1,0,0:0:0:0:
402,192,10099,1,0,0:0:0:0:
256,192,10099,1,0,0:0:0:0:
36,192,10396,1,0,0:0:0:0:
109,192,10545,1,0,0:0:0:0:
402,192,10545,1,0,0:0:0:0:
329,192,10619,1,0,0:0:0:0:
256,192,10694,1,0,0:0:0:0:
36,192,10842,1,0,0:0:0:0:
182,192,11139,1,0,0:0:0:0:
402,192,11288,1,0,0:0:0:0:
109,192,11288,1,0,0:0:0:0:
475,192,11288,1,0,0:0:0:0:
256,192,11436,1,0,0:0:0:0:
182,192,11585,1,0,0:0:0:0:
402,192,11733,1,0,0:0:0:0:
329,192,11733,1,0,0:0:0:0:
256,192,11807,1,0,0:0:0:0:
182,192,11882,1,0,0:0:0:0:
329,192,12030,1,0,0:0:0:0:
256,192,12179,1,0,0:0:0:0:
109,192,12327,1,0,0:0:0:0:
36,192,12476,1,0,0:0:0:0:
182,192,12476,1,0,0:0:0:0:
402,192,12476,1,0,0:0:0:0:
329,192,12624,1,0,0:0:0:0:
256,192,12773,1,0,0:0:0:0:
36,192,12921,1,0,0:0:0:0:
402,192,12921,1,0,0:0:0:0:
256,192,13070,1,0,0:0:0:0:
182,192,13144,1,0,0:0:0:0:
109,192,13218,1,0,0:0:0:0:
256,192,13367,1,0,0:0:0:0:
329,192,13515,1,0,0:0:0:0:
475,192,13664,1,0,0:0:0:0:
36,192,13664,1,0,0:0:0:0:
109,192,13812,1,0,0:0:0:0:
402,192,13812,1,0,0:0:0:0:
256,192,14109,1,0,0:0:0:0:
329,192,14109,1,0,0:0:0:0:
36,192,14258,1,0,0:0:0:0:
109,192,14332,1,0,0:0:0:0:
182,192,14406,1,0,0:0:0:0:
256,192,14481,1,0,0:0:0:0:
475,192,14555,1,0,0:0:0:0:
402,192,14629,1,0,0:0:0:0:
329,192,14703,1,0,0:0:0:0:
256,192,14778,1,0,0:0:0:0:
36,192,14852,1,0,0:0:0:0:
475,192,14852,1,0,0:0:0:0:
109,192,14852,1,0,0:0:0:0:
182,192,14926,1,0,0:0:0:0:
256,192,15000,1,0,0:0:0:0:
329,192,15075,1,0,0:0:0:0:
402,192,15149,1,0,0:0:0:0:
182,192,15223,1,0,0:0:0:0:
329,192,15297,1,0,0:0:0:0:
109,192,15372,1,0,0:0:0:0:
402,192,15446,1,0,0:0:0:0:
329,192,15520,1,0,0:0:0:0:
256,192,15594,1,0,0:0:0:0:
182,192,15669,1,0,0:0:0:0:
109,192,15743,1,0,0:0:0:0:
329,192,15817,1,0,0:0:0:0:
182,192,15892,1,0,0:0:0:0:
402,192,15966,1,0,0:0:0:0:
36,192,16040,1,0,0:0:0:0:
256,192,16040,1,0,0:0:0:0:
182,192,16114,1,0,0:0:0:0:
329,192,16189,1,0,0:0:0:0:
475,192,16263,1,0,0:0:0:0:
109,192,16337,1,0,0:0:0:0:
256,192,16411,1,0,0:0:0:0:
402,192,16486,1,0,0:0:0:0:
36,192,16560,1,0,0:0:0:0:
182,192,16634,1,0,0:0:0:0:
329,192,16708,1,0,0:0:0:0:
475,192,16783,1,0,0:0:0:0:
109,192,16857,1,0,0:0:0:0:
256,192,16931,1,0,0:0:0:0:
402,192,17005,1,0,0:0:0:0:
182,192,17080,1,0,0:0:0:0:
256,192,17154,1,0,0:0:0:0:
329,192,17228,1,0,0:0:0:0:
475,192,17228,1,0,0:0:0:0:
182,192,17302,1,0,0:0:0:0:
36,192,17377,1,0,0:0:0:0:
402,192,17451,1,0,0:0:0:0:
256,192,17525,1,0,0:0:0:0:
109,192,17599,1,0,0:0:0:0:
475,192,17674,1,0,0:0:0:0:
329,192,17748,1,0,0:0:0:0:
182,192,17822,1,0,0:0:0:0:
402,192,17896,1,0,0:0:0:0:
256,192,17971,1,0,0:0:0:0:
109,192,18045,1,0,0:0:0:0:
329,192,18119,1,0,0:0:0:0:
475,192,18119,1,0,0:0:0:0:
402,192,18119,1,0,0:0:0:0:
109,192,18268,1,0,0:0:0:0:
182,192,18268,1,0,0:0:0:0:
36,192,18268,1,0,0:0:0:0:
182,192,18565,1,0,0:0:0:0:
329,192,18639,1,0,0:0:0:0:
109,192,18713,1,0,0:0:0:0:
402,192,18788,1,0,0:0:0:0:
36,192,18862,128,0,19010:0:0:0:0:
182,192,19010,1,0,0:0:0:0:
329,192,19109,1,0,0:0:0:0:
182,192,19208,1,0,0:0:0:0:
329,192,19307,1,0,0:0:0:0:
182,192,19406,1,0,0:0:0:0:
329,192,19505,1,0,0:0:0:0:
402,192,19604,1,0,0:0:0:0:
109,192,19604,1,0,0:0:0:0:
182,192,19753,1,0,0:0:0:0:
329,192,19901,1,0,0:0:0:0:
36,192,19901,1,0,0:0:0:0:
475,192,20050,1,0,0:0:0:0:
402,192,20198,1,0,0:0:0:0:
109,192,20198,1,0,0:0:0:0:
256,192,20347,1,0,0:0:0:0:
36,192,20495,1,0,0:0:0:0:
182,192,20495,1,0,0:0:0:0:
329,192,20644,1,0,0:0:0:0:
109,192,20793,1,0,0:0:0:0:
256,192,20793,1,0,0:0:0:0:
475,192,20941,1,0,0:0:0:0:
36,192,21090,1,0,0:0:0:0:
182,192,21090,1,0,0:0:0:0:
329,192,21238,1,0,0:0:0:0:
256,192,21387,1,0,0:0:0:0:
475,192,21387,1,0,0:0:0:0:
109,192,21535,1,0,0:0:0:0:
36,192,21684,1,0,0:0:0:0:
402,192,21684,1,0,0:0:0:0:
256,192,21832,1,0,0:0:0:0:
109,192,21981,1,0,0:0:0:0:
475,192,21981,1,0,0:0:0:0:
182,192,22129,1,0,0:0:0:0:
256,192,22278,1,0,0:0:0:0:
402,192,22278,1,0,0:0:0:0:
36,192,22426,1,0,0:0:0:0:
475,192,22575,1,0,0:0:0:0:
256,192,22575,1,0,0:0:0:0:
109,192,22723,1,0,0:0:0:0:
256,192,22872,1,0,0:0:0:0:
402,192,22872,1,0,0:0:0:0:
329,192,23020,1,0,0:0:0:0:
475,192,23169,1,0,0:0:0:0:
36,192,23169,1,0,0:0:0:0:
182,192,23317,1,0,0:0:0:0:
256,192,23466,1,0,0:0:0:0:
402,192,23466,1,0,0:0:0:0:
109,192,23614,1,0,0:0:0:0:
475,192,23763,1,0,0:0:0:0:
329,192,23763,1,0,0:0:0:0:
182,192,23911,1,0,0:0:0:0:
256,192,24060,1,0,0:0:0:0:
402,192,24060,1,0,0:0:0:0:
329,192,24208,1,0,0:0:0:0:
36,192,24357,1,0,0:0:0:0:
182,192,24357,128,0,24654:0:0:0:0:
109,192,24654,1,0,0:0:0:0:
329,192,24654,1,0,0:0:0:0:
402,192,24802,128,0,24951:0:0:0:0:
36,192,24951,1,0,0:0:0:0:
329,192,25099,128,0,25248:0:0:0:0:
109,192,25248,1,0,0:0:0:0:
182,192,25396,1,0,0:0:0:0:
402,192,25396,128,0,25545:0:0:0:0:
256,192,25471,1,0,0:0:0:0:
36,192,25545,1,0,0:0:0:0:
329,192,25545,128,0,26733:0:0:0:0:
475,192,25545,1,0,0:0:0:0:
402,192,25694,1,0,0:0:0:0:
36,192,25842,1,0,0:0:0:0:
182,192,25842,1,0,0:0:0:0:
109,192,25991,1,0,0:0:0:0:
256,192,26139,1,0,0:0:0:0:
475,192,26288,1,0,0:0:0:0:
182,192,26436,1,0,0:0:0:0:
402,192,26585,1,0,0:0:0:0:
109,192,26733,1,0,0:0:0:0:
256,192,26733,128,0,27030:0:0:0:0:
182,192,27030,1,0,0:0:0:0:
402,192,27030,1,0,0:0:0:0:
329,192,27179,128,0,27327:0:0:0:0:
109,192,27327,1,0,0:0:0:0:
256,192,27476,128,0,27624:0:0:0:0:
182,192,27624,1,0,0:0:0:0:
329,192,27773,128,0,27921:0:0:0:0:
109,192,27921,1,0,0:0:0:0:
256,192,27921,128,0,29109:0:0:0:0:
402,192,27921,1,0,0:0:0:0:
475,192,28070,1,0,0:0:0:0:
36,192,28218,1,0,0:0:0:0:
109,192,28515,1,0,0:0:0:0:
182,192,28515,1,0,0:0:0:0:
402,192,28590,1,0,0:0:0:0:
109,192,28738,1,0,0:0:0:0:
402,192,28812,1,0,0:0:0:0:
329,192,28812,1,0,0:0:0:0:
109,192,28961,1,0,0:0:0:0:
36,192,29109,1,0,0:0:0:0:
329,192,29109,1,0,0:0:0:0:
182,192,29258,1,0,0:0:0:0:
475,192,29258,1,0,0:0:0:0:
109,192,29406,1,0,0:0:0:0:
402,192,29406,1,0,0:0:0:0:
182,192,29481,1,0,0:0:0:0:
256,192,29555,1,0,0:0:0:0:
329,192,29703,1,0,0:0:0:0:
36,192,29703,1,0,0:0:0:0:
402,192,29852,1,0,0:0:0:0:
256,192,29926,1,0,0:0:0:0:
109,192,30000,1,0,0:0:0:0:
182,192,30149,1,0,0:0:0:0:
475,192,30149,1,0,0:0:0:0:
109,192,30297,1,0,0:0:0:0:
402,192,30297,1,0,0:0:0:0:
256,192,30446,1,0,0:0:0:0:
36,192,30446,1,0,0:0:0:0:
402,192,30595,1,0,0:0:0:0:
109,192,30595,1,0,0:0:0:0:
329,192,30669,1,0,0:0:0:0:
256,192,30743,1,0,0:0:0:0:
475,192,30892,1,0,0:0:0:0:
36,192,30892,1,0,0:0:0:0:
402,192,31040,1,0,0:0:0:0:
256,192,31114,1,0,0:0:0:0:
109,192,31189,1,0,0:0:0:0:
329,192,31337,1,0,0:0:0:0:
182,192,31337,1,0,0:0:0:0:
256,192,31486,1,0,0:0:0:0:
36,192,31486,1,0,0:0:0:0:
182,192,31634,1,0,0:0:0:0:
402,192,31634,1,0,0:0:0:0:
256,192,31783,1,0,0:0:0:0:
109,192,31783,1,0,0:0:0:0:
329,192,31857,1,0,0:0:0:0:
402,192,31931,1,0,0:0:0:0:
109,192,32080,1,0,0:0:0:0:
256,192,32080,1,0,0:0:0:0:
182,192,32228,1,0,0:0:0:0:
329,192,32302,1,0,0:0:0:0:
475,192,32377,1,0,0:0:0:0:
256,192,32525,1,0,0:0:0:0:
36,192,32525,1,0,0:0:0:0:
109,192,32674,1,0,0:0:0:0:
329,192,32674,1,0,0:0:0:0:
256,192,32822,1,0,0:0:0:0:
475,192,32822,1,0,0:0:0:0:
109,192,32971,1,0,0:0:0:0:
402,192,32971,1,0,0:0:0:0:
329,192,33045,1,0,0:0:0:0:
256,192,33119,1,0,0:0:0:0:
329,192,33268,1,0,0:0:0:0:
36,192,33268,1,0,0:0:0:0:
109,192,33342,1,0,0:0:0:0:
182,192,33416,1,0,0:0:0:0:
475,192,33491,1,0,0:0:0:0:
402,192,33491,1,0,0:0:0:0:
256,192,33565,1,0,0:0:0:0:
109,192,33713,1,0,0:0:0:0:
475,192,33713,1,0,0:0:0:0:
402,192,33713,1,0,0:0:0:0:
182,192,33862,1,0,0:0:0:0:
36,192,33862,1,0,0:0:0:0:
329,192,33936,1,0,0:0:0:0:
402,192,34010,1,0,0:0:0:0:
475,192,34085,1,0,0:0:0:0:
109,192,34159,1,0,0:0:0:0:
329,192,34233,1,0,0:0:0:0:
402,192,34307,1,0,0:0:0:0:
475,192,34382,1,0,0:0:0:0:
182,192,34456,1,0,0:0:0:0:
329,192,34530,1,0,0:0:0:0:
402,192,34604,1,0,0:0:0:0:
475,192,34679,1,0,0:0:0:0:
109,192,34753,1,0,0:0:0:0:
329,192,34827,1,0,0:0:0:0:
402,192,34901,1,0,0:0:0:0:
475,192,34976,1,0,0:0:0:0:
36,192,35050,1,0,0:0:0:0:
182,192,35050,1,0,0:0:0:0:
475,192,35124,1,0,0:0:0:0:
402,192,35198,1,0,0:0:0:0:
329,192,35273,1,0,0:0:0:0:
109,192,35347,1,0,0:0:0:0:
475,192,35421,1,0,0:0:0:0:
402,192,35495,1,0,0:0:0:0:
329,192,35570,1,0,0:0:0:0:
182,192,35644,1,0,0:0:0:0:
475,192,35718,1,0,0:0:0:0:
402,192,35793,1,0,0:0:0:0:
329,192,35867,1,0,0:0:0:0:
36,192,35941,1,0,0:0:0:0:
475,192,36015,1,0,0:0:0:0:
402,192,36090,1,0,0:0:0:0:
329,192,36164,1,0,0:0:0:0:
36,192,36238,1,0,0:0:0:0:
182,192,36238,1,0,0:0:0:0:
329,192,36535,1,0,0:0:0:0:
475,192,36535,1,0,0:0:0:0:
182,192,36684,1,0,0:0:0:0:
109,192,36684,1,0,0:0:0:0:
329,192,36832,1,0,0:0:0:0:
182,192,36906,1,0,0:0:0:0:
329,192,36981,1,0,0:0:0:0:
402,192,36981,1,0,0:0:0:0:
182,192,37278,1,0,0:0:0:0:
109,192,37278,1,0,0:0:0:0:
475,192,37426,1,0,0:0:0:0:
256,192,37426,1,0,0:0:0:0:
329,192,37500,1,0,0:0:0:0:
182,192,37575,1,0,0:0:0:0:
36,192,37649,1,0,0:0:0:0:
402,192,37723,1,0,0:0:0:0:
256,192,37797,1,0,0:0:0:0:
109,192,37872,1,0,0:0:0:0:
475,192,37946,1,0,0:0:0:0:
329,192,38020,1,0,0:0:0:0:
182,192,38095,1,0,0:0:0:0:
36,192,38169,1,0,0:0:0:0:
475,192,38243,1,0,0:0:0:0:
329,192,38317,1,0,0:0:0:0:
182,192,38392,1,0,0:0:0:0:
36,192,38466,1,0,0:0:0:0:
256,192,38540,1,0,0:0:0:0:
475,192,38614,1,0,0:0:0:0:
402,192,38614,1,0,0:0:0:0:
182,192,38763,1,0,0:0:0:0:
329,192,38911,1,0,0:0:0:0:
402,192,39060,1,0,0:0:0:0:
109,192,39208,1,0,0:0:0:0:
329,192,39357,1,0,0:0:0:0:
475,192,39505,1,0,0:0:0:0:
36,192,39654,1,0,0:0:0:0:
329,192,39802,1,0,0:0:0:0:
109,192,39951,1,0,0:0:0:0:
256,192,40099,1,0,0:0:0:0:
402,192,40248,1,0,0:0:0:0:
36,192,40991,1,0,0:0:0:0:
109,192,40991,1,0,0:0:0:0:
256,192,41139,1,0,0:0:0:0:
402,192,41288,1,0,0:0:0:0:
329,192,41436,1,0,0:0:0:0:
182,192,41585,1,0,0:0:0:0:
402,192,41733,1,0,0:0:0:0:
256,192,41882,1,0,0:0:0:0:
109,192,42030,1,0,0:0:0:0:
182,192,42179,1,0,0:0:0:0:
329,192,42327,1,0,0:0:0:0:
182,192,42476,1,0,0:0:0:0:
109,192,42624,1,0,0:0:0:0:
329,192,42773,1,0,0:0:0:0:
475,192,42773,1,0,0:0:0:0:
182,192,42921,1,0,0:0:0:0:
36,192,42921,1,0,0:0:0:0:
36,192,43367,1,0,0:0:0:0:
402,192,43367,1,0,0:0:0:0:
109,192,43515,1,0,0:0:0:0:
256,192,43664,1,0,0:0:0:0:
402,192,43812,1,0,0:0:0:0:
109,192,43961,1,0,0:0:0:0:
256,192,44109,1,0,0:0:0:0:
36,192,44258,1,0,0:0:0:0:
182,192,44406,1,0,0:0:0:0:
329,192,44555,1,0,0:0:0:0:
475,192,44703,1,0,0:0:0:0:
329,192,44852,1,0,0:0:0:0:
182,192,45000,1,0,0:0:0:0:
109,192,45149,1,0,0:0:0:0:
256,192,45743,1,0,0:0:0:0:
182,192,45743,1,0,0:0:0:0:
402,192,45892,1,0,0:0:0:0:
256,192,46040,1,0,0:0:0:0:
402,192,46189,1,0,0:0:0:0:
109,192,46337,1,0,0:0:0:0:
329,192,46486,1,0,0:0:0:0:
109,192,46634,1,0,0:0:0:0:
256,192,46783,1,0,0:0:0:0:
402,192,46931,1,0,0:0:0:0:
182,192,47080,1,0,0:0:0:0:
329,192,47228,1,0,0:0:0:0:
475,192,47377,1,0,0:0:0:0:
36,192,47525,1,0,0:0:0:0:
329,192,47525,1,0,0:0:0:0:
182,192,47674,1,0,0:0:0:0:
475,192,47674,1,0,0:0:0:0:
109,192,48119,1,0,0:0:0:0:
402,192,48119,1,0,0:0:0:0:
182,192,48342,1,0,0:0:0:0:
329,192,48416,1,0,0:0:0:0:
109,192,48565,1,0,0:0:0:0:
256,192,48565,1,0,0:0:0:0:
402,192,48713,1,0,0:0:0:0:
36,192,48862,1,0,0:0:0:0:
329,192,48936,1,0,0:0:0:0:
109,192,49010,1,0,0:0:0:0:
402,192,49159,1,0,0:0:0:0:
36,192,49307,1,0,0:0:0:0:
329,192,49307,1,0,0:0:0:0:
402,192,49456,1,0,0:0:0:0:
109,192,49530,1,0,0:0:0:0:
36,192,49753,1,0,0:0:0:0:
329,192,49753,1,0,0:0:0:0:
475,192,49901,1,0,0:0:0:0:
182,192,49901,1,0,0:0:0:0:
402,192,50124,1,0,0:0:0:0:
182,192,50198,1,0,0:0:0:0:
329,192,50347,1,0,0:0:0:0:
109,192,50495,1,0,0:0:0:0:
402,192,50495,1,0,0:0:0:0:
36,192,50718,1,0,0:0:0:0:
256,192,50793,1,0,0:0:0:0:
109,192,50941,1,0,0:0:0:0:
329,192,50941,1,0,0:0:0:0:
402,192,51090,1,0,0:0:0:0:
182,192,51238,1,0,0:0:0:0:
329,192,51312,1,0,0:0:0:0:
256,192,51387,1,0,0:0:0:0:
475,192,51535,1,0,0:0:0:0:
36,192,51684,1,0,0:0:0:0:
329,192,51684,1,0,0:0:0:0:
256,192,51832,1,0,0:0:0:0:
109,192,51906,1,0,0:0:0:0:
182,192,52129,1,0,0:0:0:0:
329,192,52129,1,0,0:0:0:0:
475,192,52278,1,0,0:0:0:0:
256,192,52278,1,0,0:0:0:0:
402,192,52500,1,0,0:0:0:0:
182,192,52575,1,0,0:0:0:0:
329,192,52723,1,0,0:0:0:0:
182,192,52872,1,0,0:0:0:0:
36,192,52872,1,0,0:0:0:0:
109,192,53095,1,0,0:0:0:0:
402,192,53169,1,0,0:0:0:0:
36,192,53317,1,0,0:0:0:0:
182,192,53317,1,0,0:0:0:0:
329,192,53466,1,0,0:0:0:0:
109,192,53614,1,0,0:0:0:0:
256,192,53689,1,0,0:0:0:0:
402,192,53763,1,0,0:0:0:0:
329,192,53911,1,0,0:0:0:0:
36,192,54060,1,0,0:0:0:0:
256,192,54060,1,0,0:0:0:0:
402,192,54208,1,0,0:0:0:0:
182,192,54283,1,0,0:0:0:0:
109,192,54505,1,0,0:0:0:0:
329,192,54505,1,0,0:0:0:0:
475,192,54654,1,0,0:0:0:0:
182,192,54654,1,0,0:0:0:0:
329,192,54877,1,0,0:0:0:0:
109,192,54951,1,0,0:0:0:0:
402,192,55099,1,0,0:0:0:0:
182,192,55248,1,0,0:0:0:0:
329,192,55322,1,0,0:0:0:0:
109,192,55396,1,0,0:0:0:0:
256,192,55471,1,0,0:0:0:0:
402,192,55545,1,0,0:0:0:0:
36,192,55619,1,0,0:0:0:0:
182,192,55694,1,0,0:0:0:0:
329,192,55768,1,0,0:0:0:0:
475,192,55842,1,0,0:0:0:0:
109,192,55916,1,0,0:0:0:0:
256,192,55991,1,0,0:0:0:0:
402,192,56065,1,0,0:0:0:0:
182,192,56139,1,0,0:0:0:0:
329,192,56213,1,0,0:0:0:0:
109,192,56288,1,0,0:0:0:0:
36,192,56288,1,0,0:0:0:0:
402,192,56585,1,0,0:0:0:0:
475,192,56585,1,0,0:0:0:0:
36,192,56733,1,0,0:0:0:0:
109,192,56733,1,0,0:0:0:0:
402,192,56882,1,0,0:0:0:0:
475,192,56882,1,0,0:0:0:0:
109,192,57030,1,0,0:0:0:0:
36,192,57030,1,0,0:0:0:0:
402,192,57104,1,0,0:0:0:0:
475,192,57104,1,0,0:0:0:0:
36,192,57179,1,0,0:0:0:0:
109,192,57179,1,0,0:0:0:0:
329,192,57327,128,0,57624:0:0:0:0:
256,192,57624,1,0,0:0:0:0:
109,192,57624,1,0,0:0:0:0:
402,192,57921,1,0,0:0:0:0:
402,192,58070,1,0,0:0:0:0:
109,192,58218,1,0,0:0:0:0:
36,192,58441,1,0,0:0:0:0:
109,192,58664,1,0,0:0:0:0:
329,192,58812,1,0,0:0:0:0:
402,192,59035,1,0,0:0:0:0:
329,192,59258,1,0,0:0:0:0:
256,192,59406,1,0,0:0:0:0:
402,192,59852,1,0,0:0:0:0:
256,192,59926,1,0,0:0:0:0:
182,192,60000,1,0,0:0:0:0:
36,192,60000,1,0,0:0:0:0:
109,192,60297,1,0,0:0:0:0:
109,192,60446,1,0,0:0:0:0:
402,192,60595,1,0,0:0:0:0:
475,192,60817,1,0,0:0:0:0:
402,192,61040,1,0,0:0:0:0:
182,192,61189,1,0,0:0:0:0:
109,192,61411,1,0,0:0:0:0:
182,192,61634,1,0,0:0:0:0:
256,192,61783,1,0,0:0:0:0:
475,192,62228,1,0,0:0:0:0:
329,192,62302,1,0,0:0:0:0:
182,192,62377,1,0,0:0:0:0:
36,192,62377,1,0,0:0:0:0:
109,192,62674,1,0,0:0:0:0:
109,192,62822,1,0,0:0:0:0:
329,192,62971,1,0,0:0:0:0:
402,192,63194,1,0,0:0:0:0:
329,192,63416,1,0,0:0:0:0:
182,192,63565,1,0,0:0:0:0:
109,192,63788,1,0,0:0:0:0:
182,192,64010,1,0,0:0:0:0:
475,192,64159,1,0,0:0:0:0:
36,192,64604,1,0,0:0:0:0:
182,192,64679,1,0,0:0:0:0:
329,192,64753,1,0,0:0:0:0:
475,192,64753,1,0,0:0:0:0:
402,192,65050,1,0,0:0:0:0:
402,192,65198,1,0,0:0:0:0:
182,192,65347,1,0,0:0:0:0:
109,192,65570,1,0,0:0:0:0:
182,192,65793,1,0,0:0:0:0:
329,192,65941,1,0,0:0:0:0:
109,192,66090,1,0,0:0:0:0:
182,192,66164,1,0,0:0:0:0:
256,192,66238,1,0,0:0:0:0:
329,192,66312,1,0,0:0:0:0:
402,192,66387,1,0,0:0:0:0:
182,192,66535,1,0,0:0:0:0:
256,192,66684,1,0,0:0:0:0:
329,192,66832,1,0,0:0:0:0:
109,192,66981,1,0,0:0:0:0:
256,192,67055,1,0,0:0:0:0:
402,192,67129,1,0,0:0:0:0:
36,192,67129,1,0,0:0:0:0:
182,192,67426,1,0,0:0:0:0:
329,192,67575,1,0,0:0:0:0:
182,192,67723,1,0,0:0:0:0:
109,192,67946,1,0,0:0:0:0:
182,192,68169,1,0,0:0:0:0:
402,192,68317,1,0,0:0:0:0:
475,192,68540,1,0,0:0:0:0:
402,192,68763,1,0,0:0:0:0:
109,192,68911,1,0,0:0:0:0:
109,192,69208,1,0,0:0:0:0:
36,192,69357,1,0,0:0:0:0:
109,192,69431,1,0,0:0:0:0:
256,192,69505,1,0,0:0:0:0:
475,192,69505,1,0,0:0:0:0:
182,192,69802,1,0,0:0:0:0:
402,192,69951,1,0,0:0:0:0:
182,192,70099,1,0,0:0:0:0:
36,192,70322,1,0,0:0:0:0:
182,192,70545,1,0,0:0:0:0:
329,192,70694,1,0,0:0:0:0:
475,192,70916,1,0,0:0:0:0:
329,192,71139,1,0,0:0:0:0:
109,192,71288,1,0,0:0:0:0:
109,192,71585,1,0,0:0:0:0:
182,192,71733,1,0,0:0:0:0:
256,192,71807,1,0,0:0:0:0:
329,192,71882,1,0,0:0:0:0:
475,192,71882,1,0,0:0:0:0:
402,192,72179,1,0,0:0:0:0:
475,192,72327,1,0,0:0:0:0:
402,192,72476,1,0,0:0:0:0:
329,192,72698,1,0,0:0:0:0:
402,192,72921,5,0,0:0:0:0:
36,192,73070,1,0,0:0:0:0:
109,192,73293,1,0,0:0:0:0:
36,192,73515,1,0,0:0:0:0:
182,192,73664,1,0,0:0:0:0:
256,192,73961,5,0,0:0:0:0:
109,192,74109,1,0,0:0:0:0:
182,192,74184,1,0,0:0:0:0:
475,192,74258,1,0,0:0:0:0:
329,192,74258,1,0,0:0:0:0:
36,192,74406,1,0,0:0:0:0:
475,192,74555,1,0,0:0:0:0:
329,192,74555,1,0,0:0:0:0:
109,192,74703,1,0,0:0:0:0:
256,192,74778,1,0,0:0:0:0:
402,192,74852,1,0,0:0:0:0:
36,192,75000,1,0,0:0:0:0:
182,192,75000,1,0,0:0:0:0:
475,192,75149,1,0,0:0:0:0:
36,192,75297,1,0,0:0:0:0:
182,192,75297,1,0,0:0:0:0:
109,192,75446,128,0,75595:0:0:0:0:
402,192,75446,1,0,0:0:0:0:
329,192,75595,1,0,0:0:0:0:
256,192,75669,1,0,0:0:0:0:
182,192,75743,1,0,0:0:0:0:
109,192,75743,1,0,0:0:0:0:
256,192,76040,1,0,0:0:0:0:
329,192,76040,1,0,0:0:0:0:
402,192,76337,1,0,0:0:0:0:
475,192,76337,1,0,0:0:0:0:
256,192,76634,1,0,0:0:0:0:
36,192,76634,1,0,0:0:0:0:
402,192,76634,1,0,0:0:0:0:
109,192,76931,1,0,0:0:0:0:
475,192,76931,1,0,0:0:0:0:
182,192,77080,1,0,0:0:0:0:
256,192,77228,1,0,0:0:0:0:
36,192,77228,1,0,0:0:0:0:
402,192,77451,1,0,0:0:0:0:
109,192,77525,1,0,0:0:0:0:
182,192,77674,1,0,0:0:0:0:
329,192,77822,1,0,0:0:0:0:
475,192,77822,1,0,0:0:0:0:
182,192,78045,1,0,0:0:0:0:
475,192,78119,1,0,0:0:0:0:
256,192,78268,1,0,0:0:0:0:
109,192,78416,1,0,0:0:0:0:
475,192,78416,1,0,0:0:0:0:
329,192,78639,1,0,0:0:0:0:
475,192,78713,1,0,0:0:0:0:
109,192,78862,1,0,0:0:0:0:
256,192,78936,1,0,0:0:0:0:
402,192,79010,1,0,0:0:0:0:
36,192,79010,1,0,0:0:0:0:
109,192,79307,1,0,0:0:0:0:
329,192,79307,1,0,0:0:0:0:
256,192,79456,1,0,0:0:0:0:
402,192,79604,1,0,0:0:0:0:
36,192,79604,1,0,0:0:0:0:
256,192,79827,1,0,0:0:0:0:
36,192,79901,1,0,0:0:0:0:
109,192,80050,1,0,0:0:0:0:
182,192,80198,1,0,0:0:0:0:
402,192,80198,1,0,0:0:0:0:
329,192,80421,1,0,0:0:0:0:
402,192,80495,1,0,0:0:0:0:
182,192,80644,1,0,0:0:0:0:
109,192,80793,1,0,0:0:0:0:
402,192,80793,1,0,0:0:0:0:
475,192,80941,1,0,0:0:0:0:
256,192,81015,1,0,0:0:0:0:
402,192,81090,1,0,0:0:0:0:
182,192,81238,1,0,0:0:0:0:
475,192,81238,1,0,0:0:0:0:
256,192,81312,1,0,0:0:0:0:
329,192,81387,1,0,0:0:0:0:
109,192,81387,1,0,0:0:0:0:
36,192,81387,1,0,0:0:0:0:
256,192,81684,1,0,0:0:0:0:
109,192,81684,1,0,0:0:0:0:
182,192,81832,1,0,0:0:0:0:
256,192,81981,1,0,0:0:0:0:
109,192,81981,1,0,0:0:0:0:
256,192,82203,1,0,0:0:0:0:
109,192,82278,1,0,0:0:0:0:
182,192,82426,1,0,0:0:0:0:
329,192,82575,1,0,0:0:0:0:
109,192,82575,1,0,0:0:0:0:
402,192,82575,1,0,0:0:0:0:
182,192,82797,1,0,0:0:0:0:
402,192,82872,1,0,0:0:0:0:
256,192,83020,1,0,0:0:0:0:
182,192,83169,1,0,0:0:0:0:
402,192,83169,1,0,0:0:0:0:
256,192,83392,1,0,0:0:0:0:
475,192,83466,1,0,0:0:0:0:
329,192,83614,1,0,0:0:0:0:
36,192,83763,1,0,0:0:0:0:
256,192,83763,1,0,0:0:0:0:
182,192,83837,1,0,0:0:0:0:
329,192,83911,1,0,0:0:0:0:
36,192,83986,1,0,0:0:0:0:
182,192,84060,1,0,0:0:0:0:
329,192,84134,1,0,0:0:0:0:
36,192,84208,1,0,0:0:0:0:
182,192,84283,1,0,0:0:0:0:
256,192,84357,1,0,0:0:0:0:
475,192,84357,1,0,0:0:0:0:
329,192,84431,1,0,0:0:0:0:
182,192,84505,1,0,0:0:0:0:
475,192,84580,1,0,0:0:0:0:
329,192,84654,1,0,0:0:0:0:
182,192,84728,1,0,0:0:0:0:
475,192,84802,1,0,0:0:0:0:
329,192,84877,1,0,0:0:0:0:
36,192,84951,1,0,0:0:0:0:
182,192,84951,1,0,0:0:0:0:
109,192,85174,1,0,0:0:0:0:
402,192,85174,1,0,0:0:0:0:
182,192,85396,1,0,0:0:0:0:
329,192,85396,1,0,0:0:0:0:
36,192,85545,1,0,0:0:0:0:
475,192,85545,1,0,0:0:0:0:
329,192,85842,128,0,86139:0:0:0:0:
36,192,86139,1,0,0:0:0:0:
256,192,86139,1,0,0:0:0:0:
402,192,86139,1,0,0:0:0:0:
402,192,86436,1,0,0:0:0:0:
109,192,86436,1,0,0:0:0:0:
182,192,86585,1,0,0:0:0:0:
402,192,86733,1,0,0:0:0:0:
256,192,86733,1,0,0:0:0:0:
182,192,86956,1,0,0:0:0:0:
402,192,87030,1,0,0:0:0:0:
256,192,87179,1,0,0:0:0:0:
109,192,87327,1,0,0:0:0:0:
402,192,87327,1,0,0:0:0:0:
329,192,87550,1,0,0:0:0:0:
109,192,87624,1,0,0:0:0:0:
256,192,87773,1,0,0:0:0:0:
109,192,87921,1,0,0:0:0:0:
182,192,87921,1,0,0:0:0:0:
329,192,88144,1,0,0:0:0:0:
109,192,88218,1,0,0:0:0:0:
182,192,88367,1,0,0:0:0:0:
109,192,88441,1,0,0:0:0:0:
256,192,88515,1,0,0:0:0:0:
36,192,88515,1,0,0:0:0:0:
256,192,88812,1,0,0:0:0:0:
182,192,88812,1,0,0:0:0:0:
402,192,88961,1,0,0:0:0:0:
256,192,89109,1,0,0:0:0:0:
109,192,89109,1,0,0:0:0:0:
329,192,89332,1,0,0:0:0:0:
256,192,89406,1,0,0:0:0:0:
182,192,89555,1,0,0:0:0:0:
329,192,89703,1,0,0:0:0:0:
402,192,89703,1,0,0:0:0:0:
109,192,89703,1,0,0:0:0:0:
256,192,89852,1,0,0:0:0:0:
475,192,89926,1,0,0:0:0:0:
329,192,90000,1,0,0:0:0:0:
256,192,90149,1,0,0:0:0:0:
36,192,90149,1,0,0:0:0:0:
329,192,90297,1,0,0:0:0:0:
402,192,90297,1,0,0:0:0:0:
182,192,90372,1,0,0:0:0:0:
329,192,90520,1,0,0:0:0:0:
109,192,90520,1,0,0:0:0:0:
182,192,90595,1,0,0:0:0:0:
329,192,90743,1,0,0:0:0:0:
256,192,90743,1,0,0:0:0:0:
36,192,90892,1,0,0:0:0:0:
256,192,90991,1,0,0:0:0:0:
109,192,91090,1,0,0:0:0:0:
329,192,91189,1,0,0:0:0:0:
182,192,91288,1,0,0:0:0:0:
402,192,91387,1,0,0:0:0:0:
256,192,91486,1,0,0:0:0:0:
475,192,91585,1,0,0:0:0:0:
182,192,91684,1,0,0:0:0:0:
402,192,91783,1,0,0:0:0:0:
109,192,91882,1,0,0:0:0:0:
329,192,91981,1,0,0:0:0:0:
36,192,92080,1,0,0:0:0:0:
402,192,92179,1,0,0:0:0:0:
36,192,92278,1,0,0:0:0:0:
475,192,92377,1,0,0:0:0:0:
109,192,92476,1,0,0:0:0:0:
475,192,92575,1,0,0:0:0:0:
256,192,92674,128,0,93268:0:0:0:0:
182,192,93268,1,0,0:0:0:0:
329,192,93342,1,0,0:0:0:0:
109,192,93416,1,0,0:0:0:0:
402,192,93491,1,0,0:0:0:0:
182,192,93565,1,0,0:0:0:0:
329,192,93639,1,0,0:0:0:0:
109,192,93713,1,0,0:0:0:0:
402,192,93788,1,0,0:0:0:0:
256,192,93862,1,0,0:0:0:0:
475,192,94010,1,0,0:0:0:0:
402,192,94047,1,0,0:0:0:0:
329,192,94085,1,0,0:0:0:0:
256,192,94122,1,0,0:0:0:0:
182,192,94159,1,0,0:0:0:0:
36,192,94307,1,0,0:0:0:0:
109,192,94345,1,0,0:0:0:0:
182,192,94382,1,0,0:0:0:0:
256,192,94419,1,0,0:0:0:0:
329,192,94456,1,0,0:0:0:0:
475,192,94456,1,0,0:0:0:0:
402,192,94679,1,0,0:0:0:0:
256,192,94679,1,0,0:0:0:0:
329,192,94901,1,0,0:0:0:0:
182,192,94901,1,0,0:0:0:0:
402,192,95050,1,0,0:0:0:0:
109,192,95050,1,0,0:0:0:0:
182,192,95347,128,0,95644:0:0:0:0:
36,192,95644,1,0,0:0:0:0:
475,192,95644,1,0,0:0:0:0:
256,192,95644,1,0,0:0:0:0:
402,192,95941,1,0,0:0:0:0:
36,192,96090,1,0,0:0:0:0:
256,192,96090,1,0,0:0:0:0:
329,192,96164,1,0,0:0:0:0:
402,192,96238,1,0,0:0:0:0:
182,192,96387,1,0,0:0:0:0:
36,192,96535,1,0,0:0:0:0:
329,192,96684,1,0,0:0:0:0:
402,192,96832,1,0,0:0:0:0:
36,192,96981,1,0,0:0:0:0:
256,192,96981,1,0,0:0:0:0:
329,192,97129,1,0,0:0:0:0:
182,192,97278,1,0,0:0:0:0:
256,192,97352,1,0,0:0:0:0:
36,192,97426,1,0,0:0:0:0:
329,192,97426,1,0,0:0:0:0:
402,192,97575,1,0,0:0:0:0:
109,192,97723,1,0,0:0:0:0:
256,192,97723,1,0,0:0:0:0:
329,192,97872,1,0,0:0:0:0:
475,192,98020,1,0,0:0:0:0:
402,192,98095,1,0,0:0:0:0:
329,192,98169,1,0,0:0:0:0:
36,192,98243,1,0,0:0:0:0:
182,192,98317,1,0,0:0:0:0:
475,192,98392,1,0,0:0:0:0:
402,192,98466,1,0,0:0:0:0:
329,192,98540,1,0,0:0:0:0:
36,192,98614,1,0,0:0:0:0:
182,192,98689,1,0,0:0:0:0:
475,192,98763,1,0,0:0:0:0:
402,192,98837,1,0,0:0:0:0:
329,192,98911,1,0,0:0:0:0:
36,192,98986,1,0,0:0:0:0:
182,192,99060,1,0,0:0:0:0:
475,192,99134,1,0,0:0:0:0:
36,192,99208,1,0,0:0:0:0:
109,192,99283,1,0,0:0:0:0:
182,192,99357,1,0,0:0:0:0:
475,192,99431,1,0,0:0:0:0:
329,192,99505,1,0,0:0:0:0:
36,192,99580,1,0,0:0:0:0:
109,192,99654,1,0,0:0:0:0:
182,192,99728,1,0,0:0:0:0:
475,192,99802,1,0,0:0:0:0:
329,192,99877,1,0,0:0:0:0:
36,192,99951,1,0,0:0:0:0:
109,192,100025,1,0,0:0:0:0:
182,192,100099,1,0,0:0:0:0:
475,192,100174,1,0,0:0:0:0:
329,192,100248,1,0,0:0:0:0:
182,192,100322,1,0,0:0:0:0:
402,192,100396,1,0,0:0:0:0:
36,192,100396,1,0,0:0:0:0:
256,192,100694,1,0,0:0:0:0:
329,192,100842,1,0,0:0:0:0:
36,192,100842,1,0,0:0:0:0:
109,192,100916,1,0,0:0:0:0:
182,192,100991,1,0,0:0:0:0:
402,192,101139,1,0,0:0:0:0:
329,192,101288,1,0,0:0:0:0:
402,192,101436,1,0,0:0:0:0:
256,192,101585,1,0,0:0:0:0:
109,192,101585,1,0,0:0:0:0:
329,192,101733,1,0,0:0:0:0:
182,192,101733,1,0,0:0:0:0:
36,192,101882,1,0,0:0:0:0:
256,192,102030,1,0,0:0:0:0:
182,192,102104,1,0,0:0:0:0:
329,192,102179,1,0,0:0:0:0:
109,192,102179,1,0,0:0:0:0:
256,192,102327,1,0,0:0:0:0:
402,192,102476,1,0,0:0:0:0:
182,192,102476,1,0,0:0:0:0:
256,192,102624,1,0,0:0:0:0:
475,192,102773,1,0,0:0:0:0:
329,192,102847,1,0,0:0:0:0:
36,192,102921,1,0,0:0:0:0:
182,192,102995,1,0,0:0:0:0:
329,192,103070,1,0,0:0:0:0:
475,192,103144,1,0,0:0:0:0:
182,192,103218,1,0,0:0:0:0:
36,192,103293,1,0,0:0:0:0:
402,192,103367,1,0,0:0:0:0:
256,192,103441,1,0,0:0:0:0:
109,192,103515,1,0,0:0:0:0:
475,192,103590,1,0,0:0:0:0:
329,192,103664,1,0,0:0:0:0:
182,192,103738,1,0,0:0:0:0:
36,192,103812,1,0,0:0:0:0:
256,192,103887,1,0,0:0:0:0:
36,192,103961,1,0,0:0:0:0:
402,192,103961,1,0,0:0:0:0:
475,192,103961,128,0,104109:0:0:0:0:
109,192,104035,1,0,0:0:0:0:
182,192,104109,1,0,0:0:0:0:
256,192,104184,1,0,0:0:0:0:
329,192,104258,1,0,0:0:0:0:
402,192,104258,1,0,0:0:0:0:
256,192,104555,1,0,0:0:0:0:
329,192,104555,1,0,0:0:0:0:
256,192,104852,1,0,0:0:0:0:
182,192,104852,1,0,0:0:0:0:
182,192,105149,1,0,0:0:0:0:
109,192,105149,1,0,0:0:0:0:
402,192,105223,1,0,0:0:0:0:
36,192,105297,1,0,0:0:0:0:
329,192,105372,1,0,0:0:0:0:
182,192,105446,1,0,0:0:0:0:
475,192,105520,1,0,0:0:0:0:
109,192,105595,1,0,0:0:0:0:
329,192,105669,1,0,0:0:0:0:
36,192,105743,1,0,0:0:0:0:
402,192,105817,1,0,0:0:0:0:
182,192,105892,1,0,0:0:0:0:
329,192,105966,1,0,0:0:0:0:
109,192,106040,1,0,0:0:0:0:
475,192,106114,1,0,0:0:0:0:
36,192,106189,1,0,0:0:0:0:
402,192,106263,1,0,0:0:0:0:
109,192,106337,1,0,0:0:0:0:
329,192,106411,1,0,0:0:0:0:
182,192,106486,1,0,0:0:0:0:
475,192,106560,1,0,0:0:0:0:
36,192,106634,1,0,0:0:0:0:
329,192,106708,1,0,0:0:0:0:
109,192,106783,1,0,0:0:0:0:
402,192,106857,1,0,0:0:0:0:
182,192,106931,1,0,0:0:0:0:
475,192,107005,1,0,0:0:0:0:
109,192,107080,1,0,0:0:0:0:
329,192,107154,1,0,0:0:0:0:
36,192,107228,1,0,0:0:0:0:
475,192,107302,1,0,0:0:0:0:
182,192,107377,1,0,0:0:0:0:
329,192,107451,1,0,0:0:0:0:
109,192,107525,1,0,0:0:0:0:
402,192,107599,1,0,0:0:0:0:
36,192,107674,1,0,0:0:0:0:
475,192,107748,1,0,0:0:0:0:
182,192,107822,1,0,0:0:0:0:
329,192,107896,1,0,0:0:0:0:
109,192,107971,1,0,0:0:0:0:
402,192,108045,1,0,0:0:0:0:
182,192,108119,1,0,0:0:0:0:
329,192,108194,1,0,0:0:0:0:
36,192,108268,1,0,0:0:0:0:
475,192,108342,1,0,0:0:0:0:
109,192,108416,1,0,0:0:0:0:
329,192,108491,1,0,0:0:0:0:
182,192,108565,1,0,0:0:0:0:
402,192,108639,1,0,0:0:0:0:
36,192,108713,1,0,0:0:0:0:
475,192,108812,1,0,0:0:0:0:
36,192,108911,1,0,0:0:0:0:
402,192,109010,1,0,0:0:0:0:
109,192,109109,1,0,0:0:0:0:
402,192,109208,1,0,0:0:0:0:
182,192,109307,1,0,0:0:0:0:
329,192,109406,1,0,0:0:0:0:
182,192,109505,1,0,0:0:0:0:
402,192,109604,1,0,0:0:0:0:
109,192,109703,1,0,0:0:0:0:
402,192,109802,1,0,0:0:0:0:
36,192,109901,1,0,0:0:0:0:
329,192,109976,1,0,0:0:0:0:
182,192,110050,1,0,0:0:0:0:
402,192,110124,1,0,0:0:0:0:
36,192,110198,1,0,0:0:0:0:
475,192,110273,1,0,0:0:0:0:
182,192,110347,1,0,0:0:0:0:
402,192,110421,1,0,0:0:0:0:
36,192,110495,1,0,0:0:0:0:
329,192,110570,1,0,0:0:0:0:
182,192,110644,1,0,0:0:0:0:
402,192,110718,1,0,0:0:0:0:
36,192,110793,1,0,0:0:0:0:
475,192,110867,1,0,0:0:0:0:
182,192,110941,1,0,0:0:0:0:
256,192,111015,1,0,0:0:0:0:
329,192,111090,1,0,0:0:0:0:
36,192,111164,1,0,0:0:0:0:
475,192,111238,1,0,0:0:0:0:
109,192,111312,1,0,0:0:0:0:
329,192,111387,1,0,0:0:0:0:
182,192,111461,1,0,0:0:0:0:
475,192,111535,1,0,0:0:0:0:
109,192,111609,1,0,0:0:0:0:
329,192,111684,1,0,0:0:0:0:
36,192,111758,1,0,0:0:0:0:
475,192,111832,1,0,0:0:0:0:
109,192,111906,1,0,0:0:0:0:
329,192,111981,1,0,0:0:0:0:
182,192,112055,1,0,0:0:0:0:
475,192,112129,1,0,0:0:0:0:
109,192,112203,1,0,0:0:0:0:
329,192,112278,1,0,0:0:0:0:
182,192,112352,1,0,0:0:0:0:
402,192,112426,1,0,0:0:0:0:
109,192,112500,1,0,0:0:0:0:
475,192,112575,1,0,0:0:0:0:
329,192,112649,1,0,0:0:0:0:
182,192,112723,1,0,0:0:0:0:
36,192,112797,1,0,0:0:0:0:
402,192,112872,1,0,0:0:0:0:
36,192,113020,1,0,0:0:0:0:
109,192,113057,1,0,0:0:0:0:
182,192,113095,1,0,0:0:0:0:
256,192,113132,1,0,0:0:0:0:
329,192,113169,1,0,0:0:0:0:
475,192,113317,1,0,0:0:0:0:
402,192,113354,1,0,0:0:0:0:
329,192,113392,1,0,0:0:0:0:
256,192,113429,1,0,0:0:0:0:
182,192,113466,1,0,0:0:0:0:
475,192,113540,1,0,0:0:0:0:
329,192,113614,1,0,0:0:0:0:
182,192,113689,1,0,0:0:0:0:
36,192,113763,1,0,0:0:0:0:
402,192,113837,1,0,0:0:0:0:
256,192,113911,1,0,0:0:0:0:
109,192,113986,1,0,0:0:0:0:
475,192,114060,1,0,0:0:0:0:
329,192,114134,1,0,0:0:0:0:
182,192,114208,1,0,0:0:0:0:
36,192,114283,1,0,0:0:0:0:
402,192,114357,1,0,0:0:0:0:
256,192,114431,1,0,0:0:0:0:
109,192,114505,1,0,0:0:0:0:
329,192,114580,1,0,0:0:0:0:
36,192,114654,1,0,0:0:0:0:
182,192,114654,1,0,0:0:0:0:
402,192,114802,1,0,0:0:0:0:
475,192,114877,1,0,0:0:0:0:
402,192,114951,1,0,0:0:0:0:
36,192,115099,1,0,0:0:0:0:
182,192,115099,1,0,0:0:0:0:
475,192,115248,1,0,0:0:0:0:
402,192,115322,1,0,0:0:0:0:
475,192,115396,1,0,0:0:0:0:
182,192,115545,1,0,0:0:0:0:
36,192,115545,1,0,0:0:0:0:
182,192,116733,5,0,0:0:0:0:
182,192,116882,1,0,0:0:0:0:
329,192,117030,1,0,0:0:0:0:
475,192,117030,1,0,0:0:0:0:
182,192,117179,1,0,0:0:0:0:
36,192,117253,1,0,0:0:0:0:
182,192,117327,1,0,0:0:0:0:
475,192,117476,1,0,0:0:0:0:
329,192,117476,1,0,0:0:0:0:
36,192,117624,1,0,0:0:0:0:
182,192,117698,1,0,0:0:0:0:
36,192,117773,1,0,0:0:0:0:
475,192,117921,1,0,0:0:0:0:
329,192,117921,1,0,0:0:0:0:
256,192,119109,1,0,0:0:0:0:
256,192,119258,1,0,0:0:0:0:
329,192,119406,1,0,0:0:0:0:
475,192,119406,1,0,0:0:0:0:
109,192,119555,1,0,0:0:0:0:
36,192,119629,1,0,0:0:0:0:
109,192,119703,1,0,0:0:0:0:
329,192,119852,1,0,0:0:0:0:
475,192,119852,1,0,0:0:0:0:
36,192,120000,1,0,0:0:0:0:
109,192,120075,1,0,0:0:0:0:
36,192,120149,1,0,0:0:0:0:
475,192,120297,1,0,0:0:0:0:
329,192,120297,1,0,0:0:0:0:
329,192,121486,5,0,0:0:0:0:
329,192,121634,1,0,0:0:0:0:
36,192,121783,1,0,0:0:0:0:
182,192,121783,1,0,0:0:0:0:
329,192,121931,1,0,0:0:0:0:
475,192,122005,1,0,0:0:0:0:
329,192,122080,1,0,0:0:0:0:
36,192,122228,1,0,0:0:0:0:
182,192,122228,1,0,0:0:0:0:
475,192,122377,1,0,0:0:0:0:
329,192,122451,1,0,0:0:0:0:
475,192,122525,1,0,0:0:0:0:
36,192,122674,1,0,0:0:0:0:
182,192,122674,1,0,0:0:0:0:
