osu file format v14

[General]
AudioFilename: PUPA.mp3
AudioLeadIn: 0
PreviewTime: 76487
Countdown: 0
SampleSet: Soft
StackLeniency: 0.7
Mode: 3
LetterboxInBreaks: 0
SpecialStyle: 0
WidescreenStoryboard: 0

[Editor]
Bookmarks: 10099,19604,29109,38614,48119,57624,67129,76634,86139,95644,105149,114654
DistanceSpacing: 1.7
BeatDivisor: 2
GridSize: 32
TimelineZoom: 1.1

[Metadata]
Title:PUPA
TitleUnicode:PUPA
Artist:Morimori Atsushi
ArtistUnicode:モリモリあつし
Creator:Rilene
Version:7K Beginner
Source:BMS
Tags:g2r2014 GO BACK 2 YOUR ROOTS HARD RENAISSANCE Re:no subject Naryuga
BeatmapID:698617
BeatmapSetID:312902

[Difficulty]
HPDrainRate:6
CircleSize:7
OverallDifficulty:6
ApproachRate:5
SliderMultiplier:1.4
SliderTickRate:1

[Events]
//Background and Video events
0,0,"bg.png",0,0
//Break Periods
//Storyboard Layer 0 (Background)
//Storyboard Layer 1 (Fail)
//Storyboard Layer 2 (Pass)
//Storyboard Layer 3 (Foreground)
//Storyboard Sound Samples

[TimingPoints]
595,297.029702970297,4,2,0,20,1,0
76634,-100,4,2,0,20,0,1
84951,-100,4,2,0,20,0,0
86139,-100,4,2,0,20,0,1
94456,-100,4,2,0,20,0,0
105149,-100,4,2,0,20,0,1
114654,-100,4,2,0,20,0,0

[HitObjects]
36,192,595,5,0,0:0:0:0:
256,192,1040,1,0,0:0:0:0:
475,192,1486,1,0,0:0:0:0:
475,192,2971,1,0,0:0:0:0:
256,192,3416,1,0,0:0:0:0:
36,192,3862,1,0,0:0:0:0:
109,192,5347,1,0,0:0:0:0:
256,192,5793,1,0,0:0:0:0:
402,192,6238,1,0,0:0:0:0:
402,192,7723,1,0,0:0:0:0:
256,192,8169,1,0,0:0:0:0:
109,192,8614,1,0,0:0:0:0:
182,192,10099,1,0,0:0:0:0:
329,192,11288,1,0,0:0:0:0:
475,192,12476,1,0,0:0:0:0:
36,192,13664,1,0,0:0:0:0:
329,192,14852,1,0,0:0:0:0:
109,192,16040,1,0,0:0:0:0:
402,192,17228,1,0,0:0:0:0:
256,192,18119,1,0,0:0:0:0:
402,192,19010,128,0,19604:0:0:0:0:
182,192,19604,1,0,0:0:0:0:
256,192,20198,1,0,0:0:0:0:
109,192,20793,1,0,0:0:0:0:
256,192,21387,1,0,0:0:0:0:
36,192,21981,1,0,0:0:0:0:
329,192,22575,1,0,0:0:0:0:
109,192,23169,1,0,0:0:0:0:
402,192,23763,1,0,0:0:0:0:
256,192,24357,1,0,0:0:0:0:
475,192,24951,1,0,0:0:0:0:
109,192,25545,1,0,0:0:0:0:
256,192,26139,1,0,0:0:0:0:
182,192,26733,1,0,0:0:0:0:
329,192,27327,1,0,0:0:0:0:
36,192,27921,1,0,0:0:0:0:
329,192,28515,1,0,0:0:0:0:
182,192,29109,1,0,0:0:0:0:
256,192,29406,1,0,0:0:0:0:
329,192,30000,1,0,0:0:0:0:
109,192,30595,1,0,0:0:0:0:
402,192,31189,1,0,0:0:0:0:
182,192,31783,1,0,0:0:0:0:
475,192,32377,1,0,0:0:0:0:
329,192,32971,1,0,0:0:0:0:
109,192,33565,1,0,0:0:0:0:
329,192,33862,128,0,35050:0:0:0:0:
182,192,35050,128,0,36238:0:0:0:0:
256,192,36238,1,0,0:0:0:0:
182,192,37426,128,0,38614:0:0:0:0:
256,192,38614,128,0,40248:0:0:0:0:
182,192,40991,128,0,42773:0:0:0:0:
329,192,42773,1,0,0:0:0:0:
402,192,43367,128,0,45149:0:0:0:0:
109,192,45743,128,0,47525:0:0:0:0:
256,192,47525,1,0,0:0:0:0:
329,192,48119,1,0,0:0:0:0:
182,192,48713,1,0,0:0:0:0:
402,192,49307,1,0,0:0:0:0:
109,192,49901,1,0,0:0:0:0:
256,192,50198,1,0,0:0:0:0:
402,192,50495,1,0,0:0:0:0:
109,192,51090,1,0,0:0:0:0:
256,192,51684,1,0,0:0:0:0:
36,192,52278,1,0,0:0:0:0:
182,192,52575,1,0,0:0:0:0:
329,192,52872,1,0,0:0:0:0:
109,192,53466,1,0,0:0:0:0:
402,192,54060,1,0,0:0:0:0:
182,192,54654,1,0,0:0:0:0:
329,192,54951,1,0,0:0:0:0:
182,192,55248,128,0,56288:0:0:0:0:
329,192,56288,1,0,0:0:0:0:
182,192,57624,1,0,0:0:0:0:
256,192,58812,1,0,0:0:0:0:
329,192,60000,1,0,0:0:0:0:
109,192,61189,1,0,0:0:0:0:
256,192,62377,1,0,0:0:0:0:
475,192,63565,1,0,0:0:0:0:
36,192,64753,1,0,0:0:0:0:
256,192,65941,1,0,0:0:0:0:
475,192,67129,1,0,0:0:0:0:
36,192,69505,1,0,0:0:0:0:
402,192,71882,1,0,0:0:0:0:
109,192,73070,1,0,0:0:0:0:
402,192,74258,1,0,0:0:0:0:
256,192,74852,1,0,0:0:0:0:
109,192,75446,1,0,0:0:0:0:
109,192,76634,1,0,0:0:0:0:
329,192,76931,1,0,0:0:0:0:
182,192,77525,1,0,0:0:0:0:
475,192,78119,1,0,0:0:0:0:
329,192,78713,1,0,0:0:0:0:
182,192,79307,1,0,0:0:0:0:
36,192,79901,1,0,0:0:0:0:
256,192,80495,1,0,0:0:0:0:
109,192,81090,1,0,0:0:0:0:
182,192,81387,1,0,0:0:0:0:
402,192,81684,1,0,0:0:0:0:
256,192,82278,1,0,0:0:0:0:
36,192,82575,1,0,0:0:0:0:
402,192,82872,1,0,0:0:0:0:
109,192,83466,1,0,0:0:0:0:
402,192,83763,1,0,0:0:0:0:
256,192,84060,1,0,0:0:0:0:
182,192,84357,1,0,0:0:0:0:
402,192,84654,1,0,0:0:0:0:
36,192,84951,1,0,0:0:0:0:
256,192,86139,1,0,0:0:0:0:
329,192,86436,1,0,0:0:0:0:
109,192,87030,1,0,0:0:0:0:
402,192,87624,1,0,0:0:0:0:
182,192,88218,1,0,0:0:0:0:
36,192,88515,1,0,0:0:0:0:
475,192,88812,1,0,0:0:0:0:
182,192,89406,1,0,0:0:0:0:
329,192,89703,1,0,0:0:0:0:
109,192,90000,1,0,0:0:0:0:
256,192,90297,1,0,0:0:0:0:
402,192,90595,1,0,0:0:0:0:
182,192,90892,128,0,92674:0:0:0:0:
256,192,93268,128,0,94456:0:0:0:0:
402,192,94456,1,0,0:0:0:0:
182,192,95644,1,0,0:0:0:0:
329,192,96090,1,0,0:0:0:0:
182,192,96535,1,0,0:0:0:0:
329,192,96981,1,0,0:0:0:0:
109,192,97426,1,0,0:0:0:0:
402,192,97723,1,0,0:0:0:0:
36,192,98020,1,0,0:0:0:0:
475,192,98466,1,0,0:0:0:0:
36,192,98911,1,0,0:0:0:0:
475,192,99357,1,0,0:0:0:0:
109,192,99802,1,0,0:0:0:0:
402,192,100099,1,0,0:0:0:0:
182,192,100396,1,0,0:0:0:0:
256,192,100842,1,0,0:0:0:0:
329,192,101288,1,0,0:0:0:0:
402,192,101733,1,0,0:0:0:0:
475,192,102179,1,0,0:0:0:0:
329,192,102476,1,0,0:0:0:0:
182,192,102773,1,0,0:0:0:0:
109,192,103218,1,0,0:0:0:0:
36,192,103664,1,0,0:0:0:0:
256,192,103961,1,0,0:0:0:0:
182,192,105149,1,0,0:0:0:0:
329,192,105743,1,0,0:0:0:0:
109,192,106337,1,0,0:0:0:0:
402,192,106931,1,0,0:0:0:0:
36,192,107525,1,0,0:0:0:0:
475,192,108119,1,0,0:0:0:0:
36,192,108713,128,0,109901:0:0:0:0:
329,192,109901,1,0,0:0:0:0:
36,192,110495,1,0,0:0:0:0:
402,192,111090,1,0,0:0:0:0:
182,192,111684,1,0,0:0:0:0:
329,192,112278,1,0,0:0:0:0:
109,192,112872,1,0,0:0:0:0:
256,192,113466,1,0,0:0:0:0:
475,192,114654,5,0,0:0:0:0:
256,192,115099,1,0,0:0:0:0:
36,192,115545,1,0,0:0:0:0:
36,192,117030,1,0,0:0:0:0:
256,192,117476,1,0,0:0:0:0:
475,192,117921,1,0,0:0:0:0:
402,192,119406,1,0,0:0:0:0:
256,192,119852,1,0,0:0:0:0:
109,192,120297,1,0,0:0:0:0:
109,192,121783,1,0,0:0:0:0:
256,192,122228,1,0,0:0:0:0:
402,192,122674,1,0,0:0:0:0:
