osu file format v14

[General]
AudioFilename: PUPA.mp3
AudioLeadIn: 0
PreviewTime: 76487
Countdown: 0
SampleSet: Soft
StackLeniency: 0.7
Mode: 3
LetterboxInBreaks: 0
SpecialStyle: 0
WidescreenStoryboard: 1

[Editor]
Bookmarks: 10099,19604,29109,38614,48119,57624,67129,76634,86139,95644,105149,114654
DistanceSpacing: 1.7
BeatDivisor: 2
GridSize: 32
TimelineZoom: 1.8

[Metadata]
Title:PUPA
TitleUnicode:PUPA
Artist:Morimori Atsushi
ArtistUnicode:モリモリあつし
Creator:Rilene
Version:4K Normal
Source:BMS
Tags:g2r2014 GO BACK 2 YOUR ROOTS HARD RENAISSANCE Re:no subject Naryuga
BeatmapID:797551
BeatmapSetID:312902

[Difficulty]
HPDrainRate:7
CircleSize:4
OverallDifficulty:7
ApproachRate:5
SliderMultiplier:1.4
SliderTickRate:1

[Events]
//Background and Video events
0,0,"bg.png",0,0
//Break Periods
//Storyboard Layer 0 (Background)
//Storyboard Layer 1 (Fail)
//Storyboard Layer 2 (Pass)
//Storyboard Layer 3 (Foreground)
//Storyboard Sound Samples

[TimingPoints]
595,297.029702970297,4,2,0,20,1,0
76634,-100,4,2,0,20,0,1
84951,-100,4,2,0,20,0,0
86139,-100,4,2,0,20,0,1
95644,-100,4,2,0,20,0,0
105149,-100,4,2,0,20,0,1
114654,-100,4,2,0,20,0,0

[HitObjects]
64,192,595,5,0,0:0:0:0:
192,192,595,1,0,0:0:0:0:
320,192,1040,1,0,0:0:0:0:
448,192,1040,1,0,0:0:0:0:
64,192,1486,1,0,0:0:0:0:
192,192,1486,1,0,0:0:0:0:
192,192,2971,1,0,0:0:0:0:
320,192,2971,1,0,0:0:0:0:
64,192,3416,1,0,0:0:0:0:
448,192,3416,1,0,0:0:0:0:
192,192,3862,1,0,0:0:0:0:
320,192,3862,1,0,0:0:0:0:
192,192,5347,1,0,0:0:0:0:
448,192,5347,1,0,0:0:0:0:
320,192,5793,1,0,0:0:0:0:
64,192,5793,1,0,0:0:0:0:
192,192,6238,1,0,0:0:0:0:
448,192,6238,1,0,0:0:0:0:
64,192,7723,1,0,0:0:0:0:
448,192,7723,1,0,0:0:0:0:
192,192,8169,1,0,0:0:0:0:
320,192,8169,1,0,0:0:0:0:
64,192,8614,1,0,0:0:0:0:
448,192,8614,1,0,0:0:0:0:
320,192,9802,1,0,0:0:0:0:
64,192,10099,1,0,0:0:0:0:
320,192,10545,1,0,0:0:0:0:
192,192,11288,1,0,0:0:0:0:
448,192,11733,1,0,0:0:0:0:
320,192,12476,1,0,0:0:0:0:
64,192,12921,1,0,0:0:0:0:
448,192,13664,1,0,0:0:0:0:
64,192,13812,1,0,0:0:0:0:
192,192,14109,1,0,0:0:0:0:
192,192,14852,1,0,0:0:0:0:
448,192,15297,1,0,0:0:0:0:
64,192,16040,1,0,0:0:0:0:
192,192,16486,1,0,0:0:0:0:
320,192,17228,1,0,0:0:0:0:
320,192,18119,1,0,0:0:0:0:
192,192,18268,128,0,19010:0:0:0:0:
320,192,19010,128,0,19604:0:0:0:0:
64,192,19604,1,0,0:0:0:0:
448,192,19901,1,0,0:0:0:0:
192,192,20198,1,0,0:0:0:0:
448,192,20495,1,0,0:0:0:0:
64,192,20793,1,0,0:0:0:0:
320,192,21090,1,0,0:0:0:0:
192,192,21387,1,0,0:0:0:0:
448,192,21684,1,0,0:0:0:0:
192,192,21981,1,0,0:0:0:0:
320,192,22278,1,0,0:0:0:0:
64,192,22575,1,0,0:0:0:0:
448,192,22872,1,0,0:0:0:0:
192,192,23169,1,0,0:0:0:0:
448,192,23466,1,0,0:0:0:0:
192,192,23763,1,0,0:0:0:0:
64,192,24060,1,0,0:0:0:0:
320,192,24357,1,0,0:0:0:0:
192,192,24654,1,0,0:0:0:0:
448,192,24951,1,0,0:0:0:0:
64,192,25248,1,0,0:0:0:0:
320,192,25545,1,0,0:0:0:0:
192,192,25842,1,0,0:0:0:0:
448,192,26139,1,0,0:0:0:0:
64,192,26436,1,0,0:0:0:0:
320,192,26733,1,0,0:0:0:0:
192,192,27030,1,0,0:0:0:0:
448,192,27327,1,0,0:0:0:0:
64,192,27624,1,0,0:0:0:0:
320,192,27921,1,0,0:0:0:0:
192,192,28218,1,0,0:0:0:0:
448,192,28515,1,0,0:0:0:0:
64,192,28738,1,0,0:0:0:0:
320,192,28961,1,0,0:0:0:0:
192,192,29109,1,0,0:0:0:0:
320,192,29406,1,0,0:0:0:0:
64,192,29703,1,0,0:0:0:0:
192,192,30000,1,0,0:0:0:0:
320,192,30297,1,0,0:0:0:0:
448,192,30595,1,0,0:0:0:0:
192,192,30892,1,0,0:0:0:0:
320,192,31189,1,0,0:0:0:0:
64,192,31486,1,0,0:0:0:0:
192,192,31783,1,0,0:0:0:0:
448,192,32080,1,0,0:0:0:0:
320,192,32377,1,0,0:0:0:0:
192,192,32674,1,0,0:0:0:0:
64,192,32971,1,0,0:0:0:0:
320,192,33268,1,0,0:0:0:0:
192,192,33491,1,0,0:0:0:0:
320,192,33713,1,0,0:0:0:0:
64,192,33862,1,0,0:0:0:0:
320,192,34159,1,0,0:0:0:0:
192,192,34456,1,0,0:0:0:0:
448,192,34753,1,0,0:0:0:0:
320,192,35050,1,0,0:0:0:0:
64,192,35347,1,0,0:0:0:0:
448,192,35644,1,0,0:0:0:0:
192,192,35941,1,0,0:0:0:0:
320,192,36238,1,0,0:0:0:0:
192,192,36535,1,0,0:0:0:0:
320,192,36684,1,0,0:0:0:0:
192,192,36981,1,0,0:0:0:0:
320,192,37278,1,0,0:0:0:0:
192,192,37426,1,0,0:0:0:0:
448,192,37723,1,0,0:0:0:0:
64,192,38020,1,0,0:0:0:0:
192,192,38243,1,0,0:0:0:0:
320,192,38466,1,0,0:0:0:0:
64,192,38614,1,0,0:0:0:0:
448,192,38763,1,0,0:0:0:0:
192,192,39060,1,0,0:0:0:0:
192,192,39505,1,0,0:0:0:0:
192,192,39951,1,0,0:0:0:0:
320,192,40991,1,0,0:0:0:0:
64,192,41139,1,0,0:0:0:0:
192,192,41436,1,0,0:0:0:0:
192,192,41882,1,0,0:0:0:0:
192,192,42327,1,0,0:0:0:0:
192,192,42773,1,0,0:0:0:0:
320,192,42921,1,0,0:0:0:0:
192,192,43367,1,0,0:0:0:0:
448,192,43515,1,0,0:0:0:0:
64,192,43812,1,0,0:0:0:0:
64,192,44258,1,0,0:0:0:0:
64,192,44703,1,0,0:0:0:0:
320,192,45149,1,0,0:0:0:0:
448,192,45743,1,0,0:0:0:0:
64,192,45892,1,0,0:0:0:0:
320,192,46189,1,0,0:0:0:0:
320,192,46634,1,0,0:0:0:0:
320,192,47080,1,0,0:0:0:0:
320,192,47525,1,0,0:0:0:0:
192,192,47674,1,0,0:0:0:0:
64,192,48119,1,0,0:0:0:0:
320,192,48565,1,0,0:0:0:0:
192,192,49010,1,0,0:0:0:0:
448,192,49456,1,0,0:0:0:0:
320,192,49901,1,0,0:0:0:0:
192,192,50198,1,0,0:0:0:0:
64,192,50495,1,0,0:0:0:0:
320,192,50941,1,0,0:0:0:0:
64,192,51387,1,0,0:0:0:0:
320,192,51832,1,0,0:0:0:0:
320,192,52278,1,0,0:0:0:0:
192,192,52575,1,0,0:0:0:0:
64,192,52872,1,0,0:0:0:0:
448,192,53317,1,0,0:0:0:0:
192,192,53763,1,0,0:0:0:0:
320,192,54208,1,0,0:0:0:0:
64,192,54654,1,0,0:0:0:0:
448,192,54951,1,0,0:0:0:0:
192,192,55248,1,0,0:0:0:0:
320,192,55545,1,0,0:0:0:0:
64,192,55842,1,0,0:0:0:0:
192,192,56139,1,0,0:0:0:0:
320,192,56288,1,0,0:0:0:0:
64,192,56585,1,0,0:0:0:0:
192,192,56733,1,0,0:0:0:0:
320,192,56882,1,0,0:0:0:0:
448,192,57030,1,0,0:0:0:0:
448,192,57327,1,0,0:0:0:0:
192,192,57624,1,0,0:0:0:0:
320,192,58812,1,0,0:0:0:0:
64,192,60000,1,0,0:0:0:0:
320,192,61189,1,0,0:0:0:0:
448,192,62377,5,0,0:0:0:0:
192,192,63565,1,0,0:0:0:0:
320,192,64753,1,0,0:0:0:0:
64,192,65941,1,0,0:0:0:0:
192,192,66238,1,0,0:0:0:0:
320,192,66535,1,0,0:0:0:0:
448,192,66832,1,0,0:0:0:0:
64,192,67129,1,0,0:0:0:0:
320,192,67129,128,0,69505:0:0:0:0:
192,192,67723,1,0,0:0:0:0:
448,192,68317,1,0,0:0:0:0:
64,192,68911,1,0,0:0:0:0:
192,192,69505,128,0,71882:0:0:0:0:
448,192,69505,1,0,0:0:0:0:
64,192,70099,1,0,0:0:0:0:
448,192,70694,1,0,0:0:0:0:
320,192,71288,1,0,0:0:0:0:
448,192,71882,128,0,74258:0:0:0:0:
64,192,71882,1,0,0:0:0:0:
320,192,72476,1,0,0:0:0:0:
64,192,72773,1,0,0:0:0:0:
192,192,72921,1,0,0:0:0:0:
320,192,73070,1,0,0:0:0:0:
64,192,73664,1,0,0:0:0:0:
320,192,73961,1,0,0:0:0:0:
192,192,74109,1,0,0:0:0:0:
64,192,74258,1,0,0:0:0:0:
320,192,74406,1,0,0:0:0:0:
192,192,74555,1,0,0:0:0:0:
448,192,74703,1,0,0:0:0:0:
64,192,74852,1,0,0:0:0:0:
320,192,75000,1,0,0:0:0:0:
192,192,75149,1,0,0:0:0:0:
448,192,75297,1,0,0:0:0:0:
320,192,75446,1,0,0:0:0:0:
64,192,75446,128,0,75743:0:0:0:0:
192,192,75743,1,0,0:0:0:0:
320,192,76040,1,0,0:0:0:0:
448,192,76337,1,0,0:0:0:0:
192,192,76634,1,0,0:0:0:0:
64,192,76634,1,0,0:0:0:0:
320,192,76931,1,0,0:0:0:0:
64,192,77228,1,0,0:0:0:0:
448,192,77525,1,0,0:0:0:0:
192,192,77822,1,0,0:0:0:0:
320,192,78119,1,0,0:0:0:0:
64,192,78416,1,0,0:0:0:0:
448,192,78713,1,0,0:0:0:0:
320,192,79010,1,0,0:0:0:0:
192,192,79307,1,0,0:0:0:0:
448,192,79604,1,0,0:0:0:0:
64,192,79901,1,0,0:0:0:0:
320,192,80198,1,0,0:0:0:0:
192,192,80495,1,0,0:0:0:0:
448,192,80793,1,0,0:0:0:0:
320,192,80941,1,0,0:0:0:0:
192,192,81090,1,0,0:0:0:0:
64,192,81238,1,0,0:0:0:0:
448,192,81387,1,0,0:0:0:0:
320,192,81387,1,0,0:0:0:0:
192,192,81684,1,0,0:0:0:0:
448,192,81981,1,0,0:0:0:0:
64,192,82278,1,0,0:0:0:0:
320,192,82575,1,0,0:0:0:0:
192,192,82575,1,0,0:0:0:0:
448,192,82872,1,0,0:0:0:0:
64,192,83169,1,0,0:0:0:0:
320,192,83466,1,0,0:0:0:0:
64,192,83614,1,0,0:0:0:0:
192,192,83763,1,0,0:0:0:0:
448,192,83763,1,0,0:0:0:0:
320,192,84060,1,0,0:0:0:0:
64,192,84357,1,0,0:0:0:0:
192,192,84654,1,0,0:0:0:0:
320,192,84951,1,0,0:0:0:0:
192,192,85174,1,0,0:0:0:0:
64,192,85396,1,0,0:0:0:0:
448,192,85545,1,0,0:0:0:0:
192,192,85842,1,0,0:0:0:0:
64,192,86139,1,0,0:0:0:0:
320,192,86139,1,0,0:0:0:0:
192,192,86436,1,0,0:0:0:0:
448,192,86733,1,0,0:0:0:0:
64,192,87030,1,0,0:0:0:0:
320,192,87327,1,0,0:0:0:0:
192,192,87624,1,0,0:0:0:0:
320,192,87921,1,0,0:0:0:0:
64,192,88218,1,0,0:0:0:0:
192,192,88515,1,0,0:0:0:0:
448,192,88515,1,0,0:0:0:0:
320,192,88812,1,0,0:0:0:0:
448,192,89109,1,0,0:0:0:0:
192,192,89406,1,0,0:0:0:0:
64,192,89703,1,0,0:0:0:0:
320,192,89703,1,0,0:0:0:0:
448,192,90000,1,0,0:0:0:0:
192,192,90297,1,0,0:0:0:0:
320,192,90520,1,0,0:0:0:0:
64,192,90595,1,0,0:0:0:0:
192,192,90743,1,0,0:0:0:0:
448,192,90892,1,0,0:0:0:0:
320,192,90892,1,0,0:0:0:0:
64,192,91189,1,0,0:0:0:0:
320,192,91486,1,0,0:0:0:0:
192,192,91783,1,0,0:0:0:0:
448,192,92080,1,0,0:0:0:0:
64,192,92377,1,0,0:0:0:0:
192,192,92674,128,0,93268:0:0:0:0:
320,192,93268,1,0,0:0:0:0:
192,192,93491,1,0,0:0:0:0:
64,192,93565,1,0,0:0:0:0:
320,192,93713,1,0,0:0:0:0:
448,192,94010,1,0,0:0:0:0:
320,192,94159,1,0,0:0:0:0:
192,192,94307,1,0,0:0:0:0:
64,192,94456,1,0,0:0:0:0:
448,192,94679,1,0,0:0:0:0:
64,192,94901,1,0,0:0:0:0:
320,192,95050,1,0,0:0:0:0:
192,192,95347,1,0,0:0:0:0:
64,192,95644,1,0,0:0:0:0:
448,192,95644,1,0,0:0:0:0:
192,192,96090,1,0,0:0:0:0:
320,192,96535,1,0,0:0:0:0:
192,192,96981,1,0,0:0:0:0:
64,192,97426,1,0,0:0:0:0:
320,192,97723,1,0,0:0:0:0:
192,192,98020,1,0,0:0:0:0:
448,192,98466,1,0,0:0:0:0:
192,192,98911,1,0,0:0:0:0:
320,192,99357,1,0,0:0:0:0:
64,192,99802,1,0,0:0:0:0:
192,192,100099,1,0,0:0:0:0:
64,192,100396,1,0,0:0:0:0:
320,192,100842,1,0,0:0:0:0:
192,192,101288,1,0,0:0:0:0:
448,192,101733,1,0,0:0:0:0:
320,192,102179,1,0,0:0:0:0:
64,192,102476,1,0,0:0:0:0:
192,192,102773,1,0,0:0:0:0:
448,192,103218,1,0,0:0:0:0:
64,192,103664,1,0,0:0:0:0:
192,192,103961,128,0,104258:0:0:0:0:
320,192,104258,1,0,0:0:0:0:
192,192,104555,1,0,0:0:0:0:
64,192,104852,1,0,0:0:0:0:
320,192,105149,1,0,0:0:0:0:
448,192,105149,1,0,0:0:0:0:
192,192,105446,1,0,0:0:0:0:
448,192,105743,1,0,0:0:0:0:
64,192,106040,1,0,0:0:0:0:
320,192,106337,1,0,0:0:0:0:
192,192,106634,1,0,0:0:0:0:
320,192,106931,1,0,0:0:0:0:
448,192,107228,1,0,0:0:0:0:
64,192,107525,1,0,0:0:0:0:
192,192,107822,1,0,0:0:0:0:
320,192,108119,1,0,0:0:0:0:
64,192,108416,1,0,0:0:0:0:
320,192,108713,1,0,0:0:0:0:
192,192,109010,1,0,0:0:0:0:
448,192,109307,1,0,0:0:0:0:
64,192,109604,1,0,0:0:0:0:
320,192,109901,1,0,0:0:0:0:
192,192,110050,1,0,0:0:0:0:
448,192,110198,1,0,0:0:0:0:
64,192,110347,1,0,0:0:0:0:
192,192,110495,1,0,0:0:0:0:
320,192,110644,1,0,0:0:0:0:
64,192,110793,1,0,0:0:0:0:
448,192,110941,1,0,0:0:0:0:
192,192,111090,1,0,0:0:0:0:
320,192,111238,1,0,0:0:0:0:
448,192,111387,1,0,0:0:0:0:
64,192,111535,1,0,0:0:0:0:
320,192,111684,1,0,0:0:0:0:
192,192,111832,1,0,0:0:0:0:
448,192,111981,1,0,0:0:0:0:
64,192,112129,1,0,0:0:0:0:
320,192,112278,1,0,0:0:0:0:
192,192,112426,1,0,0:0:0:0:
320,192,112575,1,0,0:0:0:0:
192,192,112723,1,0,0:0:0:0:
320,192,112872,1,0,0:0:0:0:
192,192,113020,128,0,113169:0:0:0:0:
64,192,113169,1,0,0:0:0:0:
320,192,113317,128,0,113466:0:0:0:0:
192,192,113466,128,0,114654:0:0:0:0:
64,192,114654,5,0,0:0:0:0:
448,192,114654,1,0,0:0:0:0:
192,192,115099,1,0,0:0:0:0:
320,192,115099,1,0,0:0:0:0:
448,192,115545,1,0,0:0:0:0:
64,192,115545,1,0,0:0:0:0:
192,192,117030,1,0,0:0:0:0:
448,192,117030,1,0,0:0:0:0:
320,192,117476,1,0,0:0:0:0:
64,192,117476,1,0,0:0:0:0:
192,192,117921,1,0,0:0:0:0:
448,192,117921,1,0,0:0:0:0:
320,192,119406,1,0,0:0:0:0:
192,192,119406,1,0,0:0:0:0:
448,192,119852,1,0,0:0:0:0:
64,192,119852,1,0,0:0:0:0:
192,192,120297,1,0,0:0:0:0:
320,192,120297,1,0,0:0:0:0:
192,192,121783,1,0,0:0:0:0:
64,192,121783,1,0,0:0:0:0:
320,192,122228,1,0,0:0:0:0:
448,192,122228,1,0,0:0:0:0:
64,192,122674,1,0,0:0:0:0:
192,192,122674,1,0,0:0:0:0:
