osu file format v14

[General]
AudioFilename: MilK.mp3
AudioLeadIn: 0
PreviewTime: 26205
Countdown: 0
SampleSet: None
StackLeniency: 0.7
Mode: 2
LetterboxInBreaks: 0
WidescreenStoryboard: 1

[Editor]
Bookmarks: 13805,26605,39405,49471,52205,65005,90605,103405
DistanceSpacing: 1
BeatDivisor: 4
GridSize: 16
TimelineZoom: 1.6

[Metadata]
Title:MilK
TitleUnicode:MilK
Artist:Morimori Atsushi
ArtistUnicode:モリモリあつし
Creator:tasuke912
Version:Rain
Source:BMS
Tags:BOFU2015 BGA IamKwaN bbj0920 Midnaait newyams99
BeatmapID:1006543
BeatmapSetID:373673

[Difficulty]
HPDrainRate:5
CircleSize:4
OverallDifficulty:9
ApproachRate:9
SliderMultiplier:2.1
SliderTickRate:2

[Events]
//Background and Video events
0,0,"bg.png",0,0
Video,-646,"video.avi"
//Break Periods
//Storyboard Layer 0 (Background)
//Storyboard Layer 1 (Fail)
//Storyboard Layer 2 (Pass)
//Storyboard Layer 3 (Foreground)
//Storyboard Sound Samples

[TimingPoints]
1005,400,4,2,1,70,1,0
1005,-133.333333333333,4,2,1,70,0,0
13805,-111.111111111111,4,1,1,70,0,0
32405,-100,4,1,1,70,0,0
33005,-111.111111111111,4,1,1,70,0,0
36255,-111.111111111111,4,1,1,40,0,0
36605,-111.111111111111,4,1,1,70,0,0
39405,-200,4,1,4,70,0,0
40205,-111.111111111111,4,1,1,70,0,0
45205,-100,4,1,1,70,0,0
45805,-111.111111111111,4,1,1,70,0,0
90605,-111.111111111111,4,1,1,70,0,1
103405,-111.111111111111,4,1,4,70,0,1
104205,-111.111111111111,4,1,1,70,0,1
116205,-111.111111111111,4,1,1,70,0,0

[Colours]
Combo1 : 231,216,33
Combo2 : 226,31,85

[HitObjects]
75,95,1005,6,0,P|95:168|129:271,1,157.500006008148,2|0,0:0|0:0,0:0:0:0:
264,96,1805,2,0,P|236:176|208:264,1,157.500006008148,2|0,0:0|0:0,0:0:0:0:
376,141,2605,2,0,P|470:192|358:307,1,315.000012016297,2|0,0:0|0:0,0:0:0:0:
192,200,3605,2,2,L|80:216,2,78.7500030040742
419,46,4205,6,0,L|426:159,1,78.7500030040742,0|2,0:0|0:0,0:0:0:0:
274,98,4605,2,0,L|269:203,1,78.7500030040742,0|2,0:0|0:0,0:0:0:0:
446,285,5005,2,0,L|349:278,1,78.7500030040742,0|2,0:0|0:0,0:0:0:0:
200,224,5405,2,0,L|298:235,1,78.7500030040742,0|2,0:0|0:0,0:0:0:0:
88,32,5805,5,0,0:0:0:0:
248,32,6005,2,0,L|253:119,1,78.7500030040742,2|0,0:0|0:0,0:0:0:0:
80,112,6405,2,0,L|66:203,1,78.7500030040742,2|0,0:0|0:0,0:0:0:0:
248,264,6805,2,2,P|171:275|71:274,1,157.500006008148
391,245,7405,6,0,P|416:170|437:95,1,157.500006008148,2|0,0:0|0:0,0:0:0:0:
298,245,8205,2,0,P|274:170|248:96,1,157.500006008148,2|0,0:0|0:0,0:0:0:0:
71,98,9005,2,0,P|159:146|59:288,1,315.000012016297,2|0,0:0|0:0,0:0:0:0:
184,296,10005,2,2,L|287:297,2,78.7500030040742
443,71,10605,6,0,L|364:100,1,78.7500030040742,0|2,0:0|0:0,0:0:0:0:
216,192,11005,2,0,L|308:162,1,78.7500030040742,0|2,0:0|0:0,0:0:0:0:
128,128,11405,2,0,L|110:219,1,78.7500030040742,0|2,0:0|0:0,0:0:0:0:
384,128,11805,2,0,L|399:205,1,78.7500030040742,0|2,0:0|0:0,0:0:0:0:
256,192,12205,12,0,13405,0:0:0:0:
328,64,13805,6,0,L|359:278,1,188.999994232178
184,320,14605,2,0,L|153:106,1,188.999994232178
418,46,15405,2,0,P|373:122|272:164,2,188.999994232178,4|0|0,0:2|0:0|0:2,0:0:0:0:
120,56,16405,2,0,L|224:56,2,94.499997116089,0|0|0,0:0|0:2|0:0,0:0:0:0:
448,144,17005,6,0,L|352:208,1,94.499997116089,2|0,0:0|0:0,0:0:0:0:
224,248,17405,2,0,L|317:187,1,94.499997116089
128,136,17805,2,0,L|50:84,1,94.499997116089
208,72,18205,2,0,L|288:124,1,94.499997116089
80,144,18605,5,2,0:0:0:0:
216,245,18805,1,0,0:0:0:0:
62,316,19005,1,2,0:0:0:0:
336,192,19205,2,0,L|439:193,1,94.499997116089,0|2,0:0|0:0,0:0:0:0:
280,264,19605,2,0,L|400:264,1,94.499997116089,0|8,0:0|0:2,0:0:0:0:
176,48,20005,2,0,L|128:48,1,47.2499985580445
288,48,20205,6,0,L|436:95,1,141.749995674133,4|0,0:2|0:0,0:0:0:0:
264,120,20605,2,0,L|112:160,1,141.749995674133
224,192,21005,2,0,L|370:240,1,141.749995674133
192,256,21405,2,0,L|98:312,1,94.499997116089
401,304,21805,6,0,L|320:256,1,94.499997116089,4|0,0:2|0:0,0:0:0:0:
168,40,22205,1,0,0:0:0:0:
203,71,22305,1,0,0:0:0:0:
237,103,22405,1,0,0:0:0:0:
270,136,22505,1,0,0:0:0:0:
303,169,22605,1,4,0:2:0:0:
168,176,22805,1,0,0:0:0:0:
134,208,22905,1,0,0:0:0:0:
103,244,23005,1,0,0:0:0:0:
71,279,23105,1,0,0:0:0:0:
40,315,23205,1,0,0:0:0:0:
304,40,23405,5,0,0:0:0:0:
346,61,23505,1,0,0:0:0:0:
383,89,23605,1,0,0:0:0:0:
421,116,23705,1,0,0:0:0:0:
248,136,23805,2,0,L|194:164,1,47.2499985580445
376,160,24005,2,0,L|430:193,1,47.2499985580445
208,336,24205,5,2,0:0:0:0:
166,315,24305,1,0,0:0:0:0:
129,287,24405,1,0,0:0:0:0:
91,260,24505,1,0,0:0:0:0:
264,240,24605,2,0,L|318:212,1,47.2499985580445
136,216,24805,2,0,L|82:183,1,47.2499985580445
304,56,25005,6,0,L|480:144,1,188.999994232178,2|4,0:3|0:3,0:3:0:0:
288,328,25605,2,0,L|464:240,1,188.999994232178,2|4,0:3|0:3,0:3:0:0:
168,56,26205,2,0,L|83:98,1,94.499997116089,2|0,0:0|0:0,0:0:0:0:
255,128,26605,6,0,L|423:128,1,141.749995674133,4|0,0:0|0:0,0:0:0:0:
168,56,27005,1,0,0:0:0:0:
130,70,27071,1,0,0:0:0:0:
102,100,27138,1,0,0:0:0:0:
94,140,27205,1,0,0:0:0:0:
100,179,27271,1,0,0:0:0:0:
127,209,27338,1,0,0:0:0:0:
165,223,27405,2,0,L|309:221,2,141.749995674133,2|2|0,0:0|0:0|0:0,0:0:0:0:
343,56,28205,6,0,L|335:168,1,94.499997116089,0|0,0:0|0:2,0:0:0:0:
472,56,28605,1,0,0:0:0:0:
168,56,28805,2,0,L|176:168,1,94.499997116089,0|2,0:0|0:0,0:0:0:0:
344,328,29405,2,0,L|336:216,1,94.499997116089,2|0,0:0|0:0,0:0:0:0:
168,328,29805,5,0,0:0:0:0:
448,88,30005,2,0,L|271:179,1,188.999994232178,2|0,0:0|0:0,0:0:0:0:
56,136,30605,2,0,L|224:96,2,141.749995674133,2|2|0,0:0|0:0|0:0,0:0:0:0:
343,102,31405,5,0,0:0:0:0:
182,56,31605,2,0,L|166:112,1,47.2499985580445
330,56,31905,2,0,L|346:112,1,47.2499985580445
80,248,32205,2,0,L|64:304,1,47.2499985580445
168,248,32405,2,2,L|304:248,2,105
432,248,33005,5,4,0:0:0:0:
247,47,33205,2,0,P|284:137|361:192,1,188.999994232178
170,191,33805,2,0,P|108:211|41:251,2,141.749995674133
320,160,34605,6,0,L|221:174,2,94.499997116089
144,112,35205,1,0,0:0:0:0:
422,64,35405,2,0,L|434:172,1,94.499997116089,2|0,0:0|0:0,0:0:0:0:
90,64,35805,2,0,L|78:172,1,94.499997116089
288,56,36205,6,0,L|312:56,1,23.6249992790222
296,88,36305,2,0,L|320:88,1,23.6249992790222
304,128,36405,2,0,L|328:128,1,23.6249992790222
312,160,36505,2,0,L|336:160,1,23.6249992790222
320,200,36605,1,0,0:0:0:0:
168,216,36805,2,0,L|162:170,1,47.2499985580445
320,312,37005,6,0,L|407:257,1,94.499997116089,2|0,0:0|0:0,0:0:0:0:
240,312,37305,2,0,L|153:257,1,94.499997116089,2|0,0:0|0:0,0:0:0:0:
320,56,37605,2,0,L|407:111,1,94.499997116089,2|0,0:0|0:0,0:0:0:0:
232,48,38005,6,0,L|224:144,1,94.499997116089
399,106,38405,1,0,0:0:0:0:
88,136,38605,2,0,L|80:192,1,47.2499985580445
224,142,38905,1,0,0:0:0:0:
88,136,39105,2,0,L|80:192,1,47.2499985580445
376,168,39405,6,0,P|383:233|377:334,1,157.5,2|0,0:0|2:0,0:0:0:0:
119,103,40205,2,0,P|191:108|271:119,2,141.749995674133,4|0|0,0:0|0:0|0:0,0:0:0:0:
400,72,41005,1,0,0:0:0:0:
260,118,41205,2,0,L|260:238,1,94.499997116089
400,312,41605,1,0,0:0:0:0:
136,176,41805,2,0,L|11:255,1,141.749995674133,2|0,0:0|0:0,0:0:0:0:
208,176,42205,2,0,L|288:248,1,94.499997116089
134,294,42605,5,0,0:0:0:0:
398,74,42805,2,0,P|460:128|395:180,1,188.999994232178
217,133,43405,2,0,L|70:178,2,141.749995674133,2|0|0,0:0|0:0|0:0,0:0:0:0:
72,256,44205,1,0,0:0:0:0:
330,56,44405,2,0,L|346:112,1,47.2499985580445
182,56,44705,2,0,L|166:112,1,47.2499985580445
432,248,45005,2,0,L|448:304,1,47.2499985580445
344,248,45205,2,2,L|208:248,2,105
80,248,45805,5,4,0:0:0:0:
265,47,46005,2,0,P|228:137|151:192,1,188.999994232178
342,191,46605,2,0,P|404:211|471:251,2,141.749995674133,2|0|0,0:0|0:0|0:0,0:0:0:0:
155,189,47405,5,0,0:0:0:0:
261,185,47605,2,0,P|259:239|248:298,1,94.499997116089
85,188,48005,1,0,0:0:0:0:
416,72,48205,2,0,L|425:198,1,94.499997116089,2|0,0:0|0:0,0:0:0:0:
266,73,48605,2,0,L|260:182,1,94.499997116089
104,288,49005,6,0,L|108:305,1,15.7499995193482,0|2,0:0|0:2,0:0:0:0:
240,288,49205,2,0,L|244:307,1,15.7499995193482,0|2,0:0|0:2,0:0:0:0:
85,188,49405,1,0,0:0:0:0:
427,188,49605,1,4,0:0:0:0:
144,80,49805,2,0,L|136:184,1,94.499997116089
256,112,50105,2,0,L|256:216,1,94.499997116089,2|0,0:0|0:0,0:0:0:0:
368,80,50405,2,0,L|376:184,1,94.499997116089
48,168,50805,6,0,L|144:120,2,94.499997116089
342,252,51405,2,0,P|339:205|328:160,1,94.499997116089
456,224,51806,2,0,P|445:179|442:132,1,94.499997116089
176,144,52205,6,0,B|95:176|96:324,1,188.999994232178
336,144,53005,2,0,B|417:176|416:324,1,188.999994232178
128,80,53805,2,0,P|177:160|252:219,2,188.999994232178,4|0|0,0:2|0:0|0:2,0:0:0:0:
392,56,54805,2,0,L|288:56,2,94.499997116089,0|0|0,0:0|0:2|0:0,0:0:0:0:
80,144,55405,6,0,L|176:208,1,94.499997116089,2|0,0:0|0:0,0:0:0:0:
320,240,55805,2,0,L|227:179,1,94.499997116089
80,144,56205,2,0,L|176:208,2,94.499997116089,2|0|0,0:0|0:0|0:0,0:0:0:0:
224,144,56805,1,0,0:0:0:0:
64,80,57005,5,2,0:0:0:0:
336,80,57205,2,0,L|352:192,1,94.499997116089,0|2,0:0|0:0,0:0:0:0:
176,304,57605,2,0,L|160:192,1,94.499997116089,0|2,0:0|0:0,0:0:0:0:
336,80,58005,1,0,0:0:0:0:
77,271,58205,1,8,0:2:0:0:
336,80,58405,2,0,L|389:78,1,47.2499985580445
224,48,58605,6,0,L|76:95,1,141.749995674133,4|0,0:2|0:0,0:0:0:0:
248,120,59005,2,0,L|400:160,1,141.749995674133
272,192,59405,2,0,L|126:240,1,141.749995674133
320,256,59805,2,0,L|414:312,1,94.499997116089
111,304,60205,6,0,L|192:256,1,94.499997116089,4|0,0:2|0:0,0:0:0:0:
344,40,60605,1,0,0:0:0:0:
309,71,60705,1,0,0:0:0:0:
275,103,60805,1,0,0:0:0:0:
242,136,60905,1,0,0:0:0:0:
209,169,61005,1,4,0:2:0:0:
344,176,61205,1,0,0:0:0:0:
378,208,61305,1,0,0:0:0:0:
409,244,61405,1,0,0:0:0:0:
441,279,61505,1,0,0:0:0:0:
472,315,61605,1,0,0:0:0:0:
208,40,61805,5,0,0:0:0:0:
166,61,61905,1,0,0:0:0:0:
129,89,62005,1,0,0:0:0:0:
91,116,62105,1,0,0:0:0:0:
264,136,62205,2,0,L|318:164,1,47.2499985580445
136,160,62405,2,0,L|82:193,1,47.2499985580445
304,336,62605,5,2,0:0:0:0:
346,315,62705,1,0,0:0:0:0:
383,287,62805,1,0,0:0:0:0:
421,260,62905,1,0,0:0:0:0:
248,240,63005,2,0,L|194:212,1,47.2499985580445
376,216,63205,2,0,L|430:183,1,47.2499985580445
208,56,63405,6,0,L|32:144,1,188.999994232178,2|4,0:3|0:3,0:3:0:0:
224,328,64005,2,0,L|48:240,1,188.999994232178,2|4,0:3|0:3,0:3:0:0:
320,48,64605,1,0,0:0:0:0:
356,56,64705,1,0,0:0:0:0:
392,66,64805,1,0,0:0:0:0:
428,75,64905,1,0,0:0:0:0:
328,107,65005,6,0,L|228:138,1,94.499997116089
139,164,65305,2,0,P|118:207|134:252,1,94.499997116089
241,232,65605,2,0,P|254:276|233:317,1,94.499997116089
44,263,65905,2,0,P|63:305|105:327,1,94.499997116089
323,319,66205,2,0,P|277:329|232:317,1,94.499997116089
48,224,66605,6,0,P|93:213|138:225,1,94.499997116089
256,176,66905,2,0,P|269:217|256:270,1,94.499997116089
144,128,67205,2,0,P|132:82|146:37,1,94.499997116089
336,64,67505,2,0,P|296:88|246:79,1,94.499997116089
80,192,67805,2,0,B|64:258|64:258|80:330,1,141.749995674133
336,144,68205,6,0,L|432:128,1,94.499997116089
272,160,68505,2,0,L|176:176,1,94.499997116089
288,224,68805,2,0,L|384:208,1,94.499997116089
224,240,69105,2,0,L|128:256,1,94.499997116089
291,51,69405,2,0,P|336:30|384:58,1,94.499997116089
410,77,69705,1,0,0:0:0:0:
176,80,69805,6,0,L|176:176,1,94.499997116089
48,176,70205,1,0,0:0:0:0:
336,80,70405,2,0,L|336:176,1,94.499997116089
464,176,70805,1,0,0:0:0:0:
192,256,71005,2,0,L|176:320,3,47.2499985580445
