osu file format v14

[General]
AudioFilename: audio.mp3
AudioLeadIn: 0
PreviewTime: 26697
Countdown: 0
SampleSet: Soft
StackLeniency: 0.7
Mode: 2
LetterboxInBreaks: 0
WidescreenStoryboard: 0

[Editor]
Bookmarks: 14497,116897
DistanceSpacing: 3.5
BeatDivisor: 4
GridSize: 8
TimelineZoom: 2.2

[Metadata]
Title:MilK
TitleUnicode:MilK
Artist:Morimori Atsushi
ArtistUnicode:モリモリあつし
Creator:rew0825
Version:Calcium
Source:BMS
Tags:大血戦 THE OF FIGHTERS ULTIMATE 参加作品 JACKET 出前 Future Bass Bofu2015 Lanota Noxy Games Chapter C Expansion
BeatmapID:1473490
BeatmapSetID:695424

[Difficulty]
HPDrainRate:7
CircleSize:4.2
OverallDifficulty:9.4
ApproachRate:9.4
SliderMultiplier:2.24
SliderTickRate:2

[Events]
//Background and Video events
0,0,"BG.jpg",0,0
//Break Periods
//Storyboard Layer 0 (Background)
//Storyboard Layer 1 (Fail)
//Storyboard Layer 2 (Pass)
//Storyboard Layer 3 (Foreground)
//Storyboard Sound Samples

[TimingPoints]
97,400,4,2,1,70,1,0
16097,-66.6666666666667,4,2,1,70,0,0
16497,-100,4,2,1,70,0,0
27297,-100,4,2,1,70,0,1
40097,-100,4,2,1,70,0,0
40897,-100,4,2,1,70,0,1
52897,-100,4,2,1,70,0,0
65697,-100,4,2,1,70,0,1
70497,-100,4,2,1,70,0,0
72097,-100,4,2,1,70,0,1
76897,-100,4,2,1,70,0,0
78897,-100,4,2,1,70,0,1
83297,-100,4,2,1,70,0,0
84897,-66.6666666666667,4,2,1,70,0,1
89697,-66.6666666666667,4,2,1,70,0,0
91297,-80,4,2,1,70,0,1
104097,-80,4,2,1,70,0,0
104897,-80,4,2,1,70,0,1
116897,-80,4,2,1,70,0,0

[HitObjects]
256,64,1697,6,0,L|368:64,1,112,4|0,0:0|0:0,0:0:0:0:
200,64,2097,2,0,L|88:64,1,112
368,64,2497,2,0,P|408:104|312:200,1,224,4|0,0:0|0:0,0:0:0:0:
152,200,3097,1,0,0:0:0:0:
432,200,3297,6,0,P|312:320|264:320,1,224,4|0,0:0|0:0,0:0:0:0:
104,320,3897,1,0,0:0:0:0:
384,320,4097,2,0,L|496:320,1,112,4|0,0:0|0:0,0:0:0:0:
328,240,4497,2,0,L|216:240,1,112
496,240,4897,6,0,L|328:240,1,168,4|0,0:0|0:0,0:0:0:0:
160,240,5297,2,0,L|272:240,1,112,4|4,0:0|0:0,0:0:0:0:
440,240,5697,1,0,0:0:0:0:
104,192,5897,2,0,L|224:192,1,112,4|4,0:0|0:0,0:0:0:0:
384,192,6297,1,0,0:0:0:0:
48,128,6497,6,0,L|160:128,1,112,4|4,0:0|0:0,0:0:0:0:
328,128,6897,1,0,0:0:0:0:
48,128,7097,1,4,0:0:0:0:
216,128,7297,1,4,0:0:0:0:
496,128,7497,2,0,P|416:208|304:208,1,224,4|0,0:0|0:0,0:0:0:0:
32,208,8097,6,0,L|152:208,1,112,4|0,0:0|0:0,0:0:0:0:
312,208,8497,2,0,L|200:208,1,112
480,208,8897,2,0,P|440:168|280:168,1,224,4|0,0:0|0:0,0:0:0:0:
448,168,9497,1,0,0:0:0:0:
168,168,9697,6,0,P|128:208|224:304,1,224,4|0,0:0|0:0,0:0:0:0:
384,312,10297,1,0,0:0:0:0:
104,312,10497,2,0,L|216:312,1,112,4|0,0:0|0:0,0:0:0:0:
384,312,10897,2,0,L|496:312,1,112,4|0,0:0|0:0,0:0:0:0:
216,312,11297,6,0,L|32:312,1,168,4|0,0:0|0:0,0:0:0:0:
216,312,11697,2,0,L|328:312,1,112,4|4,0:0|0:0,0:0:0:0:
160,312,12097,1,0,0:0:0:0:
440,248,12297,2,0,L|320:248,1,112,4|4,0:0|0:0,0:0:0:0:
496,248,12697,1,0,0:0:0:0:
160,248,12897,1,4,0:0:0:0:
440,248,13097,6,0,P|480:208|384:112,1,224,4|0,0:0|0:0,0:0:0:0:
112,112,13697,1,4,0:0:0:0:
280,112,13897,2,0,L|344:112,1,56,4|4,0:0|0:0,0:0:0:0:
168,112,14097,2,0,L|232:112,1,56,4|4,0:0|0:0,0:0:0:0:
392,112,14297,1,4,0:0:0:0:
112,112,14497,6,0,P|72:152|168:248,1,224,2|2,0:0|0:0,0:0:0:0:
328,248,15097,1,4,0:0:0:0:
48,248,15297,2,0,P|128:328|240:328,1,224,2|2,0:0|0:0,0:0:0:0:
400,328,15897,1,4,0:0:0:0:
120,328,16097,6,0,P|56:264|200:120,1,336.000012817383,14|2,0:0|0:0,0:0:0:0:
472,120,16697,1,4,0:0:0:0:
184,120,16897,2,0,L|168:232,1,112,2|0,0:0|0:0,0:0:0:0:
336,232,17297,2,0,L|352:344,1,112,2|0,0:0|0:0,0:0:0:0:
71,343,17697,6,0,L|184:344,1,112,2|4,0:0|0:0,0:0:0:0:
463,344,18097,2,0,L|352:344,1,112,2|4,0:0|0:0,0:0:0:0:
71,344,18497,1,2,0:0:0:0:
408,344,18697,2,0,L|424:232,1,112,4|2,0:0|0:0,0:0:0:0:
88,232,19097,1,4,0:0:0:0:
368,232,19297,6,0,L|480:232,2,112,2|0|2,0:0|0:0|0:0,0:0:0:0:
88,232,19897,1,4,0:0:0:0:
424,232,20097,2,0,L|312:232,2,112,2|0|2,0:0|0:0|0:0,0:0:0:0:
144,232,20697,2,0,L|88:232,1,56,4|4,0:0|0:0,0:0:0:0:
312,232,20897,6,0,P|352:192|288:128,1,168,2|0,0:0|0:0,0:0:0:0:
120,128,21297,2,0,P|80:88|144:24,1,168,2|0,0:0|0:0,0:0:0:0:
368,128,21697,2,0,P|408:88|344:24,1,168,2|0,0:0|0:0,0:0:0:0:
175,24,22097,2,0,L|296:24,1,112,2|0,0:0|0:0,0:0:0:0:
7,24,22497,6,0,L|8:144,1,112,14|0,0:0|0:0,0:0:0:0:
287,135,22897,2,0,L|232:136,1,56,2|4,0:0|0:0,0:0:0:0:
399,136,23097,2,0,L|336:136,1,56,2|4,0:0|0:0,0:0:0:0:
176,136,23297,1,2,0:0:0:0:
344,192,23497,2,0,L|400:192,1,56,2|4,0:0|0:0,0:0:0:0:
232,192,23697,2,0,L|304:192,1,56,2|4,0:0|0:0,0:0:0:0:
456,192,23897,1,2,0:0:0:0:
176,192,24097,5,2,0:0:0:0:
120,216,24197,1,4,0:0:0:0:
184,232,24297,1,4,0:0:0:0:
256,232,24397,1,4,0:0:0:0:
424,232,24497,1,2,0:0:0:0:
480,256,24597,1,4,0:0:0:0:
416,272,24697,1,4,0:0:0:0:
344,272,24797,1,4,0:0:0:0:
176,136,24897,6,0,L|240:136,1,56,2|4,0:0|0:0,0:0:0:0:
400,136,25097,2,0,L|336:136,1,56,4|4,0:0|0:0,0:0:0:0:
176,136,25297,2,0,L|112:136,1,56,2|4,0:0|0:0,0:0:0:0:
288,136,25497,2,0,L|344:136,1,56,4|4,0:0|0:0,0:0:0:0:
120,136,25697,5,14,0:0:0:0:
384,248,25897,1,2,0:0:0:0:
424,216,25963,1,2,0:0:0:0:
384,184,26030,1,2,0:0:0:0:
344,216,26097,1,4,0:0:0:0:
48,136,26297,1,14,0:0:0:0:
312,248,26497,5,2,0:0:0:0:
352,216,26563,1,2,0:0:0:0:
312,184,26630,1,2,0:0:0:0:
184,248,26697,1,4,0:0:0:0:
144,216,26763,1,4,0:0:0:0:
184,184,26830,1,4,0:0:0:0:
448,136,26897,2,0,L|448:248,1,112,0|4,0:0|0:0,0:0:0:0:
112,248,27297,6,0,P|72:208|168:112,1,224,14|4,0:0|0:0,0:0:0:0:
336,112,27897,1,4,0:0:0:0:
376,128,27963,1,4,0:0:0:0:
392,160,28030,1,4,0:0:0:0:
248,160,28097,2,0,L|128:160,1,112,2|0,0:0|0:0,0:0:0:0:
304,160,28397,2,0,L|472:160,1,168,2|0,0:0|0:0,0:0:0:0:
192,160,28897,6,0,P|152:200|248:296,1,224,2|2,0:0|0:0,0:0:0:0:
408,304,29497,1,4,0:0:0:0:
128,304,29697,2,0,P|208:224|320:224,1,224,10|2,0:0|0:0,0:0:0:0:
152,224,30297,1,4,0:0:0:0:
432,224,30497,1,2,0:0:0:0:
96,224,30697,6,0,P|56:184|152:88,1,224,8|0,0:0|0:0,0:0:0:0:
312,88,31297,2,0,L|328:208,1,112,2|0,0:0|0:0,0:0:0:0:
158,199,31597,2,0,P|120:240|192:312,1,168,2|0,0:0|0:0,0:0:0:0:
464,312,32097,1,2,0:0:0:0:
184,312,32297,6,0,L|120:312,1,56,2|2,0:0|0:0,0:0:0:0:
296,312,32597,2,0,L|240:312,1,56,2|2,0:0|0:0,0:0:0:0:
72,312,32897,2,0,L|128:312,1,56,2|2,0:0|0:0,0:0:0:0:
352,312,33097,1,8,0:0:0:0:
72,312,33297,1,8,0:0:0:0:
408,312,33497,1,8,0:0:0:0:
128,312,33697,1,2,0:0:0:0:
296,312,33897,6,0,P|368:264|296:176,1,224,8|4,0:0|0:0,0:0:0:0:
24,176,34497,2,0,L|144:176,1,112,2|0,0:0|0:0,0:0:0:0:
304,176,34797,2,0,L|128:176,1,168,2|0,0:0|0:0,0:0:0:0:
416,176,35297,6,0,P|456:216|360:312,1,224,2|2,0:0|0:0,0:0:0:0:
200,312,35897,1,4,0:0:0:0:
480,312,36097,2,0,P|440:272|280:272,1,224,10|2,0:0|0:0,0:0:0:0:
448,272,36697,2,0,L|360:272,1,56,4|0,0:0|0:0,0:0:0:0:
176,272,36897,5,6,0:0:0:0:
136,264,36963,1,4,0:0:0:0:
112,232,37029,1,4,0:0:0:0:
112,192,37096,1,4,0:0:0:0:
136,160,37163,1,4,0:0:0:0:
176,152,37229,1,4,0:0:0:0:
328,152,37297,2,4,L|384:152,2,37.3333333333333,6|4|4,0:0|0:0|0:0,0:0:0:0:
176,152,37497,2,0,L|112:152,1,56,2|0,0:0|0:0,0:0:0:0:
344,272,37697,5,8,0:0:0:0:
88,272,37997,1,8,0:0:0:0:
456,272,38297,1,8,0:0:0:0:
176,192,38497,6,0,L|64:192,1,112,2|0,0:0|0:0,0:0:0:0:
344,192,38897,2,0,L|456:192,1,112,2|0,0:0|0:0,0:0:0:0:
120,192,39297,2,0,L|56:192,1,56,2|2,0:0|0:0,0:0:0:0:
344,192,39597,1,0,0:0:0:0:
64,192,39797,2,0,L|128:192,1,56,2|2,0:0|0:0,0:0:0:0:
400,192,40097,6,0,B|456:192|456:192|344:192|344:192|456:192|456:192|400:192,1,336,4|0,0:0|0:0,0:0:0:0:
200,272,40897,2,0,L|64:272,1,112,2|0,0:0|0:0,0:0:0:0:
256,272,41197,2,0,L|440:272,1,168,2|0,0:0|0:0,0:0:0:0:
144,272,41697,6,0,P|104:232|200:136,1,224,10|2,0:0|0:0,0:0:0:0:
360,136,42297,1,4,0:0:0:0:
80,136,42497,2,0,P|120:176|280:176,1,224,10|2,0:0|0:0,0:0:0:0:
448,176,43097,1,4,0:0:0:0:
112,176,43297,1,2,0:0:0:0:
392,176,43497,6,0,P|432:216|336:312,1,224,8|0,0:0|0:0,0:0:0:0:
64,320,44097,2,0,L|176:320,1,112,2|0,0:0|0:0,0:0:0:0:
344,320,44397,2,0,L|160:320,1,168,2|0,0:0|0:0,0:0:0:0:
456,320,44897,5,2,0:0:0:0:
288,320,45097,2,2,L|360:320,1,56
176,320,45397,2,2,L|256:320,1,56
400,320,45697,2,2,L|336:320,1,56
176,320,45897,1,8,0:0:0:0:
456,320,46097,1,8,0:0:0:0:
120,320,46297,1,8,0:0:0:0:
400,320,46497,1,2,0:0:0:0:
232,320,46697,6,0,P|272:280|432:280,1,224,8|0,0:0|0:0,0:0:0:0:
149,279,47297,2,0,L|136:168,1,112,2|0,0:0|0:0,0:0:0:0:
304,168,47597,2,0,L|136:168,1,168,2|0,0:0|0:0,0:0:0:0:
416,168,48097,6,0,P|456:208|360:304,1,224,10|2,0:0|0:0,0:0:0:0:
200,312,48697,1,4,0:0:0:0:
480,312,48897,2,0,P|440:272|280:272,1,224,10|4,0:0|0:0,0:0:0:0:
224,272,49397,1,4,0:0:0:0:
392,272,49497,2,0,L|328:272,1,56,4|4,0:0|0:0,0:0:0:0:
168,272,49697,5,2,0:0:0:0:
448,272,49897,1,4,0:0:0:0:
112,272,50097,2,0,L|112:160,1,112,2|2,0:0|0:0,0:0:0:0:
416,160,50497,1,8,0:0:0:0:
56,160,50797,1,8,0:0:0:0:
448,160,51097,1,8,0:0:0:0:
168,160,51297,6,0,L|288:160,1,112,2|0,0:0|0:0,0:0:0:0:
448,160,51697,2,0,L|328:160,1,112,2|0,0:0|0:0,0:0:0:0:
56,160,52097,2,0,L|48:272,1,112,4|4,0:0|0:0,0:0:0:0:
456,160,52497,2,0,L|464:272,1,112,4|4,0:0|0:0,0:0:0:0:
127,271,52897,6,0,P|88:232|184:136,1,224,14|2,0:0|0:0,0:0:0:0:
352,136,53497,1,4,0:0:0:0:
72,136,53697,2,0,P|112:176|272:176,1,224,2|2,0:0|0:0,0:0:0:0:
440,176,54297,1,4,0:0:0:0:
160,176,54497,6,0,L|144:288,1,112,2|0,0:0|0:0,0:0:0:0:
424,288,54897,1,6,0:0:0:0:
256,288,55097,2,0,L|200:288,1,56,4|4,0:0|0:0,0:0:0:0:
368,288,55297,2,0,L|424:288,1,56,2|4,0:0|0:0,0:0:0:0:
312,288,55497,1,4,0:0:0:0:
32,288,55697,2,0,L|48:176,1,112,2|4,0:0|0:0,0:0:0:0:
383,176,56097,6,0,L|272:176,1,112,2|0,0:0|0:0,0:0:0:0:
103,176,56497,2,0,L|224:176,1,112,2|4,0:0|0:0,0:0:0:0:
495,176,56897,1,10,0:0:0:0:
160,176,57097,2,0,L|144:288,1,112,4|2,0:0|0:0,0:0:0:0:
424,287,57497,1,4,0:0:0:0:
144,288,57697,6,0,L|32:288,2,112,2|0|2,0:0|0:0|0:0,0:0:0:0:
424,287,58297,1,4,0:0:0:0:
88,288,58497,2,0,L|200:288,2,112,2|0|2,0:0|0:0|0:0,0:0:0:0:
368,288,59097,2,0,L|424:288,1,56,4|4,0:0|0:0,0:0:0:0:
200,288,59297,6,0,P|160:248|224:184,1,168,2|0,0:0|0:0,0:0:0:0:
392,184,59697,2,0,P|432:144|368:80,1,168,2|0,0:0|0:0,0:0:0:0:
144,184,60097,2,0,P|104:144|168:80,1,168,2|0,0:0|0:0,0:0:0:0:
337,80,60497,2,0,L|216:80,1,112,2|0,0:0|0:0,0:0:0:0:
505,24,60897,6,0,L|504:144,1,112,12|2,0:0|0:0,0:0:0:0:
225,135,61297,2,0,L|280:136,1,56,2|4,0:0|0:0,0:0:0:0:
113,136,61497,2,0,L|176:136,1,56,2|4,0:0|0:0,0:0:0:0:
336,136,61697,1,2,0:0:0:0:
168,192,61897,2,0,L|112:192,1,56,2|4,0:0|0:0,0:0:0:0:
280,192,62097,2,0,L|208:192,1,56,2|4,0:0|0:0,0:0:0:0:
56,192,62297,1,2,0:0:0:0:
336,192,62497,5,2,0:0:0:0:
392,216,62597,1,4,0:0:0:0:
328,232,62697,1,4,0:0:0:0:
256,232,62797,1,4,0:0:0:0:
88,232,62897,1,2,0:0:0:0:
32,256,62997,1,4,0:0:0:0:
96,272,63097,1,4,0:0:0:0:
168,272,63197,1,4,0:0:0:0:
336,136,63297,6,0,L|272:136,1,56,2|4,0:0|0:0,0:0:0:0:
112,136,63497,2,0,L|176:136,1,56,4|4,0:0|0:0,0:0:0:0:
336,136,63697,2,0,L|400:136,1,56,2|4,0:0|0:0,0:0:0:0:
224,136,63897,2,0,L|168:136,1,56,4|4,0:0|0:0,0:0:0:0:
392,136,64097,5,10,0:0:0:0:
128,248,64297,1,2,0:0:0:0:
88,216,64363,1,2,0:0:0:0:
128,184,64430,1,2,0:0:0:0:
168,216,64497,1,2,0:0:0:0:
464,136,64697,1,8,0:0:0:0:
200,248,64897,5,2,0:0:0:0:
160,216,64963,1,2,0:0:0:0:
200,184,65030,1,2,0:0:0:0:
328,248,65097,1,0,0:0:0:0:
368,216,65163,1,0,0:0:0:0:
328,184,65230,1,0,0:0:0:0:
64,136,65297,1,12,0:0:0:0:
144,136,65397,1,8,0:0:0:0:
56,136,65497,1,12,0:0:0:0:
144,136,65597,1,8,0:0:0:0:
312,136,65697,6,0,L|424:136,1,112,14|0,0:0|0:0,0:0:0:0:
256,136,65997,2,0,L|136:136,1,112,2|0,0:0|0:0,0:0:0:0:
312,136,66297,2,0,B|368:136|368:136|296:136,1,112,2|0,0:0|0:0,0:0:0:0:
144,136,66597,2,0,B|88:136|88:136|160:136,1,112,2|0,0:0|0:0,0:0:0:0:
312,136,66897,1,2,0:0:0:0:
144,136,67097,1,2,0:0:0:0:
424,136,67297,6,0,P|424:192|384:232,1,112,2|0,0:0|0:0,0:0:0:0:
216,232,67597,2,0,L|104:232,1,112,2|0,0:0|0:0,0:0:0:0:
272,232,67897,2,0,L|384:232,1,112,2|0,0:0|0:0,0:0:0:0:
216,232,68197,2,0,P|216:176|256:136,1,112,2|0,0:0|0:0,0:0:0:0:
424,136,68497,2,0,P|456:192|384:240,1,168,2|0,0:0|0:0,0:0:0:0:
159,240,68897,6,0,L|56:200,1,112,2|0,0:0|0:0,0:0:0:0:
224,240,69197,2,0,L|328:199,1,112,2|0,0:0|0:0,0:0:0:0:
159,240,69497,2,0,L|262:199,1,112,2|0,0:0|0:0,0:0:0:0:
432,240,69797,2,0,L|329:199,1,112,2|0,0:0|0:0,0:0:0:0:
160,199,70097,1,2,0:0:0:0:
328,199,70297,2,0,L|392:200,1,56,4|4,0:0|0:0,0:0:0:0:
216,199,70497,6,0,L|80:200,1,112,2|4,0:0|0:0,0:0:0:0:
384,200,70897,1,8,0:0:0:0:
216,200,71097,2,0,L|328:200,2,112,2|4|2,0:0|0:0|0:0,0:0:0:0:
384,200,71697,2,0,L|328:200,1,56,8|8,0:0|0:0,0:0:0:0:
160,200,71897,2,0,L|104:200,1,56,8|8,0:0|0:0,0:0:0:0:
328,200,72097,6,0,L|448:200,1,112,2|0,0:0|0:0,0:0:0:0:
272,200,72397,2,0,L|160:200,1,112,2|0,0:0|0:0,0:0:0:0:
328,200,72697,2,0,P|328:256|280:304,1,112,2|0,0:0|0:0,0:0:0:0:
120,296,72997,2,0,P|120:240|160:200,1,112,2|0,0:0|0:0,0:0:0:0:
328,200,73297,1,2,0:0:0:0:
160,200,73497,1,2,0:0:0:0:
440,200,73697,6,0,L|320:200,1,112,2|0,0:0|0:0,0:0:0:0:
160,200,73997,2,0,L|48:200,1,112,2|0,0:0|0:0,0:0:0:0:
216,200,74297,2,0,L|328:200,1,112,2|0,0:0|0:0,0:0:0:0:
160,200,74597,2,0,P|160:256|200:296,1,112,2|0,0:0|0:0,0:0:0:0:
368,296,74897,2,0,P|408:256|344:192,1,168,2|0,0:0|0:0,0:0:0:0:
175,192,75297,6,2,L|288:192,1,112,2|0,0:0|0:0,0:0:0:0:
455,192,75597,2,0,P|416:152|360:152,1,112,2|0,0:0|0:0,0:0:0:0:
192,152,75897,2,0,L|72:152,1,112,2|0,0:0|0:0,0:0:0:0:
248,152,76197,2,0,P|288:112|344:112,1,112,2|0,0:0|0:0,0:0:0:0:
176,112,76497,2,0,L|168:168,1,56,2|0,0:0|0:0,0:0:0:0:
336,112,76697,2,0,L|344:168,1,56,2|0,0:0|0:0,0:0:0:0:
119,167,76897,5,8,0:0:0:0:
399,167,77097,1,2,0:0:0:0:
352,208,77163,1,2,0:0:0:0:
304,232,77230,1,2,0:0:0:0:
256,240,77297,1,2,0:0:0:0:
424,240,77497,1,8,0:0:0:0:
113,167,77697,5,2,0:0:0:0:
160,208,77763,1,2,0:0:0:0:
208,232,77830,1,2,0:0:0:0:
256,240,77897,1,0,0:0:0:0:
208,232,77963,1,0,0:0:0:0:
160,208,78030,1,0,0:0:0:0:
312,208,78097,2,0,L|320:272,1,56,8|2,0:0|0:0,0:0:0:0:
160,208,78297,1,2,0:0:0:0:
440,208,78497,1,12,0:0:0:0:
104,208,78897,6,0,B|48:208|48:208|112:208,1,112,2|0,0:0|0:0,0:0:0:0:
272,208,79197,2,0,B|328:208|328:208|248:208,1,112,2|0,0:0|0:0,0:0:0:0:
104,208,79497,2,0,L|160:208,1,56,2|0,0:0|0:0,0:0:0:0:
328,208,79697,2,0,L|384:208,1,56,2|0,0:0|0:0,0:0:0:0:
160,208,79897,2,0,L|152:152,1,56,2|0,0:0|0:0,0:0:0:0:
376,152,80097,6,0,P|432:152|480:184,1,112,2|0,0:0|0:0,0:0:0:0:
312,184,80397,2,0,L|184:184,1,112,2|0,0:0|0:0,0:0:0:0:
32,184,80697,2,0,P|78:154|133:154,1,112,2|0,0:0|0:0,0:0:0:0:
304,160,80997,2,0,L|176:160,1,112,2|0,0:0|0:0,0:0:0:0:
360,160,81297,2,0,P|424:216|352:280,1,168,2|0,0:0|0:0,0:0:0:0:
168,280,81697,6,0,L|48:280,1,112,2|0,0:0|0:0,0:0:0:0:
224,280,81997,2,0,L|360:280,1,112,2|0,0:0|0:0,0:0:0:0:
168,280,82297,2,0,L|280:280,1,112,2|0,0:0|0:0,0:0:0:0:
448,280,82597,2,0,L|336:280,1,112,2|0,0:0|0:0,0:0:0:0:
168,280,82897,2,0,L|224:280,1,56,2|0,0:0|0:0,0:0:0:0:
392,280,83097,2,0,L|448:280,1,56,2|0,0:0|0:0,0:0:0:0:
224,280,83297,6,0,L|88:280,1,112,2|4,0:0|0:0,0:0:0:0:
432,167,83697,1,8,0:0:0:0:
264,167,83897,2,0,L|152:168,2,112,2|4|2,0:0|0:0|0:0,0:0:0:0:
432,167,84497,2,0,L|376:168,1,56,8|8,0:0|0:0,0:0:0:0:
208,167,84697,2,0,L|152:168,1,56,8|8,0:0|0:0,0:0:0:0:
376,168,84897,6,0,B|456:168|456:168|368:168,1,168.000006408692,2|0,0:0|0:0,0:0:0:0:
200,168,85197,2,0,B|120:168|120:168|232:168,1,168.000006408692,2|0,0:0|0:0,0:0:0:0:
376,168,85497,2,0,L|200:168,1,168.000006408692,2|0,0:0|0:0,0:0:0:0:
376,168,85797,2,0,P|376:256|320:312,1,168.000006408692,2|0,0:0|0:0,0:0:0:0:
152,312,86097,2,0,L|320:312,1,168.000006408692,2|0,0:0|0:0,0:0:0:0:
152,312,86397,6,0,P|152:224|208:168,1,168.000006408692,2|0,0:0|0:0,0:0:0:0:
464,168,86697,2,0,L|288:168,1,168.000006408692,2|0,0:0|0:0,0:0:0:0:
128,168,86997,2,0,L|296:168,1,168.000006408692,2|0,0:0|0:0,0:0:0:0:
464,168,87297,2,0,P|400:232|320:232,1,168.000006408692,2|0,0:0|0:0,0:0:0:0:
48,168,87597,2,0,P|112:232|192:232,1,168.000006408692,2|0,0:0|0:0,0:0:0:0:
352,232,87897,2,0,L|184:232,1,168.000006408692,2|4,0:0|0:0,0:0:0:0:
136,216,88163,5,4,0:0:0:0:
104,176,88230,1,4,0:0:0:0:
112,128,88297,1,4,0:0:0:0:
152,96,88363,1,4,0:0:0:0:
200,88,88430,1,4,0:0:0:0:
368,232,88497,5,4,0:0:0:0:
416,216,88564,1,4,0:0:0:0:
448,176,88631,1,4,0:0:0:0:
440,128,88698,1,4,0:0:0:0:
400,96,88763,1,4,0:0:0:0:
352,88,88830,1,4,0:0:0:0:
144,232,88897,5,4,0:0:0:0:
96,216,88964,1,4,0:0:0:0:
64,176,89031,1,4,0:0:0:0:
72,128,89098,1,4,0:0:0:0:
112,96,89164,1,4,0:0:0:0:
160,88,89231,1,4,0:0:0:0:
328,88,89297,6,0,L|384:88,2,56.0000021362306,4|4|4,0:0|0:0|0:0,0:0:0:0:
184,88,89497,2,0,L|128:88,2,56.0000021362306,4|4|4,0:0|0:0|0:0,0:0:0:0:
392,136,89697,5,14,0:0:0:0:
128,248,89897,1,2,0:0:0:0:
80,216,89963,1,2,0:0:0:0:
56,168,90030,1,2,0:0:0:0:
80,112,90097,1,0,0:0:0:0:
136,80,90163,1,0,0:0:0:0:
200,80,90230,1,0,0:0:0:0:
464,136,90297,1,8,0:0:0:0:
152,248,90497,5,2,0:0:0:0:
104,216,90563,1,2,0:0:0:0:
152,184,90630,1,2,0:0:0:0:
360,248,90697,5,0,0:0:0:0:
408,216,90763,1,0,0:0:0:0:
360,184,90830,1,0,0:0:0:0:
64,136,90897,2,0,L|64:312,1,168.000006408692,8|0,0:0|0:0,0:0:0:0:
344,304,91297,6,0,P|400:248|280:128,1,280,6|2,0:0|0:0,0:0:0:0:
249,128,91763,1,4,0:0:0:0:
200,128,91830,1,4,0:0:0:0:
344,128,91897,1,4,0:0:0:0:
392,128,91963,1,4,0:0:0:0:
440,128,92030,1,4,0:0:0:0:
232,48,92097,2,0,L|80:48,1,140,2|0,0:0|0:0,0:0:0:0:
248,48,92397,2,0,P|272:120|160:192,1,210,2|0,0:0|0:0,0:0:0:0:
464,192,92897,6,0,P|408:248|216:248,1,280,2|2,0:0|0:0,0:0:0:0:
384,256,93497,1,4,0:0:0:0:
104,256,93697,2,0,P|48:200|168:80,1,280,8|2,0:0|0:0,0:0:0:0:
336,80,94297,1,4,0:0:0:0:
56,80,94497,1,2,0:0:0:0:
232,80,94697,6,0,P|288:136|168:256,1,280,8|0,0:0|0:0,0:0:0:0:
464,256,95297,2,0,L|312:256,1,140,2|0,0:0|0:0,0:0:0:0:
160,256,95597,2,0,L|392:256,1,210,2|0,0:0|0:0,0:0:0:0:
88,256,96097,5,2,0:0:0:0:
368,256,96297,1,2,0:0:0:0:
200,256,96397,1,2,0:0:0:0:
56,192,96597,1,2,0:0:0:0:
224,192,96697,1,2,0:0:0:0:
392,192,96897,1,2,0:0:0:0:
224,192,96997,1,2,0:0:0:0:
56,192,97097,1,8,0:0:0:0:
392,192,97297,1,8,0:0:0:0:
112,256,97497,1,8,0:0:0:0:
448,256,97697,1,2,0:0:0:0:
168,256,97897,6,0,P|112:200|232:80,1,280,8|0,0:0|0:0,0:0:0:0:
504,80,98497,2,0,L|352:80,1,140,2|0,0:0|0:0,0:0:0:0:
184,80,98797,2,0,P|240:136|376:136,1,210,2|0,0:0|0:0,0:0:0:0:
88,144,99297,6,0,P|32:200|152:320,1,280,2|2,0:0|0:0,0:0:0:0:
320,328,99897,1,4,0:0:0:0:
40,328,100097,2,0,P|16:256|168:168,1,280,8|8,0:0|0:0,0:0:0:0:
240,168,100597,1,8,0:0:0:0:
448,168,100697,2,0,L|376:168,1,70,8|8,0:0|0:0,0:0:0:0:
104,72,100897,5,6,0:0:0:0:
56,88,100963,1,4,0:0:0:0:
24,128,101030,1,4,0:0:0:0:
24,176,101097,1,4,0:0:0:0:
56,216,101163,1,4,0:0:0:0:
104,232,101230,1,4,0:0:0:0:
232,232,101297,1,6,0:0:0:0:
280,232,101363,1,4,0:0:0:0:
328,232,101430,1,4,0:0:0:0:
184,232,101497,1,6,0:0:0:0:
136,232,101563,1,4,0:0:0:0:
88,232,101630,1,4,0:0:0:0:
438,232,101697,5,10,0:0:0:0:
160,232,101897,2,2,L|72:232,1,70,4|8,0:0|0:0,0:0:0:0:
368,232,102197,2,2,L|456:232,1,70,4|8,0:0|0:0,0:0:0:0:
160,232,102497,6,0,L|144:88,1,140,2|0,0:0|0:0,0:0:0:0:
424,232,102897,2,0,L|439:88,1,140,2|0,0:0|0:0,0:0:0:0:
160,96,103297,2,2,L|72:96,1,70
376,96,103597,1,0,0:0:0:0:
88,96,103797,2,2,L|160:96,1,70
440,96,104097,6,0,B|504:96|504:96|360:96|360:96|504:96|504:96|432:96,1,420,4|0,0:0|0:0,0:0:0:0:
152,96,104897,2,0,P|144:168|208:224,1,140,2|0,0:0|0:0,0:0:0:0:
368,216,105197,2,0,P|416:272|312:344,1,210,2|0,0:0|0:0,0:0:0:0:
56,216,105697,6,0,P|112:160|288:256,1,280,2|2,0:0|0:0,0:0:0:0:
112,224,106297,1,4,0:0:0:0:
424,224,106497,2,0,P|480:168|352:80,1,280,2|2,0:0|0:0,0:0:0:0:
176,80,107097,1,4,0:0:0:0:
456,80,107297,1,2,0:0:0:0:
104,80,107497,6,0,P|56:128|184:224,1,280,8|0,0:0|0:0,0:0:0:0:
464,232,108097,2,0,P|472:160|392:128,1,140,2|0,0:0|0:0,0:0:0:0:
208,128,108397,2,0,P|120:120|144:24,1,210,2|0,0:0|0:0,0:0:0:0:
424,256,108897,5,2,0:0:0:0:
144,256,109097,1,2,0:0:0:0:
312,256,109197,1,2,0:0:0:0:
456,192,109397,1,2,0:0:0:0:
288,192,109497,1,2,0:0:0:0:
120,192,109697,1,2,0:0:0:0:
288,192,109797,1,2,0:0:0:0:
456,192,109897,1,8,0:0:0:0:
120,192,110097,1,8,0:0:0:0:
400,256,110297,1,8,0:0:0:0:
64,256,110497,1,2,0:0:0:0:
344,256,110697,6,0,P|400:200|280:80,1,280,8|0,0:0|0:0,0:0:0:0:
88,80,111297,2,0,P|56:152|96:216,1,140,2|0,0:0|0:0,0:0:0:0:
264,208,111597,2,0,L|80:312,1,210,2|0,0:0|0:0,0:0:0:0:
360,320,112097,6,0,P|440:272|328:160,1,280,2|2,0:0|0:0,0:0:0:0:
176,152,112697,1,4,0:0:0:0:
456,152,112897,2,0,P|344:80|192:88,1,280,2|8,0:0|0:0,0:0:0:0:
128,88,113397,1,8,0:0:0:0:
344,88,113497,2,0,L|264:88,1,70,8|8,0:0|0:0,0:0:0:0:
64,88,113697,6,0,L|64:232,1,140,2|4,0:0|0:0,0:0:0:0:
344,232,114097,2,0,L|192:232,1,140,2|2,0:0|0:0,0:0:0:0:
488,232,114497,1,8,0:0:0:0:
72,232,114797,1,8,0:0:0:0:
440,232,115097,1,8,0:0:0:0:
120,232,115297,6,0,L|102:88,1,140,2|0,0:0|0:0,0:0:0:0:
392,232,115697,2,0,L|410:88,1,140,2|0,0:0|0:0,0:0:0:0:
56,96,116097,1,6,0:0:0:0:
408,96,116297,1,4,0:0:0:0:
128,96,116497,1,6,0:0:0:0:
480,96,116697,1,4,0:0:0:0:
200,96,116897,2,0,L|200:152,1,35,12|4,0:0|0:0,0:0:0:0:
