osu file format v14

[General]
AudioFilename: audio.mp3
AudioLeadIn: 0
PreviewTime: 26908
Countdown: 0
SampleSet: Soft
StackLeniency: 0.2
Mode: 0
LetterboxInBreaks: 0
WidescreenStoryboard: 0

[Editor]
DistanceSpacing: 0.5
BeatDivisor: 4
GridSize: 4
TimelineZoom: 1

[Metadata]
Title:MilK
TitleUnicode:MilK
Artist:Morimori Atsushi
ArtistUnicode:モリモリあつし
Creator:ktgster
Version:Special
Source:BMS
Tags:voez
BeatmapID:1489343
BeatmapSetID:704025

[Difficulty]
HPDrainRate:5
CircleSize:5
OverallDifficulty:9
ApproachRate:9.3
SliderMultiplier:3
SliderTickRate:1

[Events]
//Background and Video events
0,0,"milk.jpg",0,0
//Break Periods
//Storyboard Layer 0 (Background)
//Storyboard Layer 1 (Fail)
//Storyboard Layer 2 (Pass)
//Storyboard Layer 3 (Foreground)
//Storyboard Sound Samples

[TimingPoints]
1711,400,4,2,1,50,1,0
1711,-303.030303030303,4,2,1,50,0,0
14511,-250,4,2,0,50,0,0
14911,-133.333333333333,4,2,0,50,0,0
15311,-250,4,2,0,50,0,0
15711,-133.333333333333,4,2,0,50,0,0
16111,-250,4,2,0,50,0,0
16511,-133.333333333333,4,2,0,50,0,0
16911,-250,4,2,0,50,0,0
17311,-133.333333333333,4,2,0,50,0,0
17711,-250,4,2,0,50,0,0
18111,-133.333333333333,4,2,0,50,0,0
18511,-250,4,2,0,50,0,0
18911,-133.333333333333,4,2,0,50,0,0
19311,-250,4,2,0,50,0,0
19711,-133.333333333333,4,2,0,50,0,0
20111,-250,4,2,0,50,0,0
20511,-133.333333333333,4,2,0,50,0,0
20911,-250,4,2,0,60,0,0
21311,-117.647058823529,4,2,0,60,0,0
21711,-250,4,2,0,60,0,0
22111,-117.647058823529,4,2,0,60,0,0
22511,-250,4,2,0,60,0,0
22911,-117.647058823529,4,2,0,60,0,0
23311,-250,4,2,0,60,0,0
23711,-117.647058823529,4,2,0,60,0,0
24111,-250,4,2,0,65,0,0
25711,-28.5714285714286,4,2,2,70,0,0
27311,-100,4,2,0,80,0,1
28111,-66.6666666666667,4,2,0,80,0,1
29711,-200,4,2,0,80,0,1
30711,-66.6666666666667,4,2,0,80,0,1
32311,-200,4,2,0,80,0,1
33711,-100,4,2,0,80,0,1
35311,-83.3333333333333,4,2,0,80,0,1
36111,-200,4,2,0,80,0,1
36911,-28.5714285714286,4,2,0,50,0,0
37511,-40,4,2,0,80,0,1
38311,-58.8235294117647,4,2,0,80,0,1
40111,-1000,4,2,0,60,0,0
40911,-66.6666666666667,4,2,0,80,0,1
42511,-200,4,2,0,80,0,1
43511,-66.6666666666667,4,2,0,80,0,1
45111,-200,4,2,0,80,0,1
46511,-100,4,2,0,80,0,1
48111,-83.3333333333333,4,2,0,80,0,1
48911,-200,4,2,0,80,0,1
49711,-50,4,2,0,70,0,0
50111,-200,4,2,0,70,0,0
50311,-50,4,2,0,70,0,0
50511,-40,4,2,0,90,0,1
51111,-50,4,2,0,90,0,1
52111,-50,4,2,0,100,0,0
52911,-200,4,2,0,70,0,0
64111,-28.5714285714286,4,2,2,70,0,0
65711,-57.1428571428571,4,2,0,90,0,0
70511,-200,4,2,0,70,0,0
72111,-57.1428571428571,4,2,0,90,0,0
76911,-28.5714285714286,4,2,2,70,0,0
78511,-28.5714285714286,4,2,0,70,0,0
78911,-57.1428571428571,4,2,0,90,0,0
83311,-200,4,2,0,70,0,0
84911,-57.1428571428571,4,2,0,85,0,0
86111,-52.6315789473684,4,2,0,90,0,0
87311,-48.780487804878,4,2,0,95,0,0
88511,-45.4545454545455,4,2,0,100,0,0
89711,-28.5714285714286,4,2,2,70,0,0
91311,-100,4,2,0,80,0,1
92111,-66.6666666666667,4,2,0,80,0,1
93711,-200,4,2,0,80,0,1
94711,-66.6666666666667,4,2,0,80,0,1
96311,-200,4,2,0,80,0,1
97711,-100,4,2,0,80,0,1
99311,-83.3333333333333,4,2,0,80,0,1
100111,-200,4,2,0,80,0,1
100911,-28.5714285714286,4,2,0,70,0,0
101711,-40,4,2,0,80,0,1
102311,-58.8235294117647,4,2,0,80,0,1
104111,-1000,4,2,0,70,0,0
104911,-66.6666666666667,4,2,0,80,0,1
106511,-200,4,2,0,80,0,1
107511,-66.6666666666667,4,2,0,80,0,1
109111,-200,4,2,0,80,0,1
110511,-100,4,2,0,80,0,1
112111,-83.3333333333333,4,2,0,80,0,1
112911,-200,4,2,0,80,0,1
113711,-50,4,2,0,70,0,0
114111,-200,4,2,0,70,0,0
114311,-50,4,2,0,70,0,0
114511,-40,4,2,0,90,0,1
115111,-50,4,2,0,90,0,1
116111,-50,4,2,0,100,0,0

[Colours]
Combo1 : 214,214,214
Combo2 : 149,149,149
Combo3 : 255,125,125
Combo4 : 166,210,255

[HitObjects]
59,259,1711,5,10,0:2:0:0:
59,259,2111,2,8,L|53:329,1,49.499999848938,8|8,0:2|0:2,0:0:0:0:
59,259,2511,1,10,0:2:0:0:
59,259,2911,1,8,0:2:0:0:
59,259,3111,1,8,0:2:0:0:
53,334,3311,1,10,0:2:0:0:
59,259,3711,1,8,0:2:0:0:
59,259,3911,1,8,0:2:0:0:
53,334,4111,1,8,0:2:0:0:
62,209,4311,2,8,L|59:259,2,49.499999848938,8|10|8,0:2|0:2|0:2,0:0:0:0:
179,239,4911,5,8,0:2:0:0:
179,239,5111,2,8,L|184:309,1,49.499999848938,10|8,0:2|0:2,0:0:0:0:
241,384,5511,2,8,L|235:313,1,49.499999848938,10|8,0:2|0:2,0:0:0:0:
179,239,5911,2,8,L|184:309,1,49.499999848938,10|8,0:2|0:2,0:0:0:0:
241,384,6311,2,8,L|235:313,1,49.499999848938,10|8,0:2|0:2,0:0:0:0:
179,239,6711,2,8,L|184:309,1,49.499999848938,10|8,0:2|0:2,0:0:0:0:
241,384,7111,2,8,L|235:313,1,49.499999848938,10|8,0:2|0:2,0:0:0:0:
182,288,7511,2,8,P|236:298|290:280,1,98.999999697876,10|8,0:2|0:2,0:0:0:0:
380,205,8111,5,10,0:2:0:0:
380,205,8511,2,8,L|385:134,1,49.499999848938,8|8,0:2|0:2,0:0:0:0:
380,205,8911,1,10,0:2:0:0:
380,205,9311,1,8,0:2:0:0:
380,205,9511,1,8,0:2:0:0:
386,130,9711,1,10,0:2:0:0:
380,205,10111,1,8,0:2:0:0:
380,205,10311,1,8,0:2:0:0:
386,130,10511,1,8,0:2:0:0:
376,254,10711,2,8,L|379:204,2,49.499999848938,8|10|8,0:2|0:2|0:2,0:0:0:0:
260,225,11311,5,8,0:2:0:0:
260,225,11511,2,8,L|254:154,1,49.499999848938,10|8,0:2|0:2,0:0:0:0:
198,80,11911,1,10,0:2:0:0:
198,80,12111,1,8,0:2:0:0:
198,80,12311,2,8,L|203:150,1,49.499999848938,10|8,0:2|0:2,0:0:0:0:
260,225,12711,2,8,L|254:154,1,49.499999848938,10|8,0:2|0:2,0:0:0:0:
198,80,13111,2,8,L|204:151,1,49.499999848938,8|8,0:2|0:2,0:0:0:0:
198,80,13711,5,8,0:2:0:0:
198,80,13911,1,8,0:2:0:0:
198,80,14111,1,8,0:2:0:0:
198,80,14311,1,8,0:2:0:0:
79,159,14511,6,0,P|59:196|66:261,1,90,4|0,1:0|0:2,0:0:0:0:
90,274,14911,2,0,L|221:266,1,112.500004291535,0|0,1:2|0:2,0:0:0:0:
365,181,15311,6,0,P|328:161|263:168,1,90,2|0,1:2|0:2,0:0:0:0:
238,176,15711,2,0,L|245:44,1,112.500004291535,0|0,1:2|0:2,0:0:0:0:
443,20,16111,6,0,P|463:57|456:122,1,90,4|0,1:2|0:2,0:0:0:0:
445,145,16511,2,0,L|452:276,1,112.500004291535,0|0,1:2|0:2,0:0:0:0:
376,346,16911,5,0,1:2:0:0:
284,247,17111,2,0,L|350:254,2,60,0|2|0,0:2|1:2|0:2,0:0:0:0:
68,348,17711,6,0,P|114:330|156:331,1,90,0|0,1:2|0:2,0:0:0:0:
198,336,18111,2,0,B|211:282|211:282|194:207,1,112.500004291535,0|2,1:2|0:2,0:0:0:0:
26,183,18511,6,0,P|25:216|34:245,1,60,0|2,1:2|0:2,0:0:0:0:
196,105,18911,2,0,L|80:90,1,112.500004291535,0|2,1:2|0:2,0:0:0:0:
273,171,19311,6,0,P|306:171|335:163,1,60,0|2,1:2|0:2,0:0:0:0:
130,182,19711,2,0,B|117:237|117:237|136:301,1,112.500004291535,0|2,1:2|0:2,0:0:0:0:
316,341,20111,2,0,P|316:307|308:279,1,60,0|2,1:2|0:2,0:0:0:0:
214,351,20511,1,8,0:2:0:0:
397,376,20711,1,0,0:2:0:0:
397,376,20811,1,0,0:2:0:0:
459,320,20911,6,0,L|463:227,1,90,4|0,1:0|1:2,0:0:0:0:
426,194,21311,6,0,L|422:275,1,63.7500012159348,0|0,1:2|0:2,0:0:0:0:
499,171,21511,2,0,L|495:252,1,63.7500012159348,0|0,0:2|1:2,0:0:0:0:
321,305,21711,6,0,L|325:212,1,90,2|0,1:2|1:2,0:0:0:0:
288,179,22111,6,0,L|284:260,1,63.7500012159348,0|0,1:2|0:2,0:0:0:0:
361,156,22311,2,0,L|357:237,1,63.7500012159348,0|0,1:2|0:2,0:0:0:0:
214,351,22511,6,0,L|212:310,1,30,4|0,1:0|0:2,0:0:0:0:
113,273,22711,2,0,L|111:313,1,30,0|0,1:2|0:2,0:0:0:0:
237,243,22911,6,0,L|233:161,1,63.7500012159348,0|0,1:2|0:2,0:0:0:0:
94,128,23111,2,0,L|90:209,1,63.7500012159348,0|0,1:2|0:2,0:0:0:0:
192,68,23311,1,4,1:0:0:0:
192,68,23511,6,0,L|190:108,1,30,0|0,1:2|0:2,0:0:0:0:
280,81,23711,2,0,B|288:51|288:51|276:-1,1,63.7500012159348,2|0,1:2|0:2,0:0:0:0:
103,19,23911,2,0,B|96:51|96:51|104:81,1,63.7500012159348,0|0,1:2|0:2,0:0:0:0:
188,183,24111,5,4,1:0:0:0:
188,183,24211,1,0,1:2:0:0:
188,183,24311,1,0,1:2:0:0:
188,183,24411,1,0,1:2:0:0:
324,225,24511,1,4,1:0:0:0:
324,225,24611,1,0,1:2:0:0:
324,225,24711,1,0,1:2:0:0:
324,225,24811,1,0,1:2:0:0:
188,267,24911,1,4,1:0:0:0:
188,267,25011,1,0,1:2:0:0:
188,267,25111,1,0,1:2:0:0:
188,267,25211,1,0,1:2:0:0:
324,309,25311,1,4,1:0:0:0:
324,309,25411,1,0,1:2:0:0:
324,309,25511,1,0,1:2:0:0:
324,309,25611,1,0,1:2:0:0:
172,358,25711,6,0,B|188:382|148:370|160:334|204:350|188:394|148:402|120:378|112:315|185:282|231:339|226:405|137:410|134:311,7,175.00000166893,8|0|0|0|0|0|0|0,3:2|3:2|3:2|3:2|3:2|3:2|3:2|3:2,0:0:0:0:
267,209,26311,6,0,B|251:185|291:197|279:233|235:217|251:173|291:165|319:189|327:252|254:285|208:228|213:162|302:157|305:256,7,175.00000166893,8|0|0|0|0|0|0|0,3:2|3:2|3:2|3:2|3:2|3:2|3:2|3:2,0:0:0:0:
256,320,26911,5,0,0:2:0:0:
256,320,27111,1,0,0:2:0:0:
104,140,27311,6,0,B|184:76|257:125|324:184|424:76,1,300,4|0,1:0|0:2,0:0:0:0:
400,90,27777,1,0,0:2:0:0:
403,70,27844,1,0,0:2:0:0:
396,50,27911,1,0,0:2:0:0:
383,34,27977,1,0,0:2:0:0:
363,28,28044,1,0,0:2:0:0:
342,29,28111,6,0,B|236:64|280:248|428:184|428:184|432:331|228:356|167:228|167:228|161:180,1,675.000025749207,14|0,1:2|0:2,0:0:0:0:
0,19,28911,6,0,B|31:314|31:314|83:355|83:355|122:4,1,675.000025749207,2|0,0:2|1:2,0:0:0:0:
348,175,29711,6,0,P|292:166|201:216,1,150,8|0,0:2|0:2,0:0:0:0:
159,319,30311,1,0,0:2:0:0:
117,44,30511,5,0,1:2:0:0:
352,358,30711,2,0,B|500:350|500:350|505:254|430:223|344:267|344:267|320:233|386:128|386:128,1,450.000017166138,2|0,0:2|0:2,0:0:0:0:
179,28,31311,6,0,B|342:46|342:46|280:147|155:158|155:158|171:44,2,450.000017166138,10|0|2,0:2|0:2|1:2,0:0:0:0:
0,149,32311,5,2,3:0:0:0:
19,145,32411,2,0,L|79:133,1,37.5,0|0,3:2|0:2,0:0:0:0:
185,251,32611,5,2,3:0:0:0:
166,247,32711,2,0,L|106:235,1,37.5,2|0,1:2|0:2,0:0:0:0:
40,310,32911,5,2,3:0:0:0:
43,290,33011,1,0,3:2:0:0:
47,271,33111,5,0,1:2:0:0:
47,271,33311,1,0,1:2:0:0:
47,271,33511,1,0,1:2:0:0:
173,363,33711,5,4,1:0:0:0:
392,339,33911,2,0,B|456:259|407:186|348:119|456:19,1,300,0|0,0:2|0:2,0:0:0:0:
188,283,34511,2,0,P|299:249|306:132,1,225,10|0,0:2|0:2,0:0:0:0:
90,53,34911,2,0,P|114:158|218:184,1,225,0|0,0:2|0:2,0:0:0:0:
432,122,35311,6,0,B|509:132|510:249|510:249|318:203|350:369|155:328,1,539.999983520508,2|0,0:2|1:2,0:0:0:0:
16,225,36111,6,0,P|57:260|41:358,1,150,8|0,0:2|0:2,0:0:0:0:
49,349,36711,1,0,0:2:0:0:
164,180,36911,6,0,B|188:164|176:204|140:192|156:148|200:164|208:204|184:232|121:240|88:167|145:121|211:126|216:215|117:218,12,131.250001251698,0|0|0|0|0|0|0|0|0|0|0|0|0,0:2|0:2|0:2|0:2|0:2|0:2|0:2|0:2|0:2|0:2|0:2|0:2|1:2,0:0:0:0:
198,268,37611,1,0,1:2:0:0:
198,268,37711,6,0,B|497:253|497:253|325:202,1,375,4|0,1:0|0:2,0:0:0:0:
285,351,38011,2,0,B|-14:336|-14:336|158:285,1,375,4|0,1:0|0:2,0:0:0:0:
406,149,38311,6,0,B|149:158|149:158|119:19|119:19|261:6|323:24|439:348|58:314,1,1020.00001945496,4|2,1:0|3:0,0:0:0:0:
9,78,39311,5,2,3:0:0:0:
9,78,39411,1,2,3:0:0:0:
28,232,39611,1,2,3:0:0:0:
9,78,39811,1,2,3:0:0:0:
9,78,39911,1,2,3:0:0:0:
28,232,40111,6,0,L|21:176,1,52.5,2|0,0:2|0:2,0:0:0:0:
21,168,40911,6,0,B|97:16|97:16|161:172|161:172|225:16|225:16|325:216,1,675.000025749207,4|0,1:0|0:2,0:0:0:0:
456,384,41711,6,0,B|456:72|456:72|416:48|416:48|412:436,1,675.000025749207,2|0,0:2|1:2,0:0:0:0:
111,318,42511,6,0,P|163:286|271:286,1,150,8|0,0:2|0:2,0:0:0:0:
317,348,43111,1,0,0:2:0:0:
28,267,43311,5,0,1:2:0:0:
94,53,43511,2,0,B|117:367|117:367|251:362,1,450.000017166138,2|0,0:2|0:2,0:0:0:0:
473,69,44111,6,0,B|288:194|288:194|511:301,2,450.000017166138,10|0|2,0:2|0:2|1:2,0:0:0:0:
298,362,45111,5,2,3:0:0:0:
297,343,45211,2,0,L|293:290,1,37.5,0|0,3:2|0:2,0:0:0:0:
276,25,45411,5,2,3:0:0:0:
277,44,45511,2,0,L|281:97,1,37.5,2|0,1:2|0:2,0:0:0:0:
288,194,45711,5,2,3:0:0:0:
268,191,45811,1,0,3:2:0:0:
249,187,45911,5,0,1:2:0:0:
249,187,46111,1,0,1:2:0:0:
249,187,46311,1,0,1:2:0:0:
97,358,46511,5,4,1:0:0:0:
232,39,46711,2,0,B|296:119|247:192|188:259|296:359,1,300,0|0,0:2|0:2,0:0:0:0:
468,91,47311,2,0,P|374:96|452:146,1,225,8|0,0:2|0:2,0:0:0:0:
336,267,47711,2,0,P|430:272|352:322,1,225,0|0,0:2|0:2,0:0:0:0:
149,379,48111,6,0,B|4:351|4:351|102:155|215:250|315:221|332:100,1,539.999983520508,2|0,0:2|1:2,0:0:0:0:
71,20,48911,6,0,P|36:76|57:178,1,150,8|0,0:2|0:2,0:0:0:0:
167,308,49511,1,0,0:2:0:0:
348,374,49711,6,0,L|521:351,1,150,2|0,0:2|0:2,0:0:0:0:
167,308,49911,2,0,L|-6:285,1,150,0|0,0:2|0:2,0:0:0:0:
398,229,50111,6,0,P|406:254|403:289,1,37.5,0|0,0:2|0:2,0:0:0:0:
97,187,50311,6,0,B|76:116|76:116|107:36,1,150,2|0,1:2|0:2,0:0:0:0:
464,100,50511,6,0,B|165:115|165:115|337:166,1,375,4|0,1:0|0:2,0:0:0:0:
21,227,50811,2,0,B|320:242|320:242|148:293,1,375,4|0,1:0|0:2,0:0:0:0:
105,352,51111,6,0,P|165:26|401:344,1,900,4|0,1:0|1:2,0:0:0:0:
274,384,51911,1,0,0:2:0:0:
105,352,52111,6,0,B|393:268|393:268|101:192|101:192|509:77,1,900,0|0,0:2|0:2,0:0:0:0:
476,336,52911,6,0,L|407:327,1,50,4|0,1:0|0:2,0:0:0:0:
417,338,53111,2,0,L|348:329,1,50,0|0,0:2|0:2,0:0:0:0:
358,340,53311,2,0,L|289:331,1,50,0|0,1:2|0:2,0:0:0:0:
299,342,53511,2,0,L|230:333,1,37.5,0|0,0:2|0:2,0:0:0:0:
371,253,53711,6,0,L|302:244,1,50,2|0,1:2|0:2,0:0:0:0:
312,255,53911,2,0,L|243:246,1,50,0|0,0:2|0:2,0:0:0:0:
253,257,54111,2,0,L|184:248,1,50,0|0,1:2|0:2,0:0:0:0:
194,259,54311,2,0,L|125:250,1,37.5,0|0,0:2|0:2,0:0:0:0:
39,169,54511,6,0,L|89:176,1,50,2|0,1:2|0:2,0:0:0:0:
98,167,54711,2,0,L|148:174,1,50,0|0,0:2|0:2,0:0:0:0:
157,165,54911,2,0,L|207:172,1,50,0|0,1:2|0:2,0:0:0:0:
216,163,55111,2,0,L|266:170,1,50,0|0,0:2|0:0,0:0:0:0:
275,161,55311,2,0,L|324:167,1,50,0|0,1:0|0:2,0:0:0:0:
334,159,55511,2,0,L|383:165,1,50,0|0,0:2|0:2,0:0:0:0:
416,53,55711,2,0,P|394:62|376:85,1,50,2|0,1:2|0:2,0:0:0:0:
510,160,55911,2,0,P|487:150|471:131,1,50,0|0,0:2|0:0,0:0:0:0:
444,238,56111,6,0,L|450:287,1,50,0|0,1:0|0:2,0:0:0:0:
442,297,56311,2,0,L|448:346,1,50,2|0,0:2|0:2,0:0:0:0:
361,228,56511,6,0,L|367:277,1,50,0|0,1:2|0:2,0:0:0:0:
288,298,56711,2,0,L|294:347,1,50,2|0,0:2|0:0,0:0:0:0:
207,229,56911,6,0,L|213:278,1,50,0|0,1:0|0:2,0:0:0:0:
140,348,57111,2,0,L|134:299,1,50,2|0,0:2|0:2,0:0:0:0:
229,201,57311,2,0,L|235:250,1,50,0|0,1:2|0:2,0:0:0:0:
118,376,57511,2,0,L|112:327,1,50,2|0,0:2|0:0,0:0:0:0:
112,183,57711,6,0,L|118:232,1,50,0|0,1:0|0:2,0:0:0:0:
45,302,57911,2,0,L|39:253,1,50,2|0,0:2|0:2,0:0:0:0:
134,155,58111,2,0,L|140:204,1,50,0|0,1:2|0:2,0:0:0:0:
23,330,58311,2,0,L|17:281,1,50,2|0,0:2|0:0,0:0:0:0:
207,229,58511,6,0,L|213:278,1,50,0|0,1:0|0:2,0:0:0:0:
140,348,58711,2,0,L|134:299,1,50,2|0,0:2|0:2,0:0:0:0:
229,201,58911,2,0,L|235:250,1,50,8|0,1:2|0:2,0:0:0:0:
118,376,59111,2,0,L|112:327,1,37.5,0|0,0:2|0:2,0:0:0:0:
255,355,59311,6,0,P|310:342|382:353,1,112.5,4|0,1:0|1:0,0:0:0:0:
383,349,59711,2,0,L|387:299,1,37.5,0|0,1:2|0:0,0:0:0:0:
398,214,59911,1,0,0:2:0:0:
398,214,60011,1,0,1:0:0:0:
330,256,60111,6,0,P|275:269|203:258,1,112.5,2|0,1:2|1:0,0:0:0:0:
201,262,60511,2,0,L|197:312,1,37.5,0|0,1:2|0:0,0:0:0:0:
122,251,60711,2,0,L|118:201,1,37.5,0|0,1:2|0:0,0:0:0:0:
254,129,60911,6,0,L|304:125,1,37.5,4|0,1:0|0:0,0:0:0:0:
204,45,61111,2,0,L|254:49,1,37.5,0|0,1:2|0:0,0:0:0:0:
151,123,61311,1,0,1:2:0:0:
133,115,61411,1,0,0:0:0:0:
114,113,61511,1,0,1:2:0:0:
95,115,61611,1,0,0:0:0:0:
11,165,61711,6,0,L|15:215,1,37.5,4|0,1:0|0:0,0:0:0:0:
98,223,61911,2,0,L|94:273,1,37.5,0|0,1:2|0:0,0:0:0:0:
3,337,62111,1,2,1:2:0:0:
21,329,62211,1,0,0:0:0:0:
40,327,62311,1,0,1:2:0:0:
247,260,62511,5,4,1:0:0:0:
247,260,62611,1,0,1:2:0:0:
247,260,62711,1,0,1:2:0:0:
247,260,62811,1,0,1:2:0:0:
289,124,62911,1,4,1:0:0:0:
289,124,63011,1,0,1:2:0:0:
289,124,63111,1,0,1:2:0:0:
289,124,63211,1,0,1:2:0:0:
331,260,63311,1,4,1:0:0:0:
331,260,63411,1,0,1:2:0:0:
331,260,63511,1,0,1:2:0:0:
331,260,63611,1,0,1:2:0:0:
373,124,63711,1,4,1:0:0:0:
373,124,63811,1,0,1:2:0:0:
373,124,63911,1,0,1:2:0:0:
373,124,64011,1,0,1:2:0:0:
433,299,64111,6,0,B|449:323|409:311|421:275|465:291|449:335|409:343|381:319|373:256|446:223|492:280|487:346|398:351|395:252,7,175.00000166893,8|0|0|0|0|0|0|0,3:2|3:2|3:2|3:2|3:2|3:2|3:2|3:2,0:0:0:0:
354,191,64711,6,0,B|370:167|330:179|342:215|386:199|370:155|330:147|302:171|294:234|367:267|413:210|408:144|319:139|316:238,7,175.00000166893,8|0|0|0|0|0|0|0,3:2|3:2|3:2|3:2|3:2|3:2|3:2|3:2,0:0:0:0:
488,192,65311,5,2,0:2:0:0:
488,192,65411,1,2,0:2:0:0:
488,192,65511,1,2,0:2:0:0:
488,192,65611,1,2,0:2:0:0:
444,336,65711,6,0,B|256:292|256:292|0:356,4,393.750003755093,4|0|0|0|0,1:0|1:2|1:2|1:2|1:2,0:0:0:0:
256,192,67111,1,0,1:2:0:0:
68,48,67311,2,0,B|256:92|256:92|512:28,4,393.750003755093,0|0|0|0|0,1:2|1:2|1:2|1:2|1:2,0:0:0:0:
444,180,68911,6,0,B|256:224|256:224|0:160,4,393.750003755093,0|0|0|0|0,1:2|1:2|1:2|1:2|1:2,0:0:0:0:
256,360,70311,1,0,1:2:0:0:
256,360,70411,1,0,0:2:0:0:
180,324,70511,6,0,L|92:340,1,75,4|0,0:2|3:2,0:0:0:0:
33,354,70911,1,8,3:2:0:0:
33,354,71111,1,0,3:2:0:0:
0,240,71311,1,0,3:2:0:0:
130,266,71511,1,0,3:2:0:0:
55,178,71711,5,2,0:2:0:0:
55,178,71811,1,2,0:2:0:0:
55,178,71911,1,2,0:2:0:0:
55,178,72011,1,2,0:2:0:0:
145,64,72111,6,0,B|242:55|242:55|290:122|370:77|370:77|446:38|515:100,4,393.750003755093,4|0|0|0|0,1:0|1:2|1:2|1:2|1:2,0:0:0:0:
429,153,73511,1,0,1:2:0:0:
367,320,73711,2,0,B|270:329|270:329|222:262|142:307|142:307|66:346|-3:284,4,393.750003755093,0|0|0|0|0,1:2|1:2|1:2|1:2|1:2,0:0:0:0:
509,95,75311,6,0,B|446:38|370:77|370:77|290:122|242:55|242:55|145:64,4,393.750003755093,0|0|0|0|0,1:2|1:2|1:2|1:2|1:2,0:0:0:0:
335,209,76711,1,0,1:2:0:0:
335,209,76811,1,0,0:2:0:0:
256,189,76911,6,0,B|280:173|268:213|232:201|248:157|292:173|300:213|276:241|213:249|180:176|237:130|303:135|308:224|209:227,7,175.00000166893,8|0|0|0|0|0|0|0,3:2|3:2|3:2|3:2|3:2|3:2|3:2|3:2,0:0:0:0:
283,310,77511,6,0,B|284:338|256:308|284:283|314:319|278:349|240:336|227:301|252:242|332:250|343:323|306:377|226:337|273:250,7,175.00000166893,8|0|0|0|0|0|0|0,3:2|3:2|3:2|3:2|3:2|3:2|3:2|3:2,0:0:0:0:
164,272,78111,6,0,B|138:259|178:249|186:286|140:294|132:248|162:221|199:228|237:279|190:344|122:317|93:258|168:209|220:293,6,175.00000166893,8|0|0|0|0|0|8,3:2|3:2|3:2|3:2|3:2|3:2|3:2,0:0:0:0:
30,53,78911,6,0,B|87:177|8:314|8:314|75:306|126:355,2,393.750003755093,4|0|0,1:0|1:2|1:2,0:0:0:0:
249,129,79711,2,0,P|243:64|218:4,1,131.250001251698,0|0,1:2|0:2,0:0:0:0:
155,227,79911,2,0,P|220:233|280:257,1,131.250001251698,0|0,1:2|0:2,0:0:0:0:
392,349,80111,6,0,B|437:306|504:314|504:314|425:177|482:53,4,393.750003755093,0|0|0|0|0,1:2|1:2|1:2|1:2|1:2,0:0:0:0:
34,348,81711,6,0,B|77:303|69:236|69:236|206:315|330:258,4,393.750003755093,0|0|0|0|0,1:2|1:2|1:2|1:2|1:2,0:0:0:0:
234,191,83111,1,0,1:2:0:0:
234,191,83211,1,0,0:2:0:0:
307,176,83311,6,0,L|323:88,1,75,4|0,0:2|0:2,0:0:0:0:
337,29,83711,1,8,3:2:0:0:
337,29,83911,1,0,3:2:0:0:
417,94,84111,1,0,3:2:0:0:
391,221,84311,1,0,3:2:0:0:
500,192,84511,5,2,0:2:0:0:
500,192,84611,1,2,0:2:0:0:
500,192,84711,1,2,0:2:0:0:
500,192,84811,1,2,0:2:0:0:
402,346,84911,6,0,L|70:332,1,262.500002503395,4|0,1:0|0:2,0:0:0:0:
113,334,85211,6,0,L|445:320,1,262.500002503395,0|0,1:2|0:2,0:0:0:0:
402,322,85511,6,0,L|70:308,1,262.500002503395,0|0,1:2|0:2,0:0:0:0:
113,310,85811,6,0,L|445:296,1,262.500002503395,0|0,1:2|0:2,0:0:0:0:
402,298,86111,6,0,L|70:284,1,284.999992389679,0|0,1:2|0:0,0:0:0:0:
88,282,86411,6,0,L|420:268,1,284.999992389679,0|0,1:2|0:0,0:0:0:0:
402,266,86711,6,0,L|70:252,1,284.999992389679,0|0,1:2|0:0,0:0:0:0:
88,250,87011,6,0,L|420:236,1,284.999992389679,0|0,1:2|0:0,0:0:0:0:
402,234,87311,6,0,L|70:220,1,307.500004692078,0|0,1:2|0:0,0:0:0:0:
64,219,87611,6,0,L|396:205,1,307.500004692078,0|0,1:2|0:0,0:0:0:0:
402,204,87911,6,0,L|70:190,1,307.500004692078,0|0,1:2|0:0,0:0:0:0:
64,189,88211,6,0,L|396:175,1,307.500004692078,0|0,1:2|0:0,0:0:0:0:
402,174,88511,6,0,L|70:160,1,330.000010070801,0|0,1:2|0:0,0:0:0:0:
39,156,88811,6,0,L|371:142,1,330.000010070801,0|0,1:2|0:0,0:0:0:0:
402,138,89111,6,0,L|70:124,1,330.000010070801,0|0,1:2|0:0,0:0:0:0:
39,120,89411,6,0,L|371:106,1,330.000010070801,0|0,1:2|0:0,0:0:0:0:
476,94,89711,6,0,B|492:118|452:106|464:70|508:86|492:130|452:138|424:114|416:51|489:18|535:75|530:141|441:146|438:47,7,175.00000166893,8|0|0|0|0|0|0|0,3:2|3:2|3:2|3:2|3:2|3:2|3:2|3:2,0:0:0:0:
413,194,90311,6,0,B|397:170|437:182|425:218|381:202|397:158|437:150|465:174|473:237|400:270|354:213|359:147|448:142|451:241,7,175.00000166893,8|0|0|0|0|0|0|0,3:2|3:2|3:2|3:2|3:2|3:2|3:2|3:2,0:0:0:0:
465,309,90911,5,0,0:2:0:0:
465,309,91111,1,0,0:2:0:0:
173,373,91311,6,0,B|109:293|158:220|217:153|109:53,1,300,4|0,1:0|0:2,0:0:0:0:
123,77,91777,1,0,0:2:0:0:
103,74,91844,1,0,0:2:0:0:
83,81,91911,1,0,0:2:0:0:
67,94,91977,1,0,0:2:0:0:
61,114,92044,1,0,0:2:0:0:
58,136,92111,6,0,B|114:234|170:175|170:175|276:285|357:249|399:191|403:130|332:-1|181:44|147:95|124:289|346:266|281:200,1,675.000025749207,12|0,1:2|0:2,0:0:0:0:
498,215,92911,6,0,B|414:255|425:337|425:337|322:256|232:366|232:366|189:243|41:236|-12:368,1,675.000025749207,2|0,0:2|1:2,0:0:0:0:
116,114,93711,6,0,P|69:172|68:122,1,150,8|0,0:2|0:2,0:0:0:0:
217,209,94311,1,0,0:2:0:0:
0,225,94511,5,0,1:2:0:0:
430,306,94711,2,0,B|422:158|422:158|326:153|295:228|339:314|339:314|305:338|200:272|200:272,1,450.000017166138,2|0,0:2|0:2,0:0:0:0:
104,44,95311,6,0,B|40:136|40:136|132:104|148:144|168:196|268:136|268:136|196:32,2,450.000017166138,10|0|2,0:2|0:2|1:2,0:0:0:0:
368,16,96311,5,2,3:0:0:0:
372,35,96411,2,0,L|384:95,1,37.5,0|0,3:2|0:2,0:0:0:0:
175,300,96611,5,2,3:0:0:0:
179,281,96711,2,0,L|191:221,1,37.5,2|0,1:2|0:2,0:0:0:0:
413,234,96911,1,2,3:0:0:0:
393,237,97011,1,0,3:2:0:0:
374,241,97111,5,0,1:2:0:0:
374,241,97311,1,0,1:2:0:0:
374,241,97511,1,0,1:2:0:0:
21,198,97711,5,4,1:0:0:0:
348,119,97911,2,0,B|268:55|195:104|128:163|28:55,1,300,0|0,0:2|0:2,0:0:0:0:
99,345,98511,2,0,B|124:194|124:194|154:274,1,225,8|0,0:2|0:2,0:0:0:0:
284,273,98911,2,0,B|259:206|259:206|234:357,1,225,0|0,0:2|0:2,0:0:0:0:
443,348,99311,6,0,B|369:273|445:189|445:189|343:174|343:174|314:104|314:104|419:121|509:44,1,539.999983520508,2|0,0:2|1:2,0:0:0:0:
184,148,100111,6,0,P|225:113|209:15,1,150,8|0,0:2|0:2,0:0:0:0:
217,24,100711,1,0,0:2:0:0:
92,153,100911,6,0,B|116:169|104:129|68:141|84:185|128:169|136:129|112:101|49:93|16:166|73:212|139:207|144:118|45:115,12,131.250001251698,0|0|0|0|0|0|0|0|0|0|0|0|0,0:2|0:2|0:2|0:2|0:2|0:2|0:2|0:2|0:2|0:2|0:2|0:2|1:2,0:0:0:0:
184,148,101611,1,0,1:2:0:0:
184,148,101711,6,0,B|483:133|483:133|311:82,1,375,4|0,1:0|0:2,0:0:0:0:
283,278,102011,2,0,B|-16:263|-16:263|156:212,1,375,4|0,1:0|0:2,0:0:0:0:
172,7,102311,6,0,B|190:196|190:196|18:201|0:65|0:65|195:126|404:74|404:74|350:163|426:284,1,1020.00001945496,4|2,1:0|3:0,0:0:0:0:
295,370,103311,5,2,3:0:0:0:
295,370,103411,1,2,3:0:0:0:
314,216,103611,1,2,3:0:0:0:
295,370,103811,1,2,3:0:0:0:
295,370,103911,1,2,3:0:0:0:
314,216,104111,6,0,L|307:272,1,52.5,2|0,0:2|0:2,0:0:0:0:
305,279,104911,6,0,B|10:248|10:248|-31:196|-31:196|320:157,1,675.000025749207,4|0,1:0|0:2,0:0:0:0:
492,88,105711,6,0,B|346:225|434:340|434:340|543:254|435:160|435:160|351:129|334:32,1,675.000025749207,2|0,0:2|1:2,0:0:0:0:
220,192,106511,6,0,P|267:250|268:200,1,150,8|0,0:2|0:2,0:0:0:0:
269,114,107111,1,0,0:2:0:0:
213,351,107311,5,0,1:2:0:0:
32,52,107511,2,0,B|140:64|140:64|136:116|48:136|48:136|104:204|104:204|72:248|72:248|84:332,1,450.000017166138,2|0,0:2|0:2,0:0:0:0:
296,168,108111,6,0,B|392:212|392:212|188:240|216:352|216:352|268:332|280:280,2,450.000017166138,10|0|2,0:2|0:2|1:2,0:0:0:0:
376,364,109111,5,2,3:0:0:0:
375,345,109211,2,0,L|371:292,1,37.5,0|0,3:2|0:2,0:0:0:0:
120,260,109411,5,2,3:0:0:0:
121,279,109511,2,0,L|125:332,1,37.5,0|0,1:2|0:2,0:0:0:0:
296,168,109711,5,2,3:0:0:0:
276,165,109811,1,0,3:2:0:0:
257,161,109911,5,0,1:2:0:0:
257,161,110111,1,0,1:2:0:0:
257,161,110311,1,0,1:2:0:0:
460,108,110511,5,4,1:0:0:0:
184,36,110711,2,0,B|120:116|169:189|228:256|120:356,1,300,0|0,0:2|0:2,0:0:0:0:
340,366,111311,2,0,B|492:354|492:354|382:318,1,225,8|0,0:2|0:2,0:0:0:0:
345,127,111711,2,0,B|357:279|357:279|393:169,1,225,0|0,0:2|0:2,0:0:0:0:
442,78,112111,6,0,B|328:24|328:24|256:78|186:25|186:25|150:73|150:73|113:16|68:26|68:26|83:86|8:156,1,539.999983520508,2|0,0:2|1:2,0:0:0:0:
304,227,112911,6,0,P|248:192|146:213,1,150,8|0,0:2|0:2,0:0:0:0:
356,156,113511,1,0,0:2:0:0:
164,374,113711,6,0,L|-9:351,1,150,2|0,0:2|0:2,0:0:0:0:
345,308,113911,2,0,L|518:285,1,150,0|0,0:2|0:2,0:0:0:0:
114,229,114111,6,0,P|106:254|109:289,1,37.5,0|0,0:2|0:2,0:0:0:0:
415,187,114311,6,0,B|436:116|436:116|405:36,1,150,2|0,1:2|0:2,0:0:0:0:
48,100,114511,6,0,B|347:115|347:115|175:166,1,375,4|0,1:0|0:2,0:0:0:0:
491,227,114811,2,0,B|192:242|192:242|364:293,1,375,4|0,1:0|0:2,0:0:0:0:
407,352,115111,6,0,P|347:26|111:344,1,900,4|0,1:0|1:2,0:0:0:0:
238,384,115911,1,0,0:2:0:0:
407,352,116111,6,0,B|119:268|119:268|411:192|411:192|3:77,1,900,0|0,0:2|0:2,0:0:0:0:
512,30,116911,5,2,0:2:0:0:
