osu file format v14

[General]
AudioFilename: audio.mp3
AudioLeadIn: 0
PreviewTime: 26908
Countdown: 0
SampleSet: Soft
StackLeniency: 0.2
Mode: 0
LetterboxInBreaks: 0
WidescreenStoryboard: 1

[Editor]
DistanceSpacing: 1
BeatDivisor: 4
GridSize: 4
TimelineZoom: 1

[Metadata]
Title:MilK
TitleUnicode:MilK
Artist:Morimori Atsushi
ArtistUnicode:モリモリあつし
Creator:ktgster
Version:Hard
Source:BMS
Tags:voez
BeatmapID:1493724
BeatmapSetID:704025

[Difficulty]
HPDrainRate:3.5
CircleSize:4
OverallDifficulty:6
ApproachRate:7.3
SliderMultiplier:1.6
SliderTickRate:1

[Events]
//Background and Video events
0,0,"milk.jpg",0,0
//Break Periods
//Storyboard Layer 0 (Background)
//Storyboard Layer 1 (Fail)
//Storyboard Layer 2 (Pass)
//Storyboard Layer 3 (Foreground)
//Storyboard Sound Samples

[TimingPoints]
1711,400,4,2,1,50,1,0
1711,-166.666666666667,4,2,1,50,0,0
20911,-166.666666666667,4,2,0,60,0,0
25711,-125,4,2,2,70,0,0
27311,-90.9090909090909,4,2,0,80,0,1
37511,-66.6666666666667,4,2,0,80,0,1
38311,-90.9090909090909,4,2,0,80,0,1
40111,-90.9090909090909,4,2,0,60,0,0
40911,-90.9090909090909,4,2,0,80,0,1
50511,-66.6666666666667,4,2,0,90,0,1
51311,-90.9090909090909,4,2,0,90,0,1
52111,-100,4,2,0,100,0,0
52911,-111.111111111111,4,2,0,70,0,0
65711,-83.3333333333333,4,2,0,90,0,0
70511,-100,4,2,0,70,0,0
72111,-83.3333333333333,4,2,0,90,0,0
76911,-100,4,2,2,70,0,0
78511,-28.5714285714286,4,2,0,70,0,0
78911,-83.3333333333333,4,2,0,90,0,0
83311,-100,4,2,0,70,0,0
84911,-66.6666666666667,4,2,0,85,0,0
86111,-60.6060606060606,4,2,0,90,0,0
87311,-55.5555555555556,4,2,0,95,0,0
88511,-51.2820512820513,4,2,0,100,0,0
89711,-125,4,2,2,70,0,0
91311,-90.9090909090909,4,2,0,80,0,1
101511,-66.6666666666667,4,2,0,80,0,1
102311,-90.9090909090909,4,2,0,80,0,1
104111,-90.9090909090909,4,2,0,60,0,0
104911,-90.9090909090909,4,2,0,80,0,1
114511,-66.6666666666667,4,2,0,90,0,1
115311,-90.9090909090909,4,2,0,90,0,1
116111,-100,4,2,0,100,0,0

[Colours]
Combo1 : 214,214,214
Combo2 : 149,149,149
Combo3 : 255,125,125
Combo4 : 166,210,255

[HitObjects]
97,130,1711,5,10,0:2:0:0:
97,130,2511,1,10,0:2:0:0:
97,130,3311,1,10,0:2:0:0:
97,130,4311,2,0,L|105:197,2,47.9999985351563,8|10|8,0:2|0:2|0:2,0:0:0:0:
154,72,4911,6,0,P|190:64|259:100,1,95.9999970703126,8|8,0:2|0:2,0:0:0:0:
300,142,5511,1,10,0:2:0:0:
300,223,5711,2,0,L|300:282,2,47.9999985351563,8|10|8,0:2|0:2|0:2,0:0:0:0:
300,142,6311,1,10,0:2:0:0:
357,84,6511,1,8,0:2:0:0:
357,84,6711,6,0,P|394:74|460:83,1,95.9999970703126,10|10,0:2|0:2,0:0:0:0:
503,142,7311,1,8,0:2:0:0:
503,142,7511,1,10,0:2:0:0:
406,317,8111,5,10,0:2:0:0:
406,317,8911,1,10,0:2:0:0:
406,317,9711,1,10,0:2:0:0:
406,317,10711,2,0,L|398:250,2,47.9999985351563,8|10|8,0:2|0:2|0:2,0:0:0:0:
349,375,11311,6,0,P|313:383|244:347,1,95.9999970703126,8|8,0:2|0:2,0:0:0:0:
203,305,11911,1,10,0:2:0:0:
203,224,12111,2,0,L|203:165,2,47.9999985351563,8|10|8,0:2|0:2|0:2,0:0:0:0:
203,305,12711,1,10,0:2:0:0:
146,363,12911,1,8,0:2:0:0:
146,363,13111,6,0,P|109:373|43:364,1,95.9999970703126,8|0,0:2|0:0,0:0:0:0:
0,305,13711,1,8,0:2:0:0:
0,305,13911,1,8,0:2:0:0:
0,305,14111,1,8,0:2:0:0:
0,305,14311,1,8,0:2:0:0:
3,223,14511,6,0,L|12:111,1,95.9999970703126,4|0,1:0|1:2,0:0:0:0:
68,69,15111,1,0,0:2:0:0:
68,69,15311,1,2,1:2:0:0:
231,69,15711,1,0,1:2:0:0:
231,69,15911,1,0,0:2:0:0:
288,127,16111,2,0,L|295:222,1,95.9999970703126,4|0,1:2|1:2,0:0:0:0:
353,280,16711,1,0,0:2:0:0:
353,280,16911,1,0,1:2:0:0:
419,232,17111,2,0,P|446:221|474:222,2,47.9999985351563,0|2|0,0:2|1:2|0:2,0:0:0:0:
353,280,17711,6,0,P|314:301|257:294,1,95.9999970703126,0|0,1:2|1:2,0:0:0:0:
184,275,18311,1,2,0:2:0:0:
155,198,18511,1,0,1:2:0:0:
155,198,18711,2,0,L|153:140,1,47.9999985351563,2|0,0:2|1:2,0:0:0:0:
211,92,19111,2,0,L|213:34,1,47.9999985351563,2|0,0:2|1:2,0:0:0:0:
290,68,19511,6,0,L|291:115,2,47.9999985351563,2|0|2,0:2|1:2|0:2,0:0:0:0:
359,25,20111,1,0,1:2:0:0:
437,47,20311,1,2,0:2:0:0:
487,111,20511,1,8,0:2:0:0:
473,197,20711,1,0,0:2:0:0:
473,197,20811,1,0,0:2:0:0:
473,197,20911,6,0,L|459:286,1,71.9999978027344,4|0,1:0|1:2,0:0:0:0:
444,285,21311,2,0,P|417:303|362:308,1,71.9999978027344,0|0,1:2|1:2,0:0:0:0:
354,307,21711,2,0,L|277:300,1,71.9999978027344,2|0,1:2|1:2,0:0:0:0:
265,283,22111,2,0,L|254:225,1,47.9999985351563,0|0,1:2|1:2,0:0:0:0:
242,154,22511,5,4,1:0:0:0:
242,154,22711,1,0,1:2:0:0:
184,95,22911,1,0,1:2:0:0:
184,95,23111,1,0,1:2:0:0:
103,83,23311,1,4,1:0:0:0:
103,83,23511,1,0,1:2:0:0:
38,128,23711,1,2,1:2:0:0:
38,128,23811,1,0,0:2:0:0:
38,128,23911,1,0,1:2:0:0:
19,207,24111,6,0,L|13:242,3,23.9999992675781,4|0|0|0,1:0|1:2|1:2|1:2,0:0:0:0:
55,230,24511,2,0,L|49:265,3,23.9999992675781,4|0|0|0,1:0|1:2|1:2|1:2,0:0:0:0:
91,253,24911,2,0,L|85:288,3,23.9999992675781,4|0|0|0,1:0|1:2|1:2|1:2,0:0:0:0:
127,276,25311,2,0,L|121:311,3,23.9999992675781,4|0|0|0,1:0|1:2|1:2|1:2,0:0:0:0:
163,299,25711,5,8,3:2:0:0:
343,234,26311,1,8,3:2:0:0:
500,343,26911,2,0,P|488:297|492:265,1,64,0|0,0:2|0:2,0:0:0:0:
498,201,27311,6,0,P|508:131|485:18,1,176.000005371094,4|0,1:0|0:2,0:0:0:0:
402,11,27911,1,0,0:2:0:0:
332,64,28111,2,0,P|223:78|70:38,1,264.000008056641,14|0,1:2|0:2,0:0:0:0:
6,206,28911,6,0,P|132:169|262:182,1,264.000008056641,2|0,0:2|1:2,0:0:0:0:
340,223,29711,2,0,P|398:241|510:214,1,176.000005371094,8|0,0:2|0:2,0:0:0:0:
511,127,30311,1,0,0:2:0:0:
373,83,30511,5,0,1:2:0:0:
373,83,30711,2,0,P|316:69|188:122,1,176.000005371094,2|0,0:2|0:2,0:0:0:0:
131,195,31311,2,0,B|106:275|106:275|136:368,2,176.000005371094,10|0|2,0:2|0:2|1:2,0:0:0:0:
247,214,32311,5,2,3:0:0:0:
247,214,32411,2,0,P|286:231|361:229,1,88.000002685547,0|2,3:2|3:0,0:0:0:0:
358,233,32711,1,2,1:2:0:0:
444,219,32911,2,0,L|487:211,2,44.0000013427735,2|0|0,3:0|3:2|1:2,0:0:0:0:
388,150,33311,1,0,1:2:0:0:
388,150,33511,1,0,1:2:0:0:
341,312,33711,5,4,1:0:0:0:
341,312,33911,2,0,B|297:280|249:312|217:356|145:288,1,176.000005371094,0|0,0:2|0:2,0:0:0:0:
101,259,34511,2,0,P|77:224|73:169,1,88.000002685547,10|0,0:2|0:0,0:0:0:0:
116,103,34911,2,0,P|110:59|86:23,1,88.000002685547,0|0,0:2|0:0,0:0:0:0:
242,32,35311,6,0,P|223:140|363:139,1,264.000008056641,2|0,0:2|1:2,0:0:0:0:
432,131,36111,2,0,P|477:168|484:300,1,176.000005371094,8|0,0:2|0:2,0:0:0:0:
442,351,36711,1,0,0:2:0:0:
215,323,37511,5,0,1:2:0:0:
215,323,37611,1,0,1:2:0:0:
215,323,37711,2,0,P|159:305|21:318,2,180.000006866455,4|4|4,1:0|1:0|1:0,0:0:0:0:
298,353,38511,6,0,L|386:344,2,88.000002685547,0|0|0,0:0|0:0|0:0,0:0:0:0:
282,266,39111,1,2,3:0:0:0:
344,203,39311,1,2,3:0:0:0:
344,203,39411,2,0,P|350:149|340:106,1,88.000002685547,2|2,3:0|3:0,0:0:0:0:
286,49,39811,1,2,3:0:0:0:
286,49,39911,1,2,3:0:0:0:
198,57,40111,5,2,0:2:0:0:
198,57,40911,2,0,P|72:137|106:265,1,264.000008056641,4|0,1:0|0:2,0:0:0:0:
174,355,41711,6,0,L|460:341,1,264.000008056641,2|0,0:2|1:2,0:0:0:0:
500,279,42511,2,0,P|490:218|388:193,1,176.000005371094,8|0,0:2|0:2,0:0:0:0:
315,237,43111,1,0,0:2:0:0:
214,144,43311,5,0,1:2:0:0:
214,144,43511,2,0,P|232:237|226:327,1,176.000005371094,2|0,0:2|0:2,0:0:0:0:
77,376,44111,2,0,B|52:296|52:296|82:203,2,176.000005371094,10|0|2,0:2|0:2|1:2,0:0:0:0:
154,334,45111,5,2,3:0:0:0:
154,334,45211,2,0,P|176:322|252:322,1,88.000002685547,0|2,3:2|3:0,0:0:0:0:
263,325,45511,1,2,1:2:0:0:
349,311,45711,2,0,L|392:303,2,44.0000013427735,2|0|0,3:0|3:2|1:2,0:0:0:0:
293,242,46111,1,0,1:2:0:0:
293,242,46311,1,0,1:2:0:0:
123,234,46511,5,4,1:0:0:0:
123,234,46711,2,0,B|91:190|123:142|167:110|99:38,1,176.000005371094,0|0,0:2|0:2,0:0:0:0:
197,22,47311,2,0,P|240:21|294:48,1,88.000002685547,8|0,0:2|0:0,0:0:0:0:
343,100,47711,2,0,P|383:116|427:115,1,88.000002685547,0|0,0:2|0:0,0:0:0:0:
496,224,48111,6,0,P|389:221|227:310,1,264.000008056641,2|0,0:2|1:2,0:0:0:0:
185,348,48911,2,0,P|132:314|92:207,1,176.000005371094,8|0,0:2|0:2,0:0:0:0:
108,125,49511,1,0,0:2:0:0:
162,56,49711,6,0,P|121:38|70:46,2,88.000002685547,2|0|0,0:2|0:2|0:0,0:0:0:0:
208,180,50311,1,2,1:2:0:0:
331,214,50511,6,0,P|401:221|512:191,2,180.000006866455,4|4|4,1:0|1:0|1:0,0:0:0:0:
268,276,51311,6,0,L|277:364,2,88.000002685547,0|0|0,0:0|0:0|1:2,0:0:0:0:
188,238,51911,1,0,0:2:0:0:
209,119,52111,6,0,L|218:31,3,80,0|0|0|0,0:2|0:0|0:0|0:2,0:0:0:0:
53,29,52911,6,0,P|27:100|34:181,1,143.999995605469,4|0,1:0|1:2,0:0:0:0:
91,228,53511,1,0,0:2:0:0:
173,252,53711,2,0,L|347:242,1,143.999995605469,2|0,1:2|1:2,0:0:0:0:
367,173,54311,1,0,0:2:0:0:
441,216,54511,6,0,P|448:145|397:91,1,143.999995605469,2|0,1:2|1:2,0:0:0:0:
316,103,55111,1,0,0:2:0:0:
316,103,55311,1,0,1:0:0:0:
249,158,55511,2,0,P|210:163|152:137,2,71.9999978027344,0|2|0,0:2|1:2|0:2,0:0:0:0:
316,103,56111,6,0,P|327:59|425:26,1,143.999995605469,0|0,1:0|1:2,0:0:0:0:
485,66,56711,1,2,0:2:0:0:
496,151,56911,2,0,L|486:244,1,71.9999978027344,0|2,1:0|0:2,0:0:0:0:
417,271,57311,2,0,L|407:364,1,71.9999978027344,0|2,1:2|0:2,0:0:0:0:
330,377,57711,5,0,1:0:0:0:
246,356,57911,1,2,0:2:0:0:
190,290,58111,1,0,1:2:0:0:
186,203,58311,1,2,0:2:0:0:
234,131,58511,2,0,P|247:91|246:46,2,71.9999978027344,0|2|8,1:0|0:2|1:2,0:0:0:0:
193,210,59111,1,0,0:2:0:0:
193,210,59211,1,0,0:2:0:0:
193,210,59311,6,0,P|241:224|308:215,1,107.999996704102,4|0,1:0|1:0,0:0:0:0:
331,204,59711,2,0,P|384:198|436:212,1,107.999996704102,0|0,1:2|1:0,0:0:0:0:
464,234,60111,2,0,P|469:287|455:339,1,107.999996704102,2|0,1:2|1:0,0:0:0:0:
423,355,60511,2,0,L|328:351,1,71.9999978027344,0|0,1:2|1:2,0:0:0:0:
264,346,60911,5,4,1:0:0:0:
264,346,61111,1,0,1:2:0:0:
181,320,61311,1,0,1:2:0:0:
181,320,61511,1,0,1:2:0:0:
133,247,61711,1,4,1:0:0:0:
133,247,61911,1,0,1:2:0:0:
166,172,62111,1,2,1:2:0:0:
166,172,62211,1,0,0:0:0:0:
166,172,62311,1,0,1:2:0:0:
313,141,62511,6,0,L|348:135,3,35.9999989013672,4|0|0|0,1:0|1:2|1:2|1:2,0:0:0:0:
336,177,62911,2,0,L|371:171,3,35.9999989013672,4|0|0|0,1:0|1:2|1:2|1:2,0:0:0:0:
359,213,63311,2,0,L|394:207,3,35.9999989013672,4|0|0|0,1:0|1:2|1:2|1:2,0:0:0:0:
382,249,63711,2,0,L|417:243,3,35.9999989013672,4|0|0|0,1:0|1:2|1:2|1:2,0:0:0:0:
405,285,64111,5,8,3:2:0:0:
149,327,64711,1,8,3:2:0:0:
255,99,65311,1,2,0:2:0:0:
255,99,65411,1,2,0:2:0:0:
255,99,65511,1,2,0:2:0:0:
255,99,65611,1,2,0:2:0:0:
255,99,65711,5,4,1:0:0:0:
104,185,66011,1,0,1:2:0:0:
253,271,66311,2,0,L|425:254,2,143.999995605469,0|0|0,1:2|1:2|1:2,0:0:0:0:
191,332,67111,1,0,1:2:0:0:
191,332,67311,5,0,1:2:0:0:
42,246,67611,1,0,1:2:0:0:
189,160,67911,2,0,L|361:177,2,143.999995605469,0|0|0,1:2|1:2|1:2,0:0:0:0:
17,158,68911,5,0,1:2:0:0:
103,309,69211,1,0,1:2:0:0:
189,160,69511,2,0,L|172:-12,2,143.999995605469,0|0|0,1:2|1:2|1:2,0:0:0:0:
257,229,70311,1,0,1:2:0:0:
257,229,70411,1,0,0:2:0:0:
257,229,70511,6,0,L|352:219,1,80,4|0,0:2|3:2,0:0:0:0:
393,163,70911,1,8,3:2:0:0:
393,163,71111,1,0,3:2:0:0:
336,106,71311,2,0,L|241:96,1,80,0|0,3:2|3:2,0:0:0:0:
213,167,71711,1,2,0:2:0:0:
213,167,71811,1,2,0:2:0:0:
213,167,71911,1,2,0:2:0:0:
213,167,72011,1,2,0:2:0:0:
213,167,72111,5,4,1:0:0:0:
128,283,72411,1,0,1:2:0:0:
262,335,72711,2,0,P|322:336|426:366,2,143.999995605469,0|0|0,1:2|1:2|1:2,0:0:0:0:
169,361,73511,1,0,1:2:0:0:
169,361,73711,5,0,1:2:0:0:
84,245,74011,1,0,1:2:0:0:
185,143,74311,2,0,P|184:83|154:-21,2,143.999995605469,0|0|0,1:2|1:2|1:2,0:0:0:0:
321,279,75311,6,0,P|381:278|485:248,2,143.999995605469,0|0|0,1:2|1:2|1:2,0:0:0:0:
179,253,76211,1,0,1:2:0:0:
70,348,76511,1,0,1:2:0:0:
46,263,76711,1,0,1:2:0:0:
46,263,76811,1,0,0:2:0:0:
46,263,76911,5,8,3:2:0:0:
256,152,77511,1,8,3:2:0:0:
473,256,78111,1,8,3:2:0:0:
473,256,78511,1,8,3:2:0:0:
254,354,78911,6,0,L|82:337,2,143.999995605469,4|0|0,1:0|1:2|1:2,0:0:0:0:
340,311,79711,1,0,1:2:0:0:
340,311,79911,1,0,1:2:0:0:
272,243,80111,6,0,P|341:214|422:262,2,143.999995605469,0|0|0,1:2|1:2|1:2,0:0:0:0:
153,325,81011,1,0,1:2:0:0:
11,349,81311,1,0,1:2:0:0:
153,161,81711,6,0,P|84:132|3:180,2,143.999995605469,0|0|0,1:2|1:2|1:2,0:0:0:0:
272,243,82611,1,0,1:2:0:0:
414,267,82911,1,0,1:2:0:0:
511,241,83111,1,0,1:2:0:0:
511,241,83211,1,0,0:2:0:0:
511,241,83311,6,0,L|495:151,1,80,4|0,0:2|0:2,0:0:0:0:
440,105,83711,1,8,3:2:0:0:
440,105,83911,1,0,3:2:0:0:
383,161,84111,2,0,L|367:251,1,80,0|0,3:2|3:2,0:0:0:0:
315,296,84511,1,2,0:2:0:0:
315,296,84611,1,2,0:2:0:0:
315,296,84711,1,2,0:2:0:0:
315,296,84811,1,2,0:2:0:0:
315,296,84911,5,4,1:0:0:0:
256,192,85011,12,8,89711,3:2:0:0:
76,320,90911,6,0,P|122:308|154:312,1,64,0|0,0:2|0:2,0:0:0:0:
268,335,91311,6,0,P|338:345|451:322,1,176.000005371094,4|0,1:0|0:2,0:0:0:0:
489,253,91911,1,0,0:2:0:0:
475,166,92111,2,0,P|393:84|252:113,1,264.000008056641,12|0,1:2|0:2,0:0:0:0:
257,276,92911,6,0,P|133:303|39:218,1,264.000008056641,2|0,0:2|1:2,0:0:0:0:
26,131,93711,2,0,P|35:68|141:48,1,176.000005371094,8|0,0:2|0:2,0:0:0:0:
200,98,94311,1,0,0:2:0:0:
215,282,94511,5,0,1:2:0:0:
215,282,94711,2,0,P|272:296|400:243,1,176.000005371094,2|0,0:2|0:2,0:0:0:0:
486,167,95311,2,0,B|511:87|511:87|481:-6,2,176.000005371094,10|0|2,0:2|0:2|1:2,0:0:0:0:
352,124,96311,5,2,3:0:0:0:
352,124,96411,1,0,3:2:0:0:
316,204,96611,1,2,3:0:0:0:
316,204,96711,1,2,1:2:0:0:
342,287,96911,2,0,L|350:330,2,44.0000013427735,2|0|0,3:0|3:2|1:2,0:0:0:0:
402,222,97311,1,0,1:2:0:0:
402,222,97511,1,0,1:2:0:0:
261,329,97711,5,4,1:0:0:0:
261,329,97911,2,0,B|217:297|169:329|137:373|65:305,1,176.000005371094,0|0,0:2|0:2,0:0:0:0:
41,255,98511,2,0,P|24:219|32:167,1,88.000002685547,8|0,0:2|0:0,0:0:0:0:
52,87,98911,2,0,L|173:73,1,88.000002685547,0|0,0:2|0:0,0:0:0:0:
319,69,99311,6,0,P|338:177|198:176,1,264.000008056641,2|0,0:2|1:2,0:0:0:0:
114,318,100111,2,0,P|162:302|304:345,1,176.000005371094,8|0,0:2|0:2,0:0:0:0:
358,371,100711,1,0,0:2:0:0:
459,200,101511,5,0,1:2:0:0:
459,200,101611,1,0,1:2:0:0:
459,200,101711,2,0,P|477:144|464:6,2,180.000006866455,4|4|4,1:0|1:0|1:0,0:0:0:0:
396,262,102511,6,0,L|405:350,2,88.000002685547,0|0|0,0:0|0:0|0:0,0:0:0:0:
343,190,103111,1,2,3:0:0:0:
267,145,103311,1,2,3:0:0:0:
267,145,103411,1,2,3:0:0:0:
179,150,103611,1,2,3:0:0:0:
109,202,103811,1,2,3:0:0:0:
109,202,103911,1,2,3:0:0:0:
80,285,104111,5,2,0:2:0:0:
80,285,104911,2,0,P|206:205|172:77,1,264.000008056641,4|0,1:0|0:2,0:0:0:0:
327,32,105711,6,0,P|329:157|442:211,1,264.000008056641,2|0,0:2|1:2,0:0:0:0:
470,322,106511,2,0,P|405:310|301:338,1,176.000005371094,8|0,0:2|0:2,0:0:0:0:
221,376,107111,1,0,0:2:0:0:
71,296,107311,5,0,1:2:0:0:
71,296,107511,2,0,P|53:203|59:113,1,176.000005371094,2|0,0:2|0:2,0:0:0:0:
208,64,108111,2,0,B|233:144|233:144|203:237,2,176.000005371094,10|0|2,0:2|0:2|1:2,0:0:0:0:
349,33,109111,5,2,3:0:0:0:
349,33,109211,1,0,3:2:0:0:
329,118,109411,1,2,3:0:0:0:
329,118,109511,1,0,1:2:0:0:
335,205,109711,2,0,L|288:231,2,44.0000013427735,2|0|0,3:0|3:2|1:2,0:0:0:0:
416,239,110111,1,0,1:2:0:0:
416,239,110311,1,0,1:2:0:0:
378,355,110511,5,4,1:0:0:0:
378,355,110711,2,0,B|334:387|286:355|254:311|182:379,1,176.000005371094,0|0,0:2|0:2,0:0:0:0:
147,294,111311,2,0,P|130:249|138:188,1,88.000002685547,8|0,0:2|0:0,0:0:0:0:
193,147,111711,2,0,P|193:103|177:62,1,88.000002685547,0|0,0:2|0:0,0:0:0:0:
325,19,112111,6,0,P|332:137|450:125,1,264.000008056641,2|0,0:2|1:2,0:0:0:0:
273,208,112911,2,0,P|347:242|455:225,1,176.000005371094,8|0,0:2|0:2,0:0:0:0:
511,182,113511,1,0,0:2:0:0:
402,90,113711,6,0,P|384:49|392:-2,2,88.000002685547,2|0|0,0:2|0:2|0:0,0:0:0:0:
348,243,114311,1,2,1:2:0:0:
207,280,114511,6,0,P|117:285|31:260,2,180.000006866455,4|4|4,1:0|1:0|1:0,0:0:0:0:
269,217,115311,6,0,L|260:129,2,88.000002685547,0|0|0,0:0|0:0|1:2,0:0:0:0:
349,255,115911,1,0,0:2:0:0:
377,90,116111,6,0,L|386:2,3,80,0|0|0|0,0:2|0:0|0:0|0:2,0:0:0:0:
478,63,116911,1,2,0:2:0:0:
