osu file format v14

[General]
AudioFilename: audio.mp3
AudioLeadIn: 0
PreviewTime: 17654
Countdown: 0
SampleSet: None
StackLeniency: 0.7
Mode: 1
LetterboxInBreaks: 0
WidescreenStoryboard: 0

[Editor]
Bookmarks: 1024,9372,17720,26459,26589,26785,26980,27111,30241,34415,40154,40415,40676,41720,42502,42763,45894,46937,50067,51111,51372,54241,55285,57372,58415,59459,67807,68198,68328,68850,70937,71067,71328,71980,72372,72633,73024,74067,74589,75111,76154,84502,101198,117894
DistanceSpacing: 0.6
BeatDivisor: 6
GridSize: 4
TimelineZoom: 2.299999

[Metadata]
Title:MilK (Takeshita Remix)
TitleUnicode:MilK (Takeshita Remix)
Artist:Morimori Atsushi
ArtistUnicode:モリモリ あつし
Creator:404 AccNotFound
Version:YAZD
Source:
Tags:
BeatmapID:1832416
BeatmapSetID:876815

[Difficulty]
HPDrainRate:5
CircleSize:5
OverallDifficulty:6
ApproachRate:5
SliderMultiplier:1.4
SliderTickRate:1

[Events]
//Background and Video events
0,0,"milkremix.jpg",0,0
//Break Periods
//Storyboard Layer 0 (Background)
//Storyboard Layer 1 (Fail)
//Storyboard Layer 2 (Pass)
//Storyboard Layer 3 (Foreground)
//Storyboard Sound Samples

[TimingPoints]
-19,260.869565217391,4,1,0,100,1,0
9372,-80,4,1,0,100,0,0
9763,-66.6666666666667,4,1,0,100,0,0
10154,-50,4,1,0,100,0,0
10415,-100,4,1,0,100,0,0
13546,-80,4,1,0,100,0,0
13676,-76.9230769230769,4,1,0,100,0,0
13937,-66.6666666666667,4,1,0,100,0,0
14328,-50,4,1,0,100,0,0
14589,-100,4,1,0,100,0,0
17720,-80,4,1,0,100,0,0
17980,-100,4,1,0,100,0,0
18111,-76.9230769230769,4,1,0,100,0,0
18372,-71.4285714285714,4,1,0,100,0,0
18502,-100,4,1,0,100,0,0
23980,-25,4,1,0,100,0,0
24502,-100,4,1,0,100,0,0
26067,-25,4,1,0,100,0,0
26459,-50,4,1,0,100,0,0
26589,-55.5555555555556,4,1,0,100,0,0
26785,-66.6666666666667,4,1,0,100,0,0
26980,-80,4,1,0,100,0,0
27111,-100,4,1,0,100,0,0
32328,-25,4,1,0,100,0,0
32850,-100,4,1,0,100,0,0
40154,-50,4,1,0,100,0,0
40415,-33.3333333333333,4,1,0,100,0,0
40676,-100,4,1,0,100,0,0
51111,-40,4,1,0,100,0,0
51372,-100,4,1,0,100,0,0
59459,-80,4,1,0,100,0,0
59459,-100,4,1,0,100,0,0
59720,-100,4,1,0,100,0,0
59850,-76.9230769230769,4,1,0,100,0,0
60111,-71.4285714285714,4,1,0,100,0,0
60176,-100,4,1,0,100,0,0
65720,-25,4,1,0,100,0,0
66241,-100,4,1,0,100,0,0
67807,-25,4,1,0,100,0,0
68198,-50,4,1,0,100,0,0
68328,-55.5555555555556,4,1,0,100,0,0
68524,-66.6666666666667,4,1,0,100,0,0
68720,-80,4,1,0,100,0,0
68850,-100,4,1,0,100,0,0
74067,-25,4,1,0,100,0,0
74589,-100,4,1,0,100,0,0
81894,-50,4,1,0,100,0,0
82154,-33.3333333333333,4,1,0,100,0,0
82415,-100,4,1,0,100,0,0
84241,-25,4,1,0,100,0,0
84502,-100,4,1,0,100,0,0
88415,-50,4,1,0,100,0,0
88676,-100,4,1,0,100,0,0
92850,-40,4,1,0,100,0,0
93111,-100,4,1,0,100,0,0
101198,-80,4,1,0,100,0,0
101459,-100,4,1,0,100,0,0
101589,-76.9230769230769,4,1,0,100,0,0
101850,-71.4285714285714,4,1,0,100,0,0
101980,-100,4,1,0,100,0,0
107459,-25,4,1,0,100,0,0
107980,-100,4,1,0,100,0,0
109546,-25,4,1,0,100,0,0
109937,-50,4,1,0,100,0,0
110067,-55.5555555555556,4,1,0,100,0,0
110263,-66.6666666666667,4,1,0,100,0,0
110459,-80,4,1,0,100,0,0
110589,-100,4,1,0,100,0,0
115807,-25,4,1,0,100,0,0
116328,-100,4,1,0,100,0,0

[HitObjects]
344,104,1024,5,0,0:0:0:0:
336,116,1154,1,0,0:0:0:0:
316,132,1285,1,8,0:0:0:0:
308,144,1415,1,0,0:0:0:0:
316,132,1480,1,0,0:0:0:0:
296,148,1546,1,8,0:0:0:0:
300,152,1807,1,8,0:0:0:0:
300,152,2067,1,0,0:0:0:0:
252,144,2328,1,0,0:0:0:0:
300,152,2459,1,8,0:0:0:0:
300,152,2589,1,0,0:0:0:0:
296,188,2720,1,0,0:0:0:0:
300,152,2850,1,8,0:0:0:0:
304,156,2883,1,8,0:0:0:0:
300,160,2915,1,8,0:0:0:0:
300,160,2948,1,8,0:0:0:0:
300,160,2980,1,8,0:0:0:0:
216,172,3111,1,0,0:0:0:0:
216,172,3241,1,8,0:0:0:0:
216,172,3307,1,0,0:0:0:0:
216,172,3372,1,8,0:0:0:0:
216,172,3502,1,0,0:0:0:0:
184,208,3633,1,8,0:0:0:0:
184,208,3763,1,0,0:0:0:0:
184,208,3828,1,0,0:0:0:0:
184,208,3894,1,8,0:0:0:0:
184,208,3959,1,8,0:0:0:0:
184,208,4024,1,8,0:0:0:0:
184,208,4089,1,8,0:0:0:0:
184,208,4154,1,0,0:0:0:0:
104,152,4285,1,0,0:0:0:0:
104,152,4415,1,8,0:0:0:0:
104,152,4546,1,0,0:0:0:0:
104,152,4676,1,8,0:0:0:0:
104,152,4937,1,0,0:0:0:0:
104,152,5067,1,8,0:0:0:0:
180,208,5198,1,0,0:0:0:0:
168,104,5328,1,0,0:0:0:0:
104,152,5459,1,12,0:0:0:0:
168,104,5720,1,0,0:0:0:0:
164,104,5850,1,8,0:0:0:0:
336,120,5894,1,0,0:0:0:0:
316,144,5937,1,8,0:0:0:0:
168,104,5980,1,0,0:0:0:0:
164,104,6111,1,0,0:0:0:0:
164,104,6241,1,8,0:0:0:0:
124,168,6502,1,0,0:0:0:0:
124,168,6763,1,8,0:0:0:0:
124,168,6894,1,0,0:0:0:0:
124,168,7154,1,8,0:0:0:0:
124,168,7285,1,8,0:0:0:0:
124,168,7415,1,0,0:0:0:0:
124,168,7480,1,0,0:0:0:0:
124,168,7546,1,8,0:0:0:0:
124,168,7807,1,0,0:0:0:0:
152,136,7937,1,8,0:0:0:0:
200,192,7980,1,8,0:0:0:0:
200,192,8024,1,8,0:0:0:0:
200,192,8067,1,8,0:0:0:0:
252,216,8198,1,0,0:0:0:0:
196,128,8328,1,0,0:0:0:0:
256,208,8459,1,8,0:0:0:0:
256,208,8524,1,8,0:0:0:0:
256,208,8590,1,0,0:0:0:0:
272,148,8633,1,0,0:0:0:0:
272,148,8677,1,8,0:0:0:0:
268,152,8720,1,8,0:0:0:0:
136,152,8785,1,8,0:0:0:0:
204,236,8850,1,4,0:0:0:0:
144,224,8981,1,8,0:0:0:0:
144,224,9111,1,0,0:0:0:0:
200,172,9372,1,4,0:0:0:0:
200,172,9763,5,12,0:0:0:0:
200,172,10154,5,12,0:0:0:0:
200,172,10415,5,0,0:0:0:0:
200,172,10676,1,8,0:0:0:0:
200,172,10807,1,8,0:0:0:0:
124,192,10872,1,8,0:0:0:0:
200,172,10937,1,0,0:0:0:0:
200,172,11067,1,0,0:0:0:0:
156,184,11133,1,0,0:0:0:0:
200,172,11198,1,8,0:0:0:0:
100,236,11241,1,0,0:0:0:0:
100,236,11285,1,0,0:0:0:0:
200,172,11328,1,8,0:0:0:0:
312,168,11394,1,8,0:0:0:0:
200,172,11459,1,0,0:0:0:0:
248,136,11589,1,8,0:1:0:0:
248,136,11654,1,8,0:1:0:0:
248,136,11720,1,0,0:1:0:0:
128,188,11752,1,0,0:0:0:0:
132,196,11785,1,8,0:0:0:0:
184,180,11980,1,0,0:1:0:0:
184,180,12111,1,8,0:1:0:0:
184,180,12176,1,0,0:1:0:0:
184,180,12241,1,8,0:1:0:0:
184,180,12372,1,0,0:1:0:0:
184,180,12502,1,0,0:1:0:0:
20,168,12546,1,8,0:0:0:0:
144,160,12589,1,8,0:0:0:0:
20,168,12633,1,0,0:0:0:0:
224,144,12698,1,0,0:0:0:0:
200,212,12763,1,12,0:0:0:0:
136,284,13024,1,8,0:0:0:0:
332,148,13057,1,8,0:0:0:0:
192,296,13154,1,0,0:0:0:0:
328,144,13187,1,0,0:0:0:0:
192,296,13285,1,0,0:0:0:0:
316,144,13317,1,0,0:0:0:0:
192,296,13415,1,8,0:0:0:0:
312,144,13448,1,8,0:0:0:0:
184,164,13546,1,4,0:0:0:0:
304,240,13676,1,4,0:0:0:0:
304,240,13937,1,12,0:0:0:0:
304,240,14328,1,12,0:0:0:0:
304,240,14589,1,4,0:0:0:0:
304,240,14850,1,8,0:0:0:0:
304,240,14980,1,0,0:0:0:0:
44,152,15046,1,8,0:0:0:0:
304,240,15111,1,0,0:0:0:0:
304,240,15241,1,0,0:0:0:0:
228,232,15307,1,0,0:0:0:0:
304,240,15372,1,8,0:0:0:0:
304,204,15415,1,0,0:0:0:0:
304,204,15459,1,0,0:0:0:0:
304,204,15502,1,8,0:0:0:0:
192,192,15567,1,8,0:0:0:0:
304,240,15633,1,0,0:0:0:0:
152,220,15676,1,0,0:0:0:0:
180,268,15763,1,0,0:0:0:0:
180,268,15807,1,0,0:0:0:0:
60,216,15894,1,8,0:0:0:0:
36,212,16024,1,0,0:0:0:0:
40,216,16089,1,8,0:0:0:0:
64,212,16220,1,8,0:0:0:0:
64,212,16285,1,0,0:0:0:0:
184,128,16350,1,0,0:0:0:0:
168,160,16415,1,8,0:0:0:0:
156,152,16546,1,0,0:0:0:0:
148,200,16611,1,0,0:0:0:0:
168,160,16676,1,8,0:0:0:0:
168,172,16720,1,8,0:0:0:0:
168,172,16763,1,0,0:0:0:0:
144,212,16807,1,0,0:0:0:0:
136,120,16850,1,8,0:0:0:0:
144,212,16937,1,0,0:0:0:0:
144,212,17067,1,8,0:0:0:0:
144,212,17133,1,0,0:0:0:0:
144,212,17198,1,8,0:0:0:0:
144,212,17263,1,8,0:0:0:0:
144,212,17328,1,0,0:0:0:0:
336,124,17459,1,12,0:0:0:0:
376,180,17720,5,4,0:0:0:0:
376,180,17980,1,8,0:0:0:0:
376,180,18111,1,4,0:0:0:0:
376,180,18372,1,4,0:0:0:0:
376,180,18502,1,8,0:0:0:0:
124,184,18633,1,0,0:0:0:0:
56,168,18698,1,0,0:0:0:0:
376,180,18763,1,8,0:0:0:0:
264,176,18796,1,8,0:0:0:0:
376,180,18894,1,8,0:0:0:0:
216,96,18926,1,8,0:0:0:0:
376,180,19024,1,8,0:0:0:0:
220,208,19057,1,8,0:0:0:0:
376,180,19154,1,0,0:0:0:0:
376,180,19220,1,8,0:0:0:0:
376,180,19285,1,0,0:0:0:0:
320,216,19328,1,0,0:0:0:0:
272,152,19415,1,8,0:0:0:0:
272,152,19459,1,0,0:0:0:0:
272,152,19502,1,0,0:0:0:0:
272,152,19546,1,8,0:0:0:0:
284,152,19676,1,8,0:0:0:0:
248,172,19741,1,8,0:0:0:0:
376,180,19807,1,0,0:0:0:0:
376,180,19937,1,8,0:0:0:0:
216,132,20002,1,0,0:0:0:0:
216,148,20067,1,8,0:0:0:0:
232,144,20198,1,0,0:0:0:0:
160,184,20263,1,8,0:0:0:0:
168,156,20328,1,0,0:0:0:0:
72,208,20372,1,0,0:0:0:0:
72,208,20415,1,0,0:0:0:0:
72,208,20459,1,8,0:0:0:0:
220,124,20589,1,8,0:0:0:0:
216,172,20720,1,0,0:0:0:0:
300,220,20785,1,0,0:0:0:0:
376,180,20850,1,8,0:0:0:0:
268,232,20915,1,8,0:0:0:0:
364,168,20980,1,0,0:0:0:0:
192,152,21046,1,8,0:0:0:0:
192,152,21111,1,0,0:0:0:0:
224,148,21176,1,0,0:0:0:0:
224,148,21241,1,8,0:0:0:0:
224,148,21307,1,8,0:0:0:0:
236,228,21372,1,0,0:0:0:0:
220,224,21404,1,0,0:0:0:0:
232,148,21502,1,8,0:0:0:0:
208,176,21535,1,8,0:0:0:0:
232,148,21633,1,0,0:0:0:0:
232,216,21665,1,0,0:0:0:0:
232,148,21763,1,8,0:0:0:0:
208,176,21796,1,8,0:0:0:0:
232,148,21894,1,4,0:0:0:0:
228,152,22154,1,4,0:0:0:0:
232,152,22415,1,8,0:0:0:0:
232,152,22546,1,8,0:0:0:0:
212,228,22611,1,8,0:0:0:0:
232,152,22676,1,8,0:0:0:0:
228,168,22807,1,8,0:0:0:0:
228,168,22937,1,0,0:0:0:0:
336,136,22970,1,8,0:0:0:0:
280,192,23067,1,0,0:0:0:0:
320,168,23100,1,8,0:0:0:0:
280,192,23198,1,0,0:0:0:0:
320,168,23230,1,8,0:0:0:0:
280,192,23328,1,0,0:0:0:0:
320,168,23361,1,8,0:0:0:0:
280,192,23459,1,0,0:0:0:0:
208,184,23589,1,8,0:0:0:0:
208,184,23654,1,0,0:0:0:0:
208,184,23720,1,8,0:0:0:0:
208,184,23850,1,8,0:0:0:0:
256,192,23980,12,0,24241,0:0:0:0:
300,200,24502,5,12,0:0:0:0:
300,200,24698,1,12,0:0:0:0:
300,200,24894,1,4,0:0:0:0:
216,200,25024,1,8,0:0:0:0:
236,224,25089,1,8,0:0:0:0:
184,184,25154,1,0,0:0:0:0:
184,140,25220,5,8,0:0:0:0:
184,140,25285,1,8,0:0:0:0:
184,140,25350,1,0,0:0:0:0:
352,132,25415,1,0,0:0:0:0:
184,152,25480,1,8,0:0:0:0:
348,96,25546,1,0,0:0:0:0:
400,156,25578,1,0,0:0:0:0:
312,216,25676,1,8,0:0:0:0:
304,188,25709,1,8,0:0:0:0:
312,216,25807,1,0,0:0:0:0:
300,192,25839,1,0,0:0:0:0:
312,216,25937,1,8,0:0:0:0:
296,192,25970,1,8,0:0:0:0:
183,222,26067,2,4,L|389:212,5,140
204,160,26459,1,12,0:0:0:0:
204,160,26589,1,12,0:0:0:0:
204,160,26785,1,12,0:0:0:0:
204,160,26980,1,12,0:0:0:0:
204,160,27111,1,4,0:0:0:0:
248,144,27372,1,8,0:0:0:0:
248,144,27633,1,0,0:0:0:0:
248,144,27763,1,8,0:0:0:0:
376,88,27807,1,8,0:0:0:0:
344,116,27850,1,0,0:0:0:0:
312,144,27894,1,0,0:0:0:0:
296,116,27959,1,0,0:0:0:0:
288,128,28024,1,8,0:0:0:0:
288,128,28089,1,8,0:0:0:0:
248,144,28154,1,0,0:0:0:0:
204,204,28285,1,8,0:0:0:0:
204,204,28350,1,8,0:0:0:0:
172,192,28415,1,0,0:0:0:0:
172,208,28480,1,0,0:0:0:0:
168,208,28546,1,8,0:0:0:0:
204,204,28611,1,0,0:0:0:0:
248,236,28676,1,0,0:0:0:0:
296,128,28720,1,0,0:0:0:0:
288,136,28763,1,8,0:0:0:0:
144,224,28850,1,0,0:0:0:0:
304,248,28937,1,8,0:0:0:0:
296,160,29067,1,8,0:0:0:0:
160,68,29133,1,0,0:0:0:0:
296,160,29198,1,12,0:0:0:0:
216,156,29328,1,4,0:0:0:0:
216,156,29589,1,12,0:0:0:0:
188,148,29720,1,0,0:0:0:0:
192,152,29785,1,0,0:0:0:0:
192,152,29980,1,8,0:0:0:0:
180,120,30046,1,0,0:0:0:0:
192,152,30111,1,8,0:0:0:0:
192,152,30241,1,4,0:0:0:0:
160,184,30502,1,8,0:0:0:0:
160,184,30633,1,4,0:0:0:0:
160,184,30894,1,0,0:0:0:0:
160,184,31024,1,0,0:0:0:0:
160,208,31067,1,8,0:0:0:0:
168,208,31111,1,0,0:0:0:0:
164,232,31154,1,8,0:0:0:0:
164,232,31220,1,8,0:0:0:0:
164,232,31285,1,0,0:0:0:0:
264,216,31415,1,8,0:0:0:0:
176,160,31480,1,0,0:0:0:0:
164,232,31546,1,8,0:0:0:0:
164,232,31676,1,0,0:0:0:0:
128,212,31741,1,8,0:0:0:0:
192,168,31807,1,0,0:0:0:0:
156,200,31872,1,0,0:0:0:0:
164,232,31937,1,8,0:0:0:0:
164,232,32067,1,8,0:0:0:0:
164,232,32198,1,0,0:0:0:0:
164,232,32263,1,0,0:0:0:0:
196,292,32328,2,4,B|392:280|392:280|392:136|392:136|192:160|192:160|136:280|136:280|236:332|236:332|248:336|320:224|328:212|336:196|320:164|260:132,1,980
204,216,32850,1,12,0:0:0:0:
204,216,33046,1,12,0:0:0:0:
204,216,33241,1,12,0:0:0:0:
204,152,33372,1,0,0:0:0:0:
204,152,33437,1,8,0:0:0:0:
188,208,33502,1,8,0:0:0:0:
224,196,33546,1,8,0:0:0:0:
188,208,33589,1,0,0:0:0:0:
176,128,33633,1,0,0:0:0:0:
432,92,33698,5,0,0:0:0:0:
180,152,33763,1,8,0:0:0:0:
236,228,33894,1,0,0:0:0:0:
220,224,33926,1,0,0:0:0:0:
232,148,34024,1,8,0:0:0:0:
208,176,34057,1,8,0:0:0:0:
232,148,34155,1,0,0:0:0:0:
232,216,34187,1,0,0:0:0:0:
232,148,34285,1,8,0:0:0:0:
208,176,34318,1,8,0:0:0:0:
228,252,34415,1,4,0:0:0:0:
288,168,34546,1,8,0:0:0:0:
288,168,34676,1,0,0:0:0:0:
288,168,34807,1,8,0:0:0:0:
288,168,34937,1,0,0:0:0:0:
288,168,35067,1,8,0:0:0:0:
288,168,35133,1,0,0:0:0:0:
288,168,35198,1,8,0:0:0:0:
288,168,35328,1,8,0:0:0:0:
240,184,35459,1,0,0:0:0:0:
240,184,35589,1,8,0:0:0:0:
240,184,35720,1,0,0:0:0:0:
240,184,35850,1,8,0:0:0:0:
240,184,35980,1,0,0:0:0:0:
240,184,36241,1,8,0:0:0:0:
240,184,36502,1,0,0:0:0:0:
184,52,36633,1,8,0:0:0:0:
240,184,36763,1,0,0:0:0:0:
240,184,36894,1,8,0:0:0:0:
88,192,36959,1,0,0:0:0:0:
240,184,37024,1,8,0:0:0:0:
96,192,37089,1,8,0:0:0:0:
240,184,37154,1,0,0:0:0:0:
240,184,37285,1,8,0:0:0:0:
240,184,37415,1,8,0:0:0:0:
168,148,37480,1,8,0:0:0:0:
240,184,37546,1,0,0:0:0:0:
240,184,37676,1,8,0:0:0:0:
160,176,37741,1,0,0:0:0:0:
240,184,37807,1,8,0:0:0:0:
240,184,37937,1,0,0:0:0:0:
240,184,38067,1,8,0:0:0:0:
76,200,38100,1,0,0:0:0:0:
240,184,38198,1,8,0:0:0:0:
80,200,38230,1,0,0:0:0:0:
240,184,38328,1,8,0:0:0:0:
80,200,38361,1,0,0:0:0:0:
240,184,38459,1,8,0:0:0:0:
80,200,38491,1,0,0:0:0:0:
240,184,38589,1,0,0:0:0:0:
232,248,38720,1,8,0:0:0:0:
232,248,38785,1,8,0:0:0:0:
232,248,38850,1,0,0:0:0:0:
232,248,38980,1,8,0:0:0:0:
200,120,39046,1,8,0:0:0:0:
232,248,39111,1,0,0:0:0:0:
168,160,39176,1,8,0:0:0:0:
232,248,39241,1,0,0:0:0:0:
200,120,39307,1,0,0:0:0:0:
232,248,39372,1,8,0:0:0:0:
232,248,39502,1,8,0:0:0:0:
220,156,39567,1,8,0:0:0:0:
232,248,39633,1,0,0:0:0:0:
152,168,39698,1,8,0:0:0:0:
220,184,39763,1,0,0:0:0:0:
220,184,39894,1,8,0:0:0:0:
220,184,40024,1,8,0:0:0:0:
220,184,40154,1,0,0:0:0:0:
220,184,40415,1,8,0:0:0:0:
220,184,40676,1,0,0:0:0:0:
284,224,40741,1,0,0:0:0:0:
284,224,40807,1,0,0:0:0:0:
284,224,40872,1,0,0:0:0:0:
284,224,40937,1,8,0:0:0:0:
284,224,41002,1,8,0:0:0:0:
284,224,41067,1,8,0:0:0:0:
284,224,41133,1,8,0:0:0:0:
284,224,41198,1,0,0:0:0:0:
284,224,41263,1,0,0:0:0:0:
284,224,41328,1,8,0:0:0:0:
284,224,41394,1,0,0:0:0:0:
284,224,41459,1,8,0:0:0:0:
284,224,41524,1,8,0:0:0:0:
284,224,41589,1,8,0:0:0:0:
284,224,41654,1,8,0:0:0:0:
284,224,41720,1,0,0:0:0:0:
284,224,41785,1,0,0:0:0:0:
312,192,41850,1,8,0:0:0:0:
312,192,41894,1,0,0:0:0:0:
312,192,41937,1,0,0:0:0:0:
312,192,41980,1,8,0:0:0:0:
196,172,42046,1,8,0:0:0:0:
196,172,42111,1,0,0:0:0:0:
0,172,42176,1,0,0:0:0:0:
160,268,42241,1,8,0:0:0:0:
160,268,42274,1,8,0:0:0:0:
160,268,42339,1,0,0:0:0:0:
160,268,42372,1,0,0:0:0:0:
164,120,42502,1,12,0:0:0:0:
248,228,42763,1,4,0:0:0:0:
272,104,42763,1,0,0:0:0:0:
272,104,42959,1,0,0:0:0:0:
248,228,42959,1,4,0:0:0:0:
248,228,43154,1,4,0:0:0:0:
272,104,43154,1,0,0:0:0:0:
272,104,43350,1,0,0:0:0:0:
248,228,43350,1,4,0:0:0:0:
248,228,43546,1,4,0:0:0:0:
272,104,43546,1,0,0:0:0:0:
272,104,43807,1,8,0:0:0:0:
248,228,43807,1,12,0:0:0:0:
248,228,43937,1,4,0:0:0:0:
272,104,43937,1,0,0:0:0:0:
272,104,44198,1,8,0:0:0:0:
248,228,44198,1,12,0:0:0:0:
248,228,44459,1,4,0:0:0:0:
272,104,44459,1,0,0:0:0:0:
272,104,44589,1,8,0:0:0:0:
248,228,44589,1,12,0:0:0:0:
248,228,44850,1,4,0:0:0:0:
272,104,44850,1,0,0:0:0:0:
272,104,44980,1,0,0:0:0:0:
248,228,44980,1,4,0:0:0:0:
248,228,45111,1,12,0:0:0:0:
272,104,45111,1,8,0:0:0:0:
272,104,45372,1,0,0:0:0:0:
248,228,45372,1,4,0:0:0:0:
248,228,45633,1,12,0:0:0:0:
272,104,45633,1,8,0:0:0:0:
156,216,45763,1,0,0:0:0:0:
156,216,45828,1,0,0:0:0:0:
156,216,45894,1,8,0:0:0:0:
156,216,46024,1,0,0:0:0:0:
272,176,46089,1,0,0:0:0:0:
256,196,46154,1,8,0:0:0:0:
104,200,46220,1,0,0:0:0:0:
196,168,46285,1,0,0:0:0:0:
352,144,46328,1,0,0:0:0:0:
128,176,46372,1,0,0:0:0:0:
196,168,46415,1,8,0:0:0:0:
196,168,46546,1,0,0:0:0:0:
196,168,46676,1,12,0:0:0:0:
196,172,46937,1,8,0:0:0:0:
136,88,46937,1,12,0:0:0:0:
76,144,47067,1,8,0:0:0:0:
160,68,47067,1,12,0:0:0:0:
76,144,47328,1,0,0:0:0:0:
172,136,47328,1,4,0:0:0:0:
128,96,47589,1,12,0:0:0:0:
76,144,47589,1,8,0:0:0:0:
76,144,47720,1,0,0:0:0:0:
336,20,47720,1,4,0:0:0:0:
128,128,47980,1,12,0:0:0:0:
272,120,47980,1,8,0:0:0:0:
272,120,48111,1,0,0:0:0:0:
276,104,48154,1,0,0:0:0:0:
280,104,48198,1,0,0:0:0:0:
276,104,48241,1,0,0:0:0:0:
340,76,48372,1,8,0:0:0:0:
132,108,48372,1,12,0:0:0:0:
76,92,48633,1,4,0:0:0:0:
340,76,48633,1,0,0:0:0:0:
340,76,48763,1,8,0:0:0:0:
128,88,48763,1,12,0:0:0:0:
152,120,49024,1,12,0:0:0:0:
340,76,49024,1,8,0:0:0:0:
204,36,49154,1,4,0:0:0:0:
356,76,49154,1,0,0:0:0:0:
356,76,49285,1,0,0:0:0:0:
356,76,49350,1,0,0:0:0:0:
356,76,49415,1,8,0:0:0:0:
356,76,49676,1,0,0:0:0:0:
356,76,49807,1,8,0:0:0:0:
84,128,49937,1,0,0:0:0:0:
84,128,50002,1,0,0:0:0:0:
356,76,50067,1,8,0:0:0:0:
332,104,50111,1,0,0:0:0:0:
332,104,50154,1,0,0:0:0:0:
332,104,50198,1,8,0:0:0:0:
328,148,50263,1,0,0:0:0:0:
328,148,50328,1,8,0:0:0:0:
436,84,50372,1,8,0:0:0:0:
380,92,50415,1,8,0:0:0:0:
436,84,50459,1,0,0:0:0:0:
320,108,50524,1,0,0:0:0:0:
320,104,50589,1,8,0:0:0:0:
328,112,50633,1,8,0:0:0:0:
332,112,50676,1,0,0:0:0:0:
328,112,50720,1,0,0:0:0:0:
328,112,50763,1,8,0:0:0:0:
328,112,50850,1,0,0:0:0:0:
308,84,51111,1,8,0:0:0:0:
194,100,51372,1,12,0:0:0:0:
308,88,51372,1,8,0:0:0:0:
246,200,51502,1,0,0:0:0:0:
181,100,51502,1,4,0:0:0:0:
142,32,51763,1,12,0:0:0:0:
326,172,51763,1,8,0:0:0:0:
109,141,51894,1,4,0:0:0:0:
300,202,51894,1,0,0:0:0:0:
35,157,52024,1,4,0:0:0:0:
300,202,52024,1,0,0:0:0:0:
114,218,52154,1,12,0:0:0:0:
300,202,52154,1,8,0:0:0:0:
175,129,52415,1,4,0:0:0:0:
300,202,52415,1,0,0:0:0:0:
209,77,52546,1,12,0:0:0:0:
300,202,52546,1,8,0:0:0:0:
105,69,52807,1,12,0:0:0:0:
300,202,52807,1,8,0:0:0:0:
81,132,52937,1,4,0:0:0:0:
300,202,52937,1,0,0:0:0:0:
300,202,53198,1,8,0:0:0:0:
185,78,53198,1,12,0:0:0:0:
141,188,53328,1,12,0:0:0:0:
300,202,53328,1,8,0:0:0:0:
300,202,53589,1,0,0:0:0:0:
305,177,53654,1,0,0:0:0:0:
300,202,53720,1,0,0:0:0:0:
278,108,53850,1,8,0:0:0:0:
86,65,53850,1,12,0:0:0:0:
12,147,53980,1,4,0:0:0:0:
278,108,53980,1,0,0:0:0:0:
284,89,54111,1,0,0:0:0:0:
312,118,54176,1,0,0:0:0:0:
278,108,54241,1,8,0:0:0:0:
179,95,54307,1,8,0:0:0:0:
179,95,54372,1,0,0:0:0:0:
179,95,54437,1,8,0:0:0:0:
326,141,54502,1,0,0:0:0:0:
244,121,54567,1,0,0:0:0:0:
283,141,54633,1,8,0:0:0:0:
396,97,54676,1,0,0:0:0:0:
246,43,54720,1,0,0:0:0:0:
283,141,54763,1,8,0:0:0:0:
214,79,54894,1,0,0:0:0:0:
214,79,55024,1,8,0:0:0:0:
84,268,55285,1,4,0:0:0:0:
155,167,55285,1,0,0:0:0:0:
92,264,55480,1,4,0:0:0:0:
157,162,55480,1,0,0:0:0:0:
177,93,55676,1,0,0:0:0:0:
92,264,55676,1,4,0:0:0:0:
88,80,55872,1,8,0:0:0:0:
92,264,55872,1,12,0:0:0:0:
90,90,56067,1,0,0:0:0:0:
92,264,56067,1,4,0:0:0:0:
187,97,56263,1,8,0:0:0:0:
92,264,56263,1,12,0:0:0:0:
120,97,56459,1,8,0:0:0:0:
92,264,56459,1,12,0:0:0:0:
54,97,56654,1,0,0:0:0:0:
92,264,56654,1,4,0:0:0:0:
92,264,56850,1,4,0:0:0:0:
126,111,56850,1,0,0:0:0:0:
92,264,57046,1,12,0:0:0:0:
262,41,57046,1,8,0:0:0:0:
169,80,57241,1,8,0:0:0:0:
92,264,57241,1,12,0:0:0:0:
292,128,57372,1,0,0:0:0:0:
163,60,57437,1,8,0:0:0:0:
155,151,57502,1,0,0:0:0:0:
140,97,57546,1,0,0:0:0:0:
140,97,57589,1,0,0:0:0:0:
152,100,57633,1,8,0:0:0:0:
199,153,57698,1,0,0:0:0:0:
203,149,57763,1,8,0:0:0:0:
174,146,57828,5,8,0:0:0:0:
174,143,57871,1,0,0:0:0:0:
174,143,57914,1,0,0:0:0:0:
71,160,57958,1,8,0:0:0:0:
47,175,58024,1,0,0:0:0:0:
110,187,58089,1,0,0:0:0:0:
332,126,58154,1,8,0:0:0:0:
332,126,58198,1,8,0:0:0:0:
332,126,58241,1,8,0:0:0:0:
316,137,58285,1,0,0:0:0:0:
152,100,58415,1,8,0:0:0:0:
276,104,58546,1,0,0:0:0:0:
276,104,58589,1,0,0:0:0:0:
276,104,58633,1,0,0:0:0:0:
268,184,58676,1,8,0:0:0:0:
276,104,58741,1,0,0:0:0:0:
364,100,58807,1,8,0:0:0:0:
364,100,58872,1,8,0:0:0:0:
276,104,58937,1,0,0:0:0:0:
207,71,59002,1,0,0:0:0:0:
364,100,59068,1,8,0:0:0:0:
350,95,59111,1,0,0:0:0:0:
175,49,59154,1,0,0:0:0:0:
364,100,59198,1,8,0:0:0:0:
128,148,59459,1,4,0:0:0:0:
138,198,59720,1,8,0:0:0:0:
138,198,59850,1,4,0:0:0:0:
138,198,60111,1,4,0:0:0:0:
138,198,60241,1,8,0:0:0:0:
204,184,60372,1,0,0:0:0:0:
204,184,60437,1,0,0:0:0:0:
138,198,60502,1,8,0:0:0:0:
152,155,60535,1,8,0:0:0:0:
152,155,60633,1,8,0:0:0:0:
152,155,60666,1,8,0:0:0:0:
152,155,60763,1,8,0:0:0:0:
181,84,60796,1,8,0:0:0:0:
271,137,60894,1,0,0:0:0:0:
271,137,60959,1,8,0:0:0:0:
376,180,61024,1,0,0:0:0:0:
320,216,61067,1,0,0:0:0:0:
272,152,61154,1,8,0:0:0:0:
272,152,61198,1,0,0:0:0:0:
272,152,61241,1,0,0:0:0:0:
272,152,61285,1,8,0:0:0:0:
284,152,61415,1,8,0:0:0:0:
248,172,61480,1,8,0:0:0:0:
376,180,61546,1,0,0:0:0:0:
376,180,61676,1,8,0:0:0:0:
216,132,61741,1,0,0:0:0:0:
216,148,61806,1,8,0:0:0:0:
232,144,61937,1,0,0:0:0:0:
160,184,62002,1,8,0:0:0:0:
168,156,62067,1,0,0:0:0:0:
72,208,62111,1,0,0:0:0:0:
72,208,62154,1,0,0:0:0:0:
72,208,62198,1,8,0:0:0:0:
256,169,62263,1,0,0:0:0:0:
180,143,62328,1,12,0:0:0:0:
112,168,62459,1,0,0:0:0:0:
112,171,62524,1,8,0:0:0:0:
253,165,62589,1,0,0:0:0:0:
253,165,62633,1,0,0:0:0:0:
253,165,62676,1,8,0:0:0:0:
185,138,62720,1,8,0:0:0:0:
253,165,62763,1,0,0:0:0:0:
354,130,62807,1,8,0:0:0:0:
262,119,62850,1,8,0:0:0:0:
140,133,62915,1,0,0:0:0:0:
134,102,62980,1,0,0:0:0:0:
420,78,63046,1,8,0:0:0:0:
86,142,63111,1,0,0:0:0:0:
198,155,63144,1,8,0:0:0:0:
137,143,63241,1,8,0:0:0:0:
203,158,63274,1,0,0:0:0:0:
137,143,63372,1,0,0:0:0:0:
201,162,63404,1,8,0:0:0:0:
137,143,63502,1,8,0:0:0:0:
201,162,63535,1,0,0:0:0:0:
137,143,63633,1,4,0:0:0:0:
157,171,63894,1,4,0:0:0:0:
157,171,64154,1,8,0:0:0:0:
187,148,64285,1,8,0:0:0:0:
187,148,64350,1,8,0:0:0:0:
187,148,64415,1,8,0:0:0:0:
186,148,64546,1,8,0:0:0:0:
187,148,64676,1,0,0:0:0:0:
237,214,64676,1,4,0:0:0:0:
227,97,64807,1,4,0:0:0:0:
177,148,64807,1,0,0:0:0:0:
169,144,64937,1,0,0:0:0:0:
230,120,64937,1,4,0:0:0:0:
177,81,65067,1,4,0:0:0:0:
169,144,65067,1,0,0:0:0:0:
166,142,65198,1,0,0:0:0:0:
165,138,65328,1,8,0:0:0:0:
165,138,65394,1,0,0:0:0:0:
165,138,65459,1,8,0:0:0:0:
165,138,65589,1,8,0:0:0:0:
256,192,65720,12,0,66176,0:0:0:0:
300,200,66241,5,12,0:0:0:0:
300,200,66437,1,12,0:0:0:0:
300,200,66633,1,4,0:0:0:0:
216,200,66763,1,8,0:0:0:0:
236,224,66828,1,8,0:0:0:0:
184,184,66893,1,0,0:0:0:0:
184,140,66959,5,8,0:0:0:0:
184,140,67024,1,8,0:0:0:0:
184,140,67089,1,0,0:0:0:0:
352,132,67154,1,0,0:0:0:0:
184,152,67219,1,8,0:0:0:0:
348,96,67285,1,0,0:0:0:0:
400,156,67317,1,0,0:0:0:0:
312,216,67415,1,8,0:0:0:0:
304,188,67448,1,8,0:0:0:0:
312,216,67546,1,0,0:0:0:0:
300,192,67578,1,0,0:0:0:0:
312,216,67676,1,8,0:0:0:0:
296,192,67709,1,8,0:0:0:0:
183,222,67807,2,4,L|326:224,5,140
204,160,68198,1,12,0:0:0:0:
204,160,68328,1,12,0:0:0:0:
204,160,68524,1,12,0:0:0:0:
204,160,68719,1,12,0:0:0:0:
204,160,68850,1,4,0:0:0:0:
248,144,69111,1,8,0:0:0:0:
248,144,69372,1,0,0:0:0:0:
291,182,69502,1,8,0:0:0:0:
291,182,69546,1,8,0:0:0:0:
291,182,69589,1,0,0:0:0:0:
291,182,69633,1,0,0:0:0:0:
329,197,69698,1,0,0:0:0:0:
329,197,69763,1,8,0:0:0:0:
329,197,69828,1,8,0:0:0:0:
329,197,69894,1,0,0:0:0:0:
286,229,70024,1,8,0:0:0:0:
286,229,70089,1,8,0:0:0:0:
179,155,70154,1,0,0:0:0:0:
179,155,70187,1,0,0:0:0:0:
179,155,70220,1,0,0:0:0:0:
179,155,70252,1,0,0:0:0:0:
179,155,70285,1,8,0:0:0:0:
270,144,70350,1,0,0:0:0:0:
280,122,70415,1,0,0:0:0:0:
280,122,70459,1,0,0:0:0:0:
280,122,70502,1,0,0:0:0:0:
280,123,70546,1,8,0:0:0:0:
199,154,70611,1,0,0:0:0:0:
199,154,70676,1,8,0:0:0:0:
246,117,70807,1,8,0:0:0:0:
246,117,70872,1,0,0:0:0:0:
185,113,70937,1,12,0:0:0:0:
185,113,71067,1,4,0:0:0:0:
185,113,71328,1,8,0:0:0:0:
157,148,71459,1,8,0:0:0:0:
157,148,71524,1,0,0:0:0:0:
179,198,71720,1,8,0:0:0:0:
203,141,71785,1,0,0:0:0:0:
179,198,71850,1,8,0:0:0:0:
157,172,71980,1,4,0:0:0:0:
214,122,72241,1,8,0:0:0:0:
192,125,72372,1,4,0:0:0:0:
192,125,72633,1,0,0:0:0:0:
161,126,72763,1,0,0:0:0:0:
73,177,72807,1,8,0:0:0:0:
73,177,72850,1,0,0:0:0:0:
74,181,72894,1,8,0:0:0:0:
163,85,72959,1,8,0:0:0:0:
100,151,73024,1,0,0:0:0:0:
35,190,73154,1,8,0:0:0:0:
101,191,73220,1,8,0:0:0:0:
226,202,73285,1,0,0:0:0:0:
226,202,73415,1,8,0:0:0:0:
161,195,73480,1,8,0:0:0:0:
161,203,73546,1,0,0:0:0:0:
161,203,73611,1,8,0:0:0:0:
226,202,73676,1,0,0:0:0:0:
226,202,73807,1,8,0:0:0:0:
230,207,73937,1,8,0:0:0:0:
101,239,74067,2,4,L|273:213,7,140
178,129,74589,1,12,0:0:0:0:
178,129,74785,1,12,0:0:0:0:
178,129,74980,1,12,0:0:0:0:
208,143,75111,1,8,0:0:0:0:
253,181,75176,1,0,0:0:0:0:
253,181,75241,1,0,0:0:0:0:
323,189,75307,1,8,0:0:0:0:
323,189,75372,1,8,0:0:0:0:
219,153,75437,1,0,0:0:0:0:
323,189,75502,1,0,0:0:0:0:
54,128,75567,1,8,0:0:0:0:
117,154,75633,1,0,0:0:0:0:
62,165,75665,1,0,0:0:0:0:
114,144,75763,1,8,0:0:0:0:
72,168,75796,1,8,0:0:0:0:
114,144,75894,1,0,0:0:0:0:
72,168,75926,1,0,0:0:0:0:
114,144,76024,1,8,0:0:0:0:
72,168,76057,1,8,0:0:0:0:
114,144,76154,1,4,0:0:0:0:
213,264,76285,1,8,0:0:0:0:
213,264,76415,1,0,0:0:0:0:
213,264,76546,1,8,0:0:0:0:
213,264,76676,1,0,0:0:0:0:
213,264,76807,1,8,0:0:0:0:
213,264,76872,1,8,0:0:0:0:
213,264,76937,1,0,0:0:0:0:
213,264,77067,1,8,0:0:0:0:
213,264,77198,1,0,0:0:0:0:
151,129,77328,1,8,0:0:0:0:
236,118,77394,1,0,0:0:0:0:
151,129,77459,1,8,0:0:0:0:
230,104,77589,1,8,0:0:0:0:
42,170,77720,1,0,0:0:0:0:
134,158,77980,1,8,0:0:0:0:
133,118,78241,1,0,0:0:0:0:
167,106,78372,1,8,0:0:0:0:
133,118,78502,1,0,0:0:0:0:
133,118,78633,1,8,0:0:0:0:
133,118,78698,1,0,0:0:0:0:
133,118,78763,1,8,0:0:0:0:
133,118,78828,1,8,0:0:0:0:
133,118,78894,1,0,0:0:0:0:
133,118,79024,1,8,0:0:0:0:
133,118,79154,1,8,0:0:0:0:
133,118,79220,1,0,0:0:0:0:
133,118,79285,1,8,0:0:0:0:
141,97,79415,1,0,0:0:0:0:
154,91,79546,1,8,0:0:0:0:
148,223,79611,1,8,0:0:0:0:
150,233,79676,1,0,0:0:0:0:
160,225,79807,1,8,0:0:0:0:
252,183,79839,1,0,0:0:0:0:
166,200,79937,1,8,0:0:0:0:
252,183,79970,1,0,0:0:0:0:
166,200,80067,1,8,0:0:0:0:
284,171,80100,1,0,0:0:0:0:
166,200,80198,1,8,0:0:0:0:
284,171,80230,1,0,0:0:0:0:
252,183,80328,1,0,0:0:0:0:
201,114,80459,1,8,0:0:0:0:
233,166,80524,1,8,0:0:0:0:
233,166,80589,1,0,0:0:0:0:
208,155,80720,1,8,0:0:0:0:
208,155,80785,1,8,0:0:0:0:
208,155,80850,1,0,0:0:0:0:
208,155,80915,1,8,0:0:0:0:
119,117,80980,1,0,0:0:0:0:
208,155,81111,1,8,0:0:0:0:
198,160,81241,1,0,0:0:0:0:
112,109,81307,1,8,0:0:0:0:
198,160,81372,1,0,0:0:0:0:
188,158,81502,1,8,0:0:0:0:
10,159,81567,1,8,0:0:0:0:
188,158,81633,1,0,0:0:0:0:
163,100,81698,1,0,0:0:0:0:
188,158,81763,1,8,0:0:0:0:
188,158,81894,1,0,0:0:0:0:
226,115,82154,1,8,0:0:0:0:
220,184,82415,1,0,0:0:0:0:
284,224,82480,1,0,0:0:0:0:
284,224,82546,1,0,0:0:0:0:
284,224,82611,1,0,0:0:0:0:
284,224,82676,1,8,0:0:0:0:
284,224,82741,1,8,0:0:0:0:
284,224,82806,1,8,0:0:0:0:
284,224,82872,1,8,0:0:0:0:
284,224,82937,1,0,0:0:0:0:
284,224,83002,1,0,0:0:0:0:
284,224,83067,1,8,0:0:0:0:
284,224,83133,1,0,0:0:0:0:
284,224,83198,1,8,0:0:0:0:
284,224,83263,1,8,0:0:0:0:
284,224,83328,1,8,0:0:0:0:
284,224,83393,1,8,0:0:0:0:
284,224,83459,1,0,0:0:0:0:
284,224,83524,1,0,0:0:0:0:
312,192,83589,1,8,0:0:0:0:
312,192,83633,1,0,0:0:0:0:
312,192,83676,1,0,0:0:0:0:
312,192,83719,1,8,0:0:0:0:
196,172,83785,1,8,0:0:0:0:
196,172,83850,1,0,0:0:0:0:
0,172,83915,1,0,0:0:0:0:
196,172,83980,1,8,0:0:0:0:
170,175,84024,1,8,0:0:0:0:
111,193,84067,1,0,0:0:0:0:
111,193,84111,1,0,0:0:0:0:
148,269,84241,2,4,L|319:207,3,140
250,211,84502,1,4,0:0:0:0:
274,87,84502,1,0,0:0:0:0:
250,211,84698,1,4,0:0:0:0:
274,87,84698,1,0,0:0:0:0:
250,211,84893,1,4,0:0:0:0:
274,87,84893,1,0,0:0:0:0:
250,211,85089,1,4,0:0:0:0:
274,87,85089,1,0,0:0:0:0:
250,211,85285,1,4,0:0:0:0:
274,87,85285,1,0,0:0:0:0:
250,211,85546,1,12,0:0:0:0:
274,87,85546,1,8,0:0:0:0:
250,211,85676,1,4,0:0:0:0:
274,87,85676,1,0,0:0:0:0:
250,211,85937,1,12,0:0:0:0:
274,87,85937,1,8,0:0:0:0:
250,211,86198,1,4,0:0:0:0:
274,87,86198,1,0,0:0:0:0:
274,87,86328,1,8,0:0:0:0:
250,211,86328,1,12,0:0:0:0:
250,211,86589,1,4,0:0:0:0:
274,87,86589,1,0,0:0:0:0:
274,87,86719,1,0,0:0:0:0:
250,211,86719,1,4,0:0:0:0:
250,211,86850,1,12,0:0:0:0:
274,87,86850,1,8,0:0:0:0:
274,87,87111,1,0,0:0:0:0:
250,211,87111,1,4,0:0:0:0:
250,211,87372,1,12,0:0:0:0:
274,87,87372,1,8,0:0:0:0:
158,199,87502,1,0,0:0:0:0:
158,199,87567,1,0,0:0:0:0:
158,199,87633,1,8,0:0:0:0:
158,199,87763,1,0,0:0:0:0:
274,159,87828,1,0,0:0:0:0:
258,179,87893,1,8,0:0:0:0:
106,183,87959,1,8,0:0:0:0:
198,151,88024,1,0,0:0:0:0:
354,127,88067,1,0,0:0:0:0:
130,159,88111,1,0,0:0:0:0:
198,151,88154,1,0,0:0:0:0:
198,151,88285,1,0,0:0:0:0:
198,151,88415,1,12,0:0:0:0:
198,155,88676,1,8,0:0:0:0:
138,71,88676,1,12,0:0:0:0:
78,127,88806,1,8,0:0:0:0:
162,51,88806,1,12,0:0:0:0:
78,127,89067,1,0,0:0:0:0:
174,119,89067,1,4,0:0:0:0:
130,79,89328,1,12,0:0:0:0:
78,127,89328,1,8,0:0:0:0:
78,127,89459,1,0,0:0:0:0:
338,3,89459,1,4,0:0:0:0:
130,111,89719,1,12,0:0:0:0:
274,103,89719,1,8,0:0:0:0:
274,103,89850,1,0,0:0:0:0:
278,87,89893,1,8,0:0:0:0:
282,87,89937,1,8,0:0:0:0:
278,87,89980,1,0,0:0:0:0:
342,59,90111,1,8,0:0:0:0:
134,91,90111,1,12,0:0:0:0:
342,59,90372,1,0,0:0:0:0:
130,71,90372,1,4,0:0:0:0:
78,75,90502,1,12,0:0:0:0:
342,59,90502,1,8,0:0:0:0:
154,103,90763,1,12,0:0:0:0:
342,59,90763,1,8,0:0:0:0:
206,19,90893,1,4,0:0:0:0:
358,59,90893,1,0,0:0:0:0:
358,59,91024,1,0,0:0:0:0:
358,59,91089,1,0,0:0:0:0:
358,59,91154,1,8,0:0:0:0:
358,59,91415,1,0,0:0:0:0:
358,59,91546,1,8,0:0:0:0:
86,111,91676,1,0,0:0:0:0:
86,111,91741,1,0,0:0:0:0:
358,59,91806,1,8,0:0:0:0:
334,87,91850,1,8,0:0:0:0:
334,87,91893,1,0,0:0:0:0:
334,87,91937,1,0,0:0:0:0:
330,131,92002,1,0,0:0:0:0:
330,131,92067,1,8,0:0:0:0:
438,67,92111,1,0,0:0:0:0:
382,75,92154,1,0,0:0:0:0:
438,67,92198,1,8,0:0:0:0:
322,91,92263,1,0,0:0:0:0:
322,87,92328,1,8,0:0:0:0:
330,95,92372,1,8,0:0:0:0:
334,95,92415,1,0,0:0:0:0:
330,95,92459,1,0,0:0:0:0:
330,95,92502,1,8,0:0:0:0:
330,95,92589,1,0,0:0:0:0:
310,67,92850,1,8,0:0:0:0:
196,83,93111,1,12,0:0:0:0:
310,71,93111,1,8,0:0:0:0:
248,183,93241,1,0,0:0:0:0:
183,83,93241,1,4,0:0:0:0:
328,155,93502,1,8,0:0:0:0:
144,15,93502,1,12,0:0:0:0:
111,124,93633,1,4,0:0:0:0:
302,185,93633,1,0,0:0:0:0:
302,185,93763,1,0,0:0:0:0:
37,140,93763,1,4,0:0:0:0:
116,201,93893,1,12,0:0:0:0:
302,185,93893,1,8,0:0:0:0:
302,185,94154,1,0,0:0:0:0:
177,112,94154,1,4,0:0:0:0:
211,60,94285,1,12,0:0:0:0:
302,185,94285,1,8,0:0:0:0:
302,185,94546,1,8,0:0:0:0:
107,52,94546,1,12,0:0:0:0:
83,115,94676,1,4,0:0:0:0:
302,185,94676,1,0,0:0:0:0:
187,61,94937,1,12,0:0:0:0:
302,185,94937,1,8,0:0:0:0:
143,171,95067,1,12,0:0:0:0:
302,185,95067,1,8,0:0:0:0:
302,185,95328,1,0,0:0:0:0:
307,160,95393,1,0,0:0:0:0:
302,185,95459,1,0,0:0:0:0:
280,91,95589,1,8,0:0:0:0:
88,48,95589,1,12,0:0:0:0:
280,91,95719,1,0,0:0:0:0:
14,130,95719,1,4,0:0:0:0:
286,72,95850,1,0,0:0:0:0:
314,101,95915,1,0,0:0:0:0:
280,91,95980,1,8,0:0:0:0:
181,78,96046,1,8,0:0:0:0:
181,78,96111,1,0,0:0:0:0:
181,78,96176,1,8,0:0:0:0:
328,124,96241,1,0,0:0:0:0:
246,104,96306,1,0,0:0:0:0:
285,124,96372,1,8,0:0:0:0:
398,80,96415,1,0,0:0:0:0:
248,26,96459,1,0,0:0:0:0:
285,124,96502,1,8,0:0:0:0:
216,62,96633,1,0,0:0:0:0:
216,62,96763,1,8,0:0:0:0:
86,251,97024,1,4,0:0:0:0:
157,150,97024,1,0,0:0:0:0:
94,247,97219,1,4,0:0:0:0:
159,145,97219,1,0,0:0:0:0:
179,76,97415,1,0,0:0:0:0:
94,247,97415,1,4,0:0:0:0:
90,63,97611,1,8,0:0:0:0:
94,247,97611,1,12,0:0:0:0:
92,73,97806,1,0,0:0:0:0:
94,247,97806,1,4,0:0:0:0:
189,80,98002,1,8,0:0:0:0:
94,247,98002,1,12,0:0:0:0:
122,80,98198,1,8,0:0:0:0:
94,247,98198,1,12,0:0:0:0:
56,80,98393,1,0,0:0:0:0:
94,247,98393,1,4,0:0:0:0:
94,247,98589,1,4,0:0:0:0:
128,94,98589,1,0,0:0:0:0:
94,247,98785,1,12,0:0:0:0:
264,24,98785,1,8,0:0:0:0:
171,63,98980,1,0,0:0:0:0:
94,247,98980,1,4,0:0:0:0:
294,111,99111,1,8,0:0:0:0:
148,160,99176,1,8,0:0:0:0:
148,160,99241,1,0,0:0:0:0:
148,160,99285,1,0,0:0:0:0:
148,160,99328,1,0,0:0:0:0:
294,111,99372,1,8,0:0:0:0:
148,160,99437,1,0,0:0:0:0:
148,160,99502,1,8,0:0:0:0:
148,160,99546,1,0,0:0:0:0:
148,160,99589,1,0,0:0:0:0:
294,111,99633,1,8,0:0:0:0:
148,160,99698,1,8,0:0:0:0:
148,160,99763,1,0,0:0:0:0:
148,160,99807,1,0,0:0:0:0:
148,160,99850,1,0,0:0:0:0:
294,111,99894,1,8,0:0:0:0:
148,160,99959,1,0,0:0:0:0:
148,160,100024,1,8,0:0:0:0:
148,160,100068,1,0,0:0:0:0:
148,160,100111,1,0,0:0:0:0:
4,145,100154,1,8,0:0:0:0:
161,108,100220,1,8,0:0:0:0:
278,87,100285,1,0,0:0:0:0:
278,87,100328,1,0,0:0:0:0:
278,87,100372,1,0,0:0:0:0:
270,167,100415,1,8,0:0:0:0:
278,87,100480,1,0,0:0:0:0:
366,83,100546,1,8,0:0:0:0:
366,83,100611,1,8,0:0:0:0:
278,87,100676,1,0,0:0:0:0:
209,54,100741,1,0,0:0:0:0:
366,83,100807,1,8,0:0:0:0:
352,78,100850,1,8,0:0:0:0:
177,32,100893,1,8,0:0:0:0:
366,83,100937,1,8,0:0:0:0:
376,180,101198,5,4,0:0:0:0:
376,180,101458,1,8,0:0:0:0:
376,180,101589,1,4,0:0:0:0:
376,180,101850,1,4,0:0:0:0:
376,180,101980,1,8,0:0:0:0:
124,184,102111,1,0,0:0:0:0:
56,168,102176,1,0,0:0:0:0:
376,180,102241,1,8,0:0:0:0:
264,176,102274,1,8,0:0:0:0:
376,180,102372,1,8,0:0:0:0:
216,96,102404,1,8,0:0:0:0:
376,180,102502,1,8,0:0:0:0:
220,208,102535,1,8,0:0:0:0:
376,180,102632,1,0,0:0:0:0:
376,180,102698,1,8,0:0:0:0:
376,180,102763,1,0,0:0:0:0:
320,216,102806,1,0,0:0:0:0:
272,152,102893,1,8,0:0:0:0:
272,152,102937,1,0,0:0:0:0:
272,152,102980,1,0,0:0:0:0:
272,152,103024,1,8,0:0:0:0:
284,152,103154,1,8,0:0:0:0:
248,172,103219,1,8,0:0:0:0:
376,180,103285,1,0,0:0:0:0:
376,180,103415,1,8,0:0:0:0:
216,132,103480,1,0,0:0:0:0:
216,148,103545,1,8,0:0:0:0:
232,144,103676,1,0,0:0:0:0:
160,184,103741,1,8,0:0:0:0:
168,156,103806,1,0,0:0:0:0:
72,208,103850,1,0,0:0:0:0:
72,208,103893,1,0,0:0:0:0:
72,208,103937,1,8,0:0:0:0:
220,124,104067,1,8,0:0:0:0:
216,172,104198,1,0,0:0:0:0:
300,220,104263,1,0,0:0:0:0:
376,180,104328,1,8,0:0:0:0:
268,232,104393,1,8,0:0:0:0:
364,168,104458,1,0,0:0:0:0:
192,152,104524,1,8,0:0:0:0:
192,152,104589,1,0,0:0:0:0:
224,148,104654,1,0,0:0:0:0:
224,148,104719,1,8,0:0:0:0:
224,148,104785,1,8,0:0:0:0:
236,228,104850,1,0,0:0:0:0:
220,224,104882,1,0,0:0:0:0:
232,148,104980,1,8,0:0:0:0:
208,176,105013,1,8,0:0:0:0:
232,148,105111,1,0,0:0:0:0:
232,216,105143,1,0,0:0:0:0:
232,148,105241,1,8,0:0:0:0:
208,176,105274,1,8,0:0:0:0:
232,148,105372,1,4,0:0:0:0:
228,152,105632,1,4,0:0:0:0:
232,152,105893,1,8,0:0:0:0:
232,152,106024,1,8,0:0:0:0:
212,228,106089,1,8,0:0:0:0:
232,152,106154,1,8,0:0:0:0:
228,168,106285,1,8,0:0:0:0:
228,168,106415,1,0,0:0:0:0:
336,136,106448,1,8,0:0:0:0:
280,192,106545,1,0,0:0:0:0:
320,168,106578,1,8,0:0:0:0:
280,192,106676,1,0,0:0:0:0:
320,168,106708,1,8,0:0:0:0:
280,192,106806,1,0,0:0:0:0:
320,168,106839,1,8,0:0:0:0:
280,192,106937,1,0,0:0:0:0:
208,184,107067,1,8,0:0:0:0:
208,184,107132,1,0,0:0:0:0:
208,184,107198,1,8,0:0:0:0:
208,184,107328,1,8,0:0:0:0:
256,192,107458,12,0,107915,0:0:0:0:
300,200,107980,5,12,0:0:0:0:
300,200,108176,1,12,0:0:0:0:
300,200,108372,1,4,0:0:0:0:
216,200,108502,1,8,0:0:0:0:
236,224,108567,1,8,0:0:0:0:
184,184,108632,1,0,0:0:0:0:
184,140,108698,5,8,0:0:0:0:
184,140,108763,1,8,0:0:0:0:
184,140,108828,1,0,0:0:0:0:
352,132,108893,1,0,0:0:0:0:
184,152,108958,1,8,0:0:0:0:
348,96,109024,1,0,0:0:0:0:
400,156,109056,1,0,0:0:0:0:
312,216,109154,1,8,0:0:0:0:
304,188,109187,1,8,0:0:0:0:
312,216,109285,1,0,0:0:0:0:
300,192,109317,1,0,0:0:0:0:
312,216,109415,1,8,0:0:0:0:
296,192,109448,1,8,0:0:0:0:
183,222,109546,2,4,L|395:213,3,210
204,160,109937,1,12,0:0:0:0:
204,160,110067,1,12,0:0:0:0:
204,160,110263,1,12,0:0:0:0:
204,160,110458,1,12,0:0:0:0:
204,160,110589,1,4,0:0:0:0:
248,144,110850,1,8,0:0:0:0:
248,144,111111,1,0,0:0:0:0:
248,144,111241,1,8,0:0:0:0:
376,88,111285,1,8,0:0:0:0:
344,116,111328,1,0,0:0:0:0:
312,144,111372,1,0,0:0:0:0:
296,116,111437,1,0,0:0:0:0:
288,128,111502,1,8,0:0:0:0:
288,128,111567,1,8,0:0:0:0:
248,144,111632,1,0,0:0:0:0:
204,204,111763,1,8,0:0:0:0:
204,204,111828,1,8,0:0:0:0:
172,192,111893,1,0,0:0:0:0:
172,208,111958,1,0,0:0:0:0:
168,208,112024,1,8,0:0:0:0:
204,204,112089,1,0,0:0:0:0:
248,236,112154,1,0,0:0:0:0:
296,128,112198,1,0,0:0:0:0:
288,136,112241,1,8,0:0:0:0:
144,224,112328,1,0,0:0:0:0:
304,248,112415,1,8,0:0:0:0:
296,160,112545,1,8,0:0:0:0:
160,68,112611,1,0,0:0:0:0:
296,160,112676,1,12,0:0:0:0:
216,156,112806,1,4,0:0:0:0:
216,156,113067,1,12,0:0:0:0:
188,148,113198,1,0,0:0:0:0:
192,152,113263,1,0,0:0:0:0:
192,152,113458,1,8,0:0:0:0:
180,120,113524,1,0,0:0:0:0:
192,152,113589,1,8,0:0:0:0:
192,152,113719,1,4,0:0:0:0:
160,184,113980,1,8,0:0:0:0:
160,184,114111,1,4,0:0:0:0:
160,184,114372,1,0,0:0:0:0:
160,184,114502,1,0,0:0:0:0:
160,208,114545,1,8,0:0:0:0:
168,208,114589,1,0,0:0:0:0:
164,232,114632,1,8,0:0:0:0:
164,232,114698,1,8,0:0:0:0:
164,232,114763,1,0,0:0:0:0:
264,216,114893,1,8,0:0:0:0:
176,160,114958,1,0,0:0:0:0:
164,232,115024,1,8,0:0:0:0:
164,232,115154,1,0,0:0:0:0:
128,212,115219,1,8,0:0:0:0:
192,168,115285,1,0,0:0:0:0:
156,200,115350,1,0,0:0:0:0:
164,232,115415,1,8,0:0:0:0:
164,232,115545,1,8,0:0:0:0:
164,232,115676,1,0,0:0:0:0:
164,232,115741,1,0,0:0:0:0:
196,292,115807,2,4,B|392:280|392:280|392:136|392:136|192:160|192:160|136:280|136:280|236:332|236:332|248:336|320:224|328:212|336:196|320:164|260:132,1,980
204,216,116328,1,12,0:0:0:0:
204,216,116524,1,12,0:0:0:0:
204,216,116719,1,12,0:0:0:0:
204,152,116850,1,0,0:0:0:0:
204,152,116915,1,8,0:0:0:0:
188,208,116980,1,8,0:0:0:0:
224,196,117024,1,8,0:0:0:0:
188,208,117067,1,0,0:0:0:0:
176,128,117111,1,0,0:0:0:0:
432,92,117176,5,0,0:0:0:0:
180,152,117241,1,8,0:0:0:0:
236,228,117372,1,0,0:0:0:0:
220,224,117404,1,0,0:0:0:0:
232,148,117502,1,8,0:0:0:0:
208,176,117535,1,8,0:0:0:0:
232,148,117633,1,0,0:0:0:0:
232,216,117665,1,0,0:0:0:0:
232,148,117763,1,8,0:0:0:0:
208,176,117796,1,8,0:0:0:0:
228,252,117893,1,0,0:0:0:0:
240,180,117980,1,8,0:0:0:0:
