osu file format v14

[General]
AudioFilename: audio.mp3
AudioLeadIn: 0
PreviewTime: 50548
Countdown: 0
SampleSet: Soft
StackLeniency: 0.7
Mode: 2
LetterboxInBreaks: 0
WidescreenStoryboard: 1

[Editor]
Bookmarks: 19962,22304,24645,43084,51865,52011,52157,52450,52743,52889,53035,53328,53621,53767,53913,54206,54499,54645,54791,55084,55230,55377,55450,55670,55816,55962,56109,56255,56548,56694,56840,57133,57426,57572,57718,57865,57938,58084,58157,58230,58596,58889,59035,59109,59255,59474,59621,59913,60206,60352,60645
DistanceSpacing: 2
BeatDivisor: 4
GridSize: 4
TimelineZoom: 2.799999

[Metadata]
Title:Mangetsu no Chikurin (MRM REMIX)
TitleUnicode:満月の竹林 (MRM REMIX)
Artist:Morimori Atsushi
ArtistUnicode:モリモリあつし
Creator:Kukkai
Version:Salad
Source:東方輝針城 ~ Double Dealing Character.
Tags:Verti mpg th14 Happy Hardcore mappers' guild mg featured artist fa ZUN 上海アリス幻樂団 Team Shanghai Alice imaizumi kagerou 今泉影狼 touhou 東方project Bamboo Forest of the Full Moon Instrumental Electronic
BeatmapID:3340064
BeatmapSetID:1631702

[Difficulty]
HPDrainRate:3
CircleSize:3
OverallDifficulty:7
ApproachRate:7
SliderMultiplier:1.15
SliderTickRate:1

[Events]
//Background and Video events
0,0,"60684425_p2.jpg",0,0
//Break Periods
//Storyboard Layer 0 (Background)
//Storyboard Layer 1 (Fail)
//Storyboard Layer 2 (Pass)
//Storyboard Layer 3 (Foreground)
//Storyboard Layer 4 (Overlay)
//Storyboard Sound Samples

[TimingPoints]
1231,292.682926829268,4,2,1,70,1,0
1231,-100,4,2,1,70,0,0
2401,-100,4,2,1,60,0,0
3572,-100,4,2,1,70,0,0
4743,-100,4,2,1,60,0,0
5913,-100,4,2,1,70,0,0
10596,-100,4,2,1,70,0,0
16450,-100,4,2,1,50,0,0
17621,-100,4,2,1,50,0,0
26987,-100,4,2,1,60,0,0
36352,-100,4,2,1,50,0,0
41035,-100,4,2,1,60,0,0
51572,-100,4,2,1,70,0,1
59767,-100,4,2,1,70,0,0
60938,-100,4,2,1,70,0,1
69133,-100,4,2,1,70,0,0
70304,-100,4,2,1,60,0,0
79670,-100,4,2,1,50,0,0
84352,-100,4,2,1,60,0,0
90206,-90.9090909090909,4,2,1,70,0,1
98401,-90.9090909090909,4,2,1,70,0,0
99572,-90.9090909090909,4,2,1,70,0,1
107767,-90.9090909090909,4,2,1,70,0,0
107913,-90.9090909090909,4,2,1,70,0,1
108938,-90.9090909090909,4,2,1,70,0,0
109084,-90.9090909090909,4,2,1,70,0,1
110109,-90.9090909090909,4,2,1,70,0,0
110255,-90.9090909090909,4,2,1,70,0,1
111279,-90.9090909090909,4,2,1,70,0,0
112450,-90.9090909090909,4,2,1,60,0,0
113035,-90.9090909090909,4,2,1,50,0,0
113621,-90.9090909090909,4,2,1,40,0,0
114206,-90.9090909090909,4,2,1,30,0,0
114791,-90.9090909090909,4,2,1,20,0,0
115377,-90.9090909090909,4,2,1,10,0,0
115962,-90.9090909090909,4,2,1,5,0,0

[Colours]
Combo1 : 169,184,216
Combo2 : 204,64,88
Combo3 : 163,181,131
Combo4 : 154,105,115

[HitObjects]
268,208,1231,6,0,L|452:208,2,172.5,6|2|2,1:2|1:2|1:2,0:0:0:0:
152,216,2401,6,0,L|152:136,1,57.5,0|0,1:2|1:2,0:0:0:0:
208,160,2694,1,8,0:2:0:0:
324,164,2987,2,0,L|400:164,2,57.5,0|0|8,0:0|1:2|0:2,0:0:0:0:
184,324,3572,6,0,L|4:324,2,172.5,6|2|2,1:2|1:2|1:2,0:0:0:0:
300,324,4743,6,0,L|408:324,2,86.25,8|8|8,0:0|0:2|0:2,0:0:0:0:
244,324,5328,2,0,L|116:324,1,115,0|8,1:2|0:2,0:0:0:0:
129,324,5767,1,8,0:2:0:0:
292,216,5913,6,0,L|472:216,2,172.5,6|2|2,1:2|1:2|1:2,0:0:0:0:
180,236,7084,2,0,L|180:60,1,172.5,6|2,1:2|1:2,0:0:0:0:
352,64,7962,1,2,1:2:0:0:
112,336,8255,6,0,L|304:336,2,172.5,6|2|2,1:2|1:2|1:2,0:0:0:0:
228,324,9426,2,0,L|228:136,1,172.5,6|2,1:2|1:2,0:0:0:0:
56,160,10304,1,2,1:2:0:0:
296,232,10596,6,0,L|412:232,1,115,6|8,1:2|1:2,0:0:0:0:
468,232,11035,2,0,L|340:232,1,115,2|0,1:2|1:2,0:0:0:0:
296,232,11474,1,2,1:2:0:0:
56,352,11767,6,0,L|192:352,1,115,6|8,1:2|1:2,0:0:0:0:
228,352,12206,2,0,L|92:352,1,115,2|0,1:2|1:2,0:0:0:0:
56,352,12645,1,2,1:2:0:0:
296,236,12938,6,0,L|368:236,1,57.5,4|0,1:2|1:2,0:0:0:0:
296,236,13230,1,8,1:2:0:0:
240,236,13377,2,0,L|168:236,1,57.5,2|0,1:2|1:2,0:0:0:0:
124,236,13670,1,0,1:2:0:0:
182,236,13816,1,2,1:2:0:0:
424,196,14109,6,0,L|228:196,1,172.5,6|2,1:2|0:2,0:0:0:0:
196,196,14694,1,0,1:2:0:0:
196,140,14840,1,0,1:2:0:0:
252,140,14987,1,2,1:2:0:0:
488,124,15279,1,6,1:2:0:0:
168,280,16450,6,0,L|264:280,2,86.25,2|2|2,0:2|0:2|0:2,0:0:0:0:
112,284,17035,2,0,L|112:152,1,115,2|2,0:2|0:2,0:0:0:0:
168,172,17474,1,2,0:2:0:0:
332,344,17621,6,0,P|368:308|312:152,1,230,2|2,1:2|0:2,0:0:0:0:
116,164,18791,6,0,L|348:84,1,230,2|2,0:2|0:2,0:0:0:0:
388,72,19523,1,2,0:2:0:0:
336,96,19670,1,2,0:2:0:0:
208,356,19962,6,0,P|140:320|212:220,1,230,2|2,0:2|0:2,0:0:0:0:
404,224,21133,6,0,L|180:136,1,230,2|2,0:2|0:0,0:0:0:0:
136,120,21865,1,2,0:0:0:0:
136,64,22011,1,2,0:0:0:0:
260,356,22304,6,0,L|476:264,3,230,2|2|2|2,0:0|0:0|0:0|0:0,0:0:0:0:
228,364,24645,6,0,P|140:316|240:140,1,345,2|0,0:0|0:0,0:0:0:0:
288,144,25670,1,2,0:0:0:0:
344,144,25816,6,0,L|344:64,1,57.5,2|2,0:0|0:0,0:0:0:0:
288,92,26109,1,2,0:0:0:0:
172,96,26401,2,0,L|92:96,2,57.5,0|2|2,0:0|0:0|0:0,0:0:0:0:
412,348,26987,6,0,L|412:212,1,115,6|0,1:2|1:2,0:0:0:0:
296,240,27572,2,0,L|156:240,1,115,2|0,1:2|1:2,0:0:0:0:
124,240,28011,1,0,0:0:0:0:
180,240,28157,6,0,L|300:240,1,115,0|0,1:2|1:2,0:0:0:0:
412,240,28743,2,0,L|412:108,1,115,2|2,1:2|1:2,0:0:0:0:
168,124,29328,6,0,L|48:124,1,115,6|0,1:2|1:2,0:0:0:0:
168,124,29913,2,0,L|288:124,1,115,2|0,1:2|1:2,0:0:0:0:
168,124,30499,6,0,L|168:256,1,115,2|0,1:2|1:2,0:0:0:0:
284,232,31084,2,0,L|148:232,1,115,2|0,1:2|1:2,0:0:0:0:
420,240,31670,6,0,L|420:156,1,57.5,6|0,1:2|1:2,0:0:0:0:
364,184,31962,1,0,1:2:0:0:
248,188,32255,1,2,1:2:0:0:
190,188,32401,1,0,1:2:0:0:
133,188,32547,1,0,1:2:0:0:
248,188,32840,5,2,1:2:0:0:
305,188,32986,1,0,1:2:0:0:
305,188,33132,1,0,1:2:0:0:
190,188,33426,2,0,L|114:188,1,57.5,2|0,1:2|1:2,0:0:0:0:
132,188,33718,1,0,1:2:0:0:
376,356,34011,5,6,1:2:0:0:
427,333,34157,1,0,1:2:0:0:
447,281,34303,1,0,1:2:0:0:
424,230,34450,1,0,1:2:0:0:
371,210,34596,1,0,1:2:0:0:
256,212,34889,1,0,1:2:0:0:
480,160,35182,6,0,L|480:60,1,86.25,2|2,1:2|1:2,0:0:0:0:
392,76,35621,1,2,1:2:0:0:
334,76,35767,1,2,1:2:0:0:
276,76,35913,1,2,1:2:0:0:
218,76,36059,1,2,1:2:0:0:
276,76,36206,1,2,1:2:0:0:
440,360,36352,6,0,P|496:264|368:152,1,287.5,4|0,1:2|1:2,0:0:0:0:
216,164,37523,2,0,L|112:164,2,86.25,0|0|0,1:2|1:2|1:2,0:0:0:0:
272,164,38109,1,2,0:2:0:0:
328,164,38255,1,2,1:2:0:0:
328,164,38401,1,8,1:1:0:0:
272,168,38548,1,2,0:2:0:0:
104,356,38694,6,0,P|48:320|136:156,1,287.5,6|0,1:2|1:2,0:0:0:0:
292,180,39865,2,0,L|392:180,2,86.25,0|0|0,1:2|1:2|1:2,0:0:0:0:
176,184,40596,2,0,L|176:104,1,57.5,0|8,1:0|1:1,0:0:0:0:
428,72,41035,6,0,L|300:72,1,115,6|0,1:2|0:0,0:0:0:0:
252,68,41474,2,0,L|380:68,1,115,6|0,1:2|0:0,0:0:0:0:
424,68,41913,1,6,1:2:0:0:
252,68,42352,6,0,L|252:204,1,115,6|0,1:2|0:0,0:0:0:0:
308,180,42791,1,6,1:2:0:0:
365,180,42937,1,0,1:2:0:0:
423,180,43083,1,6,1:2:0:0:
188,224,43377,6,0,L|68:224,1,115,6|8,1:2|0:2,0:0:0:0:
16,224,43816,2,0,L|132:224,1,115,6|8,1:2|0:2,0:0:0:0:
188,224,44255,1,6,1:2:0:0:
360,220,44694,6,0,L|224:220,1,115,6|8,1:2|0:0,0:0:0:0:
188,220,45133,1,6,1:2:0:0:
132,220,45279,1,0,1:2:0:0:
132,164,45426,1,6,1:2:0:0:
372,292,45718,6,0,L|372:216,1,57.5,6|0,1:2|1:2,0:0:0:0:
316,240,46011,1,0,1:2:0:0:
260,240,46157,2,0,L|392:240,1,115,6|0,1:2|1:2,0:0:0:0:
432,240,46596,1,6,1:2:0:0:
296,172,46889,5,0,1:2:0:0:
238,172,47035,1,6,1:2:0:0:
181,172,47181,1,0,1:2:0:0:
240,172,47328,2,0,L|380:172,1,115,0|0,1:2|0:0,0:0:0:0:
355,172,47767,1,6,1:2:0:0:
116,252,48060,6,0,L|116:184,1,57.5,6|0,1:2|1:2,0:0:0:0:
172,196,48352,1,0,1:2:0:0:
228,196,48499,2,0,L|228:120,1,57.5,6|0,1:2|1:2,0:0:0:0:
172,144,48791,1,0,1:2:0:0:
116,144,48938,1,6,1:2:0:0:
364,256,49230,6,0,L|444:256,2,57.5,0|6|0,1:2|1:2|1:2,0:0:0:0:
304,256,49670,2,0,L|232:256,2,57.5,0|6|0,1:2|1:2|1:2,0:0:0:0:
360,256,50109,2,0,P|384:224|344:148,1,115,6|0,1:2|1:2,0:0:0:0:
200,272,50548,6,0,L|200:148,1,115,2|2,1:2|1:2,0:0:0:0:
256,160,50987,1,2,1:2:0:0:
372,160,51279,1,2,1:2:0:0:
124,348,51572,6,0,L|124:212,1,115,6|2,1:2|1:2,0:0:0:0:
180,236,52011,1,2,0:2:0:0:
236,232,52157,2,0,L|356:232,1,115,2|2,1:2|1:2,0:0:0:0:
108,152,52743,6,0,L|36:152,2,57.5,2|2|2,1:2|0:2|1:2,0:0:0:0:
224,152,53328,1,2,1:2:0:0:
108,148,53621,1,2,1:2:0:0:
360,332,53913,6,0,L|360:208,1,115,2|2,1:2|1:2,0:0:0:0:
244,208,54499,1,2,1:2:0:0:
301,208,54645,1,2,0:2:0:0:
359,208,54791,1,2,1:2:0:0:
108,172,55084,6,0,L|44:172,2,57.5,2|2|2,1:2|0:2|1:2,0:0:0:0:
224,172,55670,2,0,L|224:92,1,57.5,2|2,1:2|0:2,0:0:0:0:
168,116,55962,2,0,L|168:40,1,57.5,2|2,1:2|0:2,0:0:0:0:
332,56,56255,6,0,L|464:56,1,115,6|2,1:2|1:2,0:0:0:0:
388,56,56694,1,2,0:2:0:0:
332,52,56840,2,0,L|208:52,1,115,2|2,1:2|1:2,0:0:0:0:
464,248,57426,6,0,L|464:176,1,57.5,2|2,1:2|0:2,0:0:0:0:
407,192,57718,2,0,L|304:192,2,86.25,2|2|2,1:2|0:2|0:0,0:0:0:0:
464,190,58304,1,0,1:2:0:0:
212,352,58596,6,0,P|196:300|228:236,1,115,2|2,1:2|1:2,0:0:0:0:
276,248,59035,1,2,0:2:0:0:
332,248,59182,2,0,L|460:248,1,115,0|2,1:2|1:2,0:0:0:0:
387,244,59621,1,2,0:2:0:0:
136,256,59913,6,0,L|136:124,1,115,2|2,1:2|1:2,0:0:0:0:
192,140,60352,1,2,1:2:0:0:
76,140,60645,1,2,1:2:0:0:
332,360,60938,6,0,L|332:232,1,115,6|2,1:2|1:2,0:0:0:0:
276,248,61377,1,2,0:2:0:0:
220,248,61523,2,0,L|80:248,1,115,2|2,1:2|1:2,0:0:0:0:
352,152,62109,6,0,L|420:152,2,57.5,2|2|2,1:2|0:2|1:2,0:0:0:0:
236,152,62694,2,0,L|236:288,1,115,2|2,1:2|1:2,0:0:0:0:
456,176,63279,6,0,L|316:176,1,115,6|2,1:2|1:2,0:0:0:0:
224,180,63865,2,0,L|152:180,2,57.5,2|2|2,1:2|0:2|1:2,0:0:0:0:
480,108,64450,6,0,L|480:28,1,57.5,2|2,1:2|0:2,0:0:0:0:
424,52,64743,1,2,1:2:0:0:
308,52,65035,2,0,L|308:124,1,57.5,2|2,1:2|0:2,0:0:0:0:
364,108,65328,2,0,L|364:184,1,57.5,2|10,1:2|0:2,0:0:0:0:
200,312,65621,6,0,L|200:180,1,115,6|2,1:2|1:2,0:0:0:0:
256,204,66060,1,2,0:2:0:0:
312,204,66206,2,0,L|428:204,1,115,2|2,1:2|1:2,0:0:0:0:
188,148,66791,6,0,L|188:68,1,57.5,2|2,1:2|1:2,0:0:0:0:
244,92,67084,2,0,L|356:92,2,86.25,2|2|2,1:2|1:2|1:2,0:0:0:0:
188,92,67670,1,0,0:2:0:0:
432,352,67962,6,0,P|448:296|424:236,1,115,2|2,1:2|1:2,0:0:0:0:
372,244,68401,1,2,1:2:0:0:
316,244,68548,2,0,L|180:244,1,115,0|2,1:2|1:2,0:0:0:0:
144,244,68987,1,2,1:2:0:0:
392,264,69279,6,0,L|392:128,1,115,2|2,1:2|1:2,0:0:0:0:
336,152,69718,1,2,1:2:0:0:
452,152,70011,1,2,1:2:0:0:
196,156,70304,6,0,L|68:156,2,115,4|10|2,1:2|0:2|0:2,0:0:0:0:
252,156,71035,1,0,1:2:0:0:
308,156,71182,1,10,0:2:0:0:
424,156,71474,6,0,L|424:288,1,115,2|10,1:2|0:2,0:0:0:0:
308,268,72060,2,0,L|428:268,1,115,2|10,0:2|0:2,0:0:0:0:
176,264,72645,6,0,L|176:128,1,115,2|10,1:2|0:2,0:0:0:0:
292,144,73230,1,2,0:2:0:0:
349,144,73376,1,0,0:0:0:0:
407,144,73522,1,10,0:2:0:0:
168,272,73816,5,2,1:2:0:0:
112,272,73962,1,2,0:2:0:0:
112,272,74109,1,10,0:2:0:0:
168,272,74255,1,2,0:2:0:0:
332,276,74401,2,0,L|332:144,1,115,4|12,1:1|1:1,0:0:0:0:
96,188,74987,6,0,L|32:188,2,57.5,6|2|10,1:2|0:2|0:2,0:0:0:0:
212,188,75572,1,2,0:2:0:0:
154,188,75718,1,2,1:2:0:0:
97,188,75864,1,8,0:2:0:0:
332,344,76157,6,0,P|356:296|320:244,1,115,2|10,1:2|0:2,0:0:0:0:
268,252,76596,1,2,0:2:0:0:
212,252,76743,1,2,0:2:0:0:
156,252,76889,1,2,1:2:0:0:
152,196,77035,1,10,0:2:0:0:
392,68,77328,6,0,L|260:68,1,115,6|10,1:2|0:2,0:0:0:0:
220,68,77767,2,0,L|344:68,1,115,2|2,0:2|1:2,0:0:0:0:
392,68,78206,1,10,0:2:0:0:
140,356,78499,6,0,L|140:220,1,115,6|10,1:2|0:2,0:0:0:0:
256,244,79084,2,0,L|376:244,1,115,4|4,1:1|1:1,0:0:0:0:
124,200,79670,5,4,1:2:0:0:
124,200,79962,1,8,0:2:0:0:
124,144,80109,1,0,0:0:0:0:
180,144,80255,1,0,0:0:0:0:
296,144,80548,1,8,0:2:0:0:
412,144,80840,5,0,0:0:0:0:
412,88,80987,1,0,0:0:0:0:
356,88,81133,1,8,0:2:0:0:
240,88,81426,1,0,0:0:0:0:
356,88,81718,1,8,0:2:0:0:
356,88,81865,1,0,1:2:0:0:
196,332,82011,5,4,1:2:0:0:
196,216,82304,1,8,0:2:0:0:
312,216,82596,1,0,0:0:0:0:
368,216,82743,1,0,0:0:0:0:
312,216,82889,1,8,0:2:0:0:
196,216,83182,1,10,0:2:0:0:
408,204,83767,6,0,L|480:204,2,57.5,8|8|2,0:3|0:3|0:3,0:0:0:0:
160,312,84352,5,6,1:2:0:0:
104,312,84498,1,0,0:2:0:0:
104,256,84644,1,2,1:2:0:0:
160,256,84791,1,2,0:2:0:0:
220,256,84938,1,2,1:2:0:0:
276,256,85084,1,0,0:0:0:0:
276,200,85230,1,2,1:2:0:0:
32,196,85523,6,0,L|32:116,1,57.5,2|2,1:2|1:2,0:0:0:0:
88,140,85816,1,2,1:2:0:0:
144,140,85962,1,2,1:2:0:0:
204,136,86109,1,0,1:2:0:0:
146,136,86255,1,2,1:2:0:0:
89,136,86401,1,0,1:2:0:0:
332,356,86694,6,0,L|400:356,2,57.5,2|2|2,1:2|1:2|1:2,0:0:0:0:
264,252,87133,1,2,1:2:0:0:
208,252,87279,2,0,L|72:252,1,115,0|2,1:2|1:2,0:0:0:0:
152,252,87718,1,2,1:2:0:0:
396,252,88011,6,0,L|464:252,2,57.5,2|2|2,1:2|0:2|1:2,0:0:0:0:
340,256,88450,1,2,1:2:0:0:
456,256,88743,1,2,1:2:0:0:
152,264,89182,5,2,1:2:0:0:
152,224,89328,1,2,1:2:0:0:
208,220,89474,1,2,1:2:0:0:
264,220,89621,1,2,1:2:0:0:
380,220,89913,1,2,1:2:0:0:
120,348,90206,6,0,L|120:208,1,126.500003860474,6|2,1:2|1:2,0:0:0:0:
184,224,90645,1,2,0:2:0:0:
248,224,90791,1,2,1:2:0:0:
120,224,91084,1,2,1:2:0:0:
368,124,91377,6,0,L|448:124,2,63.2500019302369,2|2|2,1:2|0:2|1:2,0:0:0:0:
240,128,91962,2,0,L|88:128,1,126.500003860474,2|2,1:2|1:2,0:0:0:0:
376,356,92548,6,0,L|376:212,1,126.500003860474,2|2,1:2|1:2,0:0:0:0:
248,228,93133,1,2,1:2:0:0:
311,228,93279,1,2,0:2:0:0:
374,228,93425,1,2,1:2:0:0:
120,160,93718,6,0,L|56:160,2,63.2500019302369,2|0|2,1:2|0:0|1:2,0:0:0:0:
248,156,94304,2,0,L|336:156,1,63.2500019302369,2|2,1:2|0:2,0:0:0:0:
376,156,94596,2,0,L|376:80,1,63.2500019302369,2|2,1:2|0:2,0:0:0:0:
200,100,94889,6,0,L|64:100,1,126.500003860474,6|2,1:2|1:2,0:0:0:0:
8,100,95328,1,2,0:2:0:0:
72,100,95474,2,0,L|208:100,1,126.500003860474,2|2,1:2|1:2,0:0:0:0:
456,332,96060,6,0,L|456:256,1,63.2500019302369,2|2,1:2|0:2,0:0:0:0:
392,272,96352,1,2,1:2:0:0:
296,276,96572,2,0,L|188:276,1,94.8750028953553,2|2,0:2|0:2,0:0:0:0:
201,276,96938,1,0,1:2:0:0:
448,212,97230,6,0,P|472:156|424:84,1,126.500003860474,2|2,1:2|1:2,0:0:0:0:
384,100,97670,1,2,0:2:0:0:
320,100,97816,2,0,L|464:100,1,126.500003860474,0|2,1:0|1:2,0:0:0:0:
446,100,98255,1,2,0:2:0:0:
192,280,98548,5,2,1:2:0:0:
128,280,98694,1,2,1:2:0:0:
64,280,98840,1,2,1:2:0:0:
60,216,98986,1,2,1:2:0:0:
188,212,99279,1,2,1:2:0:0:
448,208,99572,6,0,L|448:56,1,126.500003860474,6|2,1:2|1:2,0:0:0:0:
384,84,100011,1,2,0:2:0:0:
320,84,100157,2,0,L|180:84,1,126.500003860474,2|2,1:2|1:2,0:0:0:0:
448,316,100743,6,0,L|448:232,1,63.2500019302369,2|2,1:2|0:2,0:0:0:0:
384,256,101035,1,2,1:2:0:0:
256,256,101328,1,2,1:2:0:0:
384,252,101621,1,2,1:2:0:0:
128,252,101913,6,0,L|128:104,1,126.500003860474,6|2,1:2|1:2,0:0:0:0:
256,120,102499,1,2,1:2:0:0:
192,120,102645,1,2,0:2:0:0:
129,120,102791,1,2,1:2:0:0:
380,240,103084,6,0,L|460:240,2,63.2500019302369,2|2|2,1:2|0:2|1:2,0:0:0:0:
252,240,103670,2,0,L|172:240,1,63.2500019302369,2|2,1:2|0:2,0:0:0:0:
124,240,103962,2,0,L|124:160,1,63.2500019302369,2|10,1:2|0:2,0:0:0:0:
296,352,104255,6,0,L|296:212,1,126.500003860474,6|2,1:2|1:2,0:0:0:0:
232,232,104694,1,2,0:2:0:0:
168,232,104840,1,2,1:2:0:0:
296,232,105133,1,2,1:2:0:0:
44,168,105426,6,0,L|44:96,1,63.2500019302369,2|2,1:2|1:2,0:0:0:0:
108,108,105718,1,2,1:2:0:0:
204,108,105938,2,0,L|328:108,1,94.8750028953553,2|2,1:2|1:2,0:0:0:0:
364,108,106304,1,0,0:2:0:0:
116,360,106596,6,0,P|88:300|132:248,1,126.500003860474,2|2,1:2|1:2,0:0:0:0:
180,256,107035,1,2,1:2:0:0:
244,256,107182,2,0,L|100:256,1,126.500003860474,0|2,1:0|1:2,0:0:0:0:
117,256,107621,1,2,1:2:0:0:
376,184,107913,5,2,1:2:0:0:
440,184,108060,1,2,1:2:0:0:
440,120,108206,1,2,1:2:0:0:
376,116,108352,1,2,1:2:0:0:
124,348,108645,1,2,1:2:0:0:
304,344,109084,5,2,1:2:0:0:
304,280,109230,1,2,1:2:0:0:
240,284,109377,1,2,1:2:0:0:
176,284,109523,1,2,1:2:0:0:
432,220,109816,1,2,1:2:0:0:
264,224,110255,5,2,1:2:0:0:
200,224,110401,1,2,1:2:0:0:
136,224,110548,1,2,1:2:0:0:
136,160,110694,1,2,1:2:0:0:
380,96,110987,1,2,1:2:0:0:
136,160,111279,5,4,0:2:0:0:
256,192,111572,12,0,112157,0:0:0:0:
256,192,112450,5,0,1:0:0:0:
256,192,112743,12,0,115962,0:0:0:0:
