osu file format v14

[General]
AudioFilename: audio.mp3
AudioLeadIn: 0
PreviewTime: 163391
Countdown: 0
SampleSet: Soft
StackLeniency: 0.7
Mode: 2
LetterboxInBreaks: 0
WidescreenStoryboard: 1

[Editor]
Bookmarks: 28054,45081,64540,79405,106702,124540,137513,150486,163459,189405,216432
DistanceSpacing: 0.8
BeatDivisor: 4
GridSize: 32
TimelineZoom: 3.699998

[Metadata]
Title:Le Cirque de Minuit (2019 Re:work)
TitleUnicode:Le Cirque de Minuit (2019 Re:work)
Artist:Morimori Atsushi
ArtistUnicode:モリモリあつし
Creator:Jemzuu
Version:Platter
Source:osu!
Tags:ajamez spectator featured artist mappers guild fa electronic instrumental グラン=ギニョルに終幕を 非可逆リズム 悠久の時を刻む街 Ornamental rework drum and bass dnb n
BeatmapID:2711194
BeatmapSetID:1303098

[Difficulty]
HPDrainRate:4
CircleSize:3.4
OverallDifficulty:8
ApproachRate:8
SliderMultiplier:1.53
SliderTickRate:2

[Events]
//Background and Video events
0,0,"85034930_p0.jpg",0,0
//Break Periods
2,163659,165952
//Storyboard Layer 0 (Background)
//Storyboard Layer 1 (Fail)
//Storyboard Layer 2 (Pass)
//Storyboard Layer 3 (Foreground)
//Storyboard Layer 4 (Overlay)
//Storyboard Sound Samples

[TimingPoints]
487,540.540540540541,3,2,1,20,1,0
26432,-100,3,2,1,40,0,0
27108,-100,3,2,1,50,0,0
27784,-100,3,2,1,5,0,0
28054,270.27027027027,3,2,6,70,1,0
28121,-100,3,2,1,70,0,0
38593,-100,3,2,2,60,0,0
43391,-100,3,2,2,5,0,0
43458,-100,3,2,2,60,0,0
51026,-100,3,2,1,60,0,0
51566,-100,3,2,1,70,0,0
64539,-100,3,2,3,90,0,0
64674,-100,3,2,3,90,0,0
64877,-100,3,2,3,5,0,0
64945,-100,3,2,3,90,0,0
65012,-100,3,2,3,5,0,0
65080,-100,3,2,3,90,0,0
65283,-100,3,2,3,5,0,0
65350,-100,3,2,3,90,0,0
65553,-100,3,2,3,5,0,0
65621,-100,3,2,3,90,0,0
65823,-100,3,2,3,5,0,0
65891,-100,3,2,3,90,0,0
66093,-100,3,2,3,5,0,0
66161,-100,3,2,3,90,0,0
66296,-100,3,2,3,90,0,0
66634,-100,3,2,3,5,0,0
66701,-100,3,2,3,90,0,0
66904,-100,3,2,3,5,0,0
66972,-100,3,2,3,90,0,0
67174,-100,3,2,3,5,0,0
67242,-100,3,2,3,50,0,0
67377,-100,3,2,3,60,0,0
67512,-100,3,2,3,70,0,0
67647,-100,3,2,3,80,0,0
67783,-100,3,2,3,90,0,0
67985,-100,3,2,3,5,0,0
68053,-100,3,2,3,90,0,0
68256,-100,3,2,3,5,0,0
68324,-100,3,2,3,90,0,0
68526,-100,3,2,3,5,0,0
68594,-100,3,2,3,90,0,0
68796,-100,3,2,3,5,0,0
68864,-100,3,2,3,90,0,0
69066,-100,3,2,3,5,0,0
69135,-100,3,2,3,90,0,0
69337,-100,3,2,3,5,0,0
69405,-100,3,2,3,90,0,0
69607,-100,3,2,3,5,0,0
69675,-100,3,2,3,80,0,0
70216,-100,3,2,3,90,0,0
70485,-100,3,2,3,60,0,0
70553,-100,3,2,3,65,0,0
70620,-100,3,2,3,70,0,0
70688,-100,3,2,3,75,0,0
70756,-100,3,2,3,80,0,0
71026,-100,3,2,4,70,0,0
71297,-100,3,2,2,70,0,0
73458,-100,3,2,2,80,0,0
73729,-100,3,2,2,80,0,0
73999,-100,3,2,2,80,0,0
74269,-100,3,2,2,80,0,0
76702,-200,3,2,5,90,0,0
77513,-100,3,2,2,90,0,0
78323,-100,3,2,2,70,0,0
79405,-100,3,2,4,70,0,0
79608,-100,3,2,2,70,0,0
95350,-100,3,2,3,70,0,0
95553,-100,3,2,2,5,0,0
95620,-100,3,2,3,90,0,0
95823,-100,3,2,2,5,0,0
95891,-100,3,2,3,90,0,0
96093,-100,3,2,2,5,0,0
96161,-100,3,2,2,90,0,0
106702,-133.333333333333,3,2,4,60,0,0
107243,-133.333333333333,3,2,2,60,0,0
109135,-100,3,2,2,60,0,0
111972,-100,3,2,1,60,0,0
112378,-100,3,2,5,60,0,0
112580,-100,3,2,2,5,0,0
112647,-100,3,2,2,60,0,0
113188,-100,3,2,1,70,0,0
124540,-100,3,2,4,80,0,0
124675,-100,3,2,1,80,0,0
149674,-100,3,2,3,90,0,0
150823,-100,3,2,3,5,0,0
150891,-100,3,2,3,90,0,0
151499,-100,3,2,3,5,0,0
151567,-100,3,2,3,90,0,0
151769,-100,3,2,3,5,0,0
151837,-100,3,2,3,90,0,0
152039,-100,3,2,3,5,0,0
152107,-100,3,2,3,90,0,0
153188,-100,3,2,3,50,0,0
153323,-100,3,2,3,60,0,0
153458,-100,3,2,3,70,0,0
153593,-100,3,2,3,80,0,0
153729,-100,3,2,3,90,0,0
153931,-100,3,2,3,5,0,0
153999,-100,3,2,3,90,0,0
154202,-100,3,2,3,5,0,0
154270,-100,3,2,3,90,0,0
154472,-100,3,2,3,5,0,0
154540,-100,3,2,3,90,0,0
154742,-100,3,2,3,5,0,0
154810,-100,3,2,3,90,0,0
155012,-100,3,2,3,5,0,0
155081,-100,3,2,3,90,0,0
155283,-100,3,2,3,5,0,0
155351,-100,3,2,3,90,0,0
155553,-100,3,2,3,5,0,0
155621,-100,3,2,3,90,0,0
156162,-100,3,2,3,90,0,0
156431,-100,3,2,3,60,0,0
156499,-100,3,2,3,65,0,0
156566,-100,3,2,3,70,0,0
156634,-100,3,2,3,75,0,0
156702,-100,3,2,3,80,0,0
156972,-100,3,2,4,90,0,0
157243,-100,3,2,2,90,0,0
161026,-100,3,2,1,90,0,0
161162,-100,3,2,1,30,0,0
162648,-100,3,2,5,90,0,0
163458,-100,3,2,4,70,0,0
166702,-100,3,2,4,30,0,0
167513,-100,3,2,4,45,0,0
168323,-100,3,2,1,80,0,0
168526,-100,3,2,1,5,0,0
168594,-100,3,2,1,80,0,0
168796,-100,3,2,1,5,0,0
168864,-100,3,2,1,80,0,0
169066,-100,3,2,1,5,0,0
169134,-100,3,2,5,80,0,0
169202,-100,3,2,1,80,0,0
169945,-100,3,2,2,90,0,1
173189,-100,3,2,2,90,0,1
176162,-100,3,2,2,90,0,0
176432,-100,3,2,2,90,0,1
181297,-100,3,2,2,90,0,1
181499,-100,3,2,2,5,0,1
181567,-100,3,2,2,90,0,1
181769,-100,3,2,2,5,0,1
181837,-100,3,2,2,90,0,1
182039,-100,3,2,2,5,0,1
182108,-100,3,2,2,90,0,1
186162,-100,3,2,2,90,0,0
189135,-100,3,2,1,90,0,0
189404,-100,3,2,1,90,0,0
191026,-100,3,2,1,90,0,0
191837,-100,3,2,5,90,0,0
191905,-100,3,2,1,90,0,0
192648,-100,3,2,4,90,0,1
192783,-100,3,2,1,90,0,1
202108,-100,3,2,1,90,0,0
202378,-100,3,2,4,90,0,1
202581,-100,3,2,1,90,0,1
207243,-100,3,2,1,90,0,1
207445,-100,3,2,1,5,0,1
207513,-100,3,2,1,90,0,1
207715,-100,3,2,1,5,0,1
207783,-100,3,2,1,90,0,1
207985,-100,3,2,1,5,0,1
208053,-100,3,2,1,90,0,1
212108,-100,3,2,1,90,0,0
213729,-100,3,2,1,90,0,0
216432,-100,3,2,1,90,0,1
216499,-100,3,2,1,30,0,0
217242,-100,3,2,1,20,0,0
218053,-100,3,2,1,10,0,0
220215,-100,3,2,1,40,0,0
221026,-100,3,2,1,50,0,0
221837,-100,3,2,1,60,0,0
222581,-100,3,2,1,5,0,0

[Colours]
Combo1 : 255,170,213
Combo2 : 166,166,210
Combo3 : 108,206,253

[HitObjects]
256,192,24811,12,0,27784,0:0:0:0:
210,118,28054,6,0,L|189:161,2,38.25,6|4|0,3:0|3:0|0:0,0:0:0:0:
280,96,28324,2,0,L|341:100,2,38.25,8|2|8,3:0|3:0|3:0,0:0:0:0:
118,310,28594,6,0,L|110:215,1,76.5,8|0,0:0|0:0,0:0:0:0:
346,275,28864,6,0,L|489:193,2,153,6|10|2,1:2|1:2|1:2,0:0:0:0:
263,283,29540,1,2,0:0:0:0:
112,329,29675,2,0,P|90:277|168:217,1,153,2|10,1:2|1:2,0:0:0:0:
300,172,30216,2,0,L|391:159,1,76.5,10|2,1:2|0:0,0:0:0:0:
225,106,30486,6,0,L|79:175,1,153,2|10,1:2|1:2,0:0:0:0:
123,237,30891,1,2,0:0:0:0:
187,277,31026,1,2,1:2:0:0:
262,282,31161,1,0,0:0:0:0:
413,339,31297,6,0,L|414:175,1,153,0|8,1:0|1:2,0:0:0:0:
271,152,31837,2,0,L|192:123,1,76.5,10|0,1:2|0:0,0:0:0:0:
409,59,32108,6,0,P|435:108|370:184,1,153,6|8,1:2|1:2,0:0:0:0:
240,219,32648,2,0,L|165:191,1,76.5,2|0,1:2|1:0,0:0:0:0:
380,149,32918,6,0,P|406:198|341:274,1,153,6|10,1:2|1:2,0:0:0:0:
214,306,33458,2,0,L|139:274,1,76.5,10|0,1:2|0:0,0:0:0:0:
356,353,33729,5,4,1:2:0:0:
391,288,33864,1,0,1:0:0:0:
363,220,33999,1,8,1:2:0:0:
291,201,34134,1,0,1:0:0:0:
211,195,34270,2,0,L|202:108,1,76.5,10|2,1:2|1:3,0:0:0:0:
345,71,34540,6,0,L|443:53,1,76.5,4|0,1:0|1:0,0:0:0:0:
343,104,34810,2,0,L|263:78,1,76.5,0|0,1:0|1:0,0:0:0:0:
350,133,35081,2,0,L|445:116,1,76.5,0|0,1:0|1:0,0:0:0:0:
204,248,35351,6,0,L|48:186,1,153,4|0,1:0|1:0,0:0:0:0:
92,151,35711,1,0,1:0:0:0:
137,128,35801,1,0,1:0:0:0:
189,123,35891,2,0,L|288:119,1,76.5,4|0,1:0|0:0,0:0:0:0:
47,289,36162,6,0,P|35:223|129:174,1,153,4|0,1:0|1:0,0:0:0:0:
134,140,36522,1,0,1:0:0:0:
183,127,36612,1,0,1:0:0:0:
235,120,36702,2,0,L|316:118,1,76.5,4|0,1:0|0:0,0:0:0:0:
86,66,36972,6,0,P|67:115|162:171,1,153,4|0,1:0|1:0,0:0:0:0:
179,188,37333,1,0,1:0:0:0:
201,232,37423,1,0,1:0:0:0:
182,278,37513,2,0,L|93:288,1,76.5,0|0,1:0|0:0,0:0:0:0:
251,347,37783,5,0,1:0:0:0:
296,327,37873,1,0,1:0:0:0:
312,280,37963,1,0,1:0:0:0:
289,236,38053,1,0,1:0:0:0:
241,224,38144,2,0,L|165:223,2,51,0|0|0,1:0|0:0|1:0,0:0:0:0:
323,205,38459,1,0,0:0:0:0:
94,253,38594,6,0,P|46:225|170:81,2,306,4|2|2,1:2|0:0|0:0,0:0:0:0:
450,299,40216,1,2,0:0:0:0:
92,25,41026,5,2,0:0:0:0:
139,40,41116,1,2,0:0:0:0:
158,86,41206,1,2,0:0:0:0:
135,129,41296,1,2,0:0:0:0:
86,140,41387,2,0,L|24:133,2,51,2|2|2,0:0|0:0|0:0,0:0:0:0:
164,170,41702,1,0,0:0:0:0:
390,309,41837,6,0,P|442:290|445:184,1,153,4|2,1:0|0:0,0:0:0:0:
350,152,42310,2,0,L|289:155,1,38.25,0|10,1:0|1:2,0:0:0:0:
59,62,42648,6,0,L|48:238,1,153,0|2,1:0|1:2,0:0:0:0:
186,306,43189,1,10,0:0:0:0:
449,155,43459,6,0,L|295:102,1,153,2|2,1:2|0:0,0:0:0:0:
197,115,43932,2,0,L|194:71,1,38.25,0|10,1:0|1:2,0:0:0:0:
433,46,44270,6,0,P|455:115|377:170,1,153,0|8,1:0|0:0,0:0:0:0:
275,175,44810,2,0,L|199:145,1,76.5,10|2,0:0|0:0,0:0:0:0:
415,269,45081,6,0,P|463:241|339:97,2,306,6|2|2,1:2|0:0|0:0,0:0:0:0:
63,268,46703,1,2,0:0:0:0:
413,41,47513,5,2,0:0:0:0:
460,56,47603,1,2,0:0:0:0:
478,101,47693,1,2,0:0:0:0:
455,145,47783,1,2,0:0:0:0:
407,155,47873,2,0,L|340:155,2,51,2|2|2,0:0|0:0|0:0,0:0:0:0:
485,188,48189,1,0,0:0:0:0:
261,278,48324,6,0,L|121:214,1,153,6|2,1:2|0:0,0:0:0:0:
17,200,48797,2,0,L|15:133,1,38.25,0|10,1:0|1:2,0:0:0:0:
276,87,49135,6,0,L|441:135,2,153,0|2|10,1:0|1:2|1:2,0:0:0:0:
29,44,49945,5,10,1:2:0:0:
99,66,50080,1,0,1:0:0:0:
130,134,50215,1,10,1:2:0:0:
100,202,50350,1,0,1:0:0:0:
30,226,50485,1,10,1:2:0:0:
283,305,50756,6,0,L|361:327,1,76.5,10|0,1:2|1:0,0:0:0:0:
280,222,51026,2,0,L|196:242,1,76.5,2|2,3:0|3:0,0:0:0:0:
65,184,51297,2,0,L|40:144,2,38.25,2|2|2,3:0|3:0|3:0,0:0:0:0:
289,132,51567,6,0,L|437:200,2,153,6|8|2,1:2|1:2|1:2,0:0:0:0:
144,128,52378,1,0,1:2:0:0:
404,52,52648,2,0,L|413:206,1,153,10|0,1:2|1:2,0:0:0:0:
143,302,53189,6,0,P|190:257|297:252,1,153,2|8,1:2|1:2,0:0:0:0:
346,230,53594,1,0,0:0:0:0:
375,163,53729,1,2,1:3:0:0:
336,101,53864,1,2,0:3:0:0:
196,64,53999,5,2,1:2:0:0:
150,83,54089,1,2,0:0:0:0:
133,130,54179,1,2,0:0:0:0:
155,174,54269,1,2,1:2:0:0:
202,189,54360,2,0,L|263:185,2,51,2|2|2,0:0|0:0|1:2,0:0:0:0:
123,205,54675,1,0,0:0:0:0:
336,321,54810,6,0,L|485:257,2,153,4|10|2,1:0|1:2|1:2,0:0:0:0:
255,334,55486,1,0,0:0:0:0:
47,343,55621,6,0,P|25:290|104:232,1,153,4|10,1:0|1:2,0:0:0:0:
224,194,56162,2,0,L|303:140,1,76.5,2|0,1:2|0:0,0:0:0:0:
78,188,56432,6,0,P|58:141|145:81,1,153,4|10,1:0|1:2,0:0:0:0:
199,67,56837,1,0,0:0:0:0:
278,61,56972,2,0,L|285:153,1,76.5,2|0,1:2|0:0,0:0:0:0:
178,171,57243,2,0,L|172:254,1,76.5,2|0,1:2|0:0,0:0:0:0:
382,181,57513,5,0,1:0:0:0:
416,196,57580,1,0,1:0:0:0:
429,230,57648,1,0,1:0:0:0:
415,265,57715,1,0,1:0:0:0:
380,279,57783,2,0,L|290:278,1,76.5,0|0,1:0|1:0,0:0:0:0:
217,272,58053,1,0,1:0:0:0:
474,346,58324,6,0,L|483:164,1,153,4|2,1:0|1:2,0:0:0:0:
336,160,58864,1,0,1:0:0:0:
94,275,59135,2,0,L|81:118,1,153,10|0,1:2|1:0,0:0:0:0:
354,49,59675,6,0,P|325:83|214:107,1,153,4|10,1:0|1:2,0:0:0:0:
150,123,60080,1,0,0:0:0:0:
116,189,60215,1,2,1:3:0:0:
144,257,60350,1,2,0:3:0:0:
289,288,60486,5,6,1:2:0:0:
317,219,60621,1,2,1:2:0:0:
282,154,60756,1,10,1:2:0:0:
208,139,60891,1,2,1:2:0:0:
130,91,61026,2,0,L|211:78,1,76.5,10|0,1:2|1:0,0:0:0:0:
428,92,61297,6,0,P|454:142|388:203,1,153,4|10,1:0|1:2,0:0:0:0:
254,228,61837,2,0,L|184:194,1,76.5,2|0,1:2|0:0,0:0:0:0:
388,187,62108,6,0,P|414:237|348:298,1,153,4|10,1:0|1:2,0:0:0:0:
212,316,62648,2,0,L|138:285,1,76.5,10|0,1:2|0:0,0:0:0:0:
348,349,62918,6,0,L|486:254,1,153,4|2,1:0|3:0,0:0:0:0:
473,264,63459,2,0,L|484:200,2,38.25,0|0|0,1:0|1:0|1:0,0:0:0:0:
333,269,63729,5,0,1:0:0:0:
297,258,63796,1,0,0:0:0:0:
282,224,63864,1,0,1:0:0:0:
297,190,63931,1,0,1:0:0:0:
333,180,63999,2,0,L|419:171,1,76.5,0|0,1:0|1:0,0:0:0:0:
264,106,64270,1,2,1:2:0:0:
225,104,64337,1,0,0:0:0:0:
187,102,64405,1,0,1:0:0:0:
406,42,64540,6,0,L|492:35,1,76.5,4|4,1:2|1:2,0:0:0:0:
348,171,64945,2,0,L|248:183,1,76.5,4|4,1:2|1:2,0:0:0:0:
21,36,65351,6,0,L|167:98,2,153,4|4|4,1:2|1:2|1:2,0:0:0:0:
289,49,66162,5,4,1:2:0:0:
367,60,66297,2,0,P|400:98|353:188,1,153,0|4,1:0|1:2,0:0:0:0:
225,209,66702,2,0,L|137:209,1,76.5,4|0,1:2|0:0,0:0:0:0:
370,150,66972,6,0,P|412:201|339:260,1,153,4|0,1:0|1:0,0:0:0:0:
313,206,67378,1,0,1:0:0:0:
243,178,67513,1,0,1:0:0:0:
167,183,67648,1,0,1:0:0:0:
401,67,67783,6,0,P|452:81|463:177,1,153,6|6,1:2|1:2,0:0:0:0:
328,210,68324,1,6,1:2:0:0:
69,93,68594,6,0,P|108:131|208:120,1,153,6|6,1:2|1:2,0:0:0:0:
350,78,69135,1,6,1:2:0:0:
76,61,69405,6,0,P|43:129|97:178,1,153,6|4,1:2|1:0,0:0:0:0:
169,197,69810,1,0,1:0:0:0:
315,242,69945,2,0,L|366:241,2,38.25,4|0|0,1:0|1:0|1:0,0:0:0:0:
86,339,70216,6,0,P|59:297|138:240,1,153,4|0,1:0|1:0,0:0:0:0:
157,223,70553,1,0,1:0:0:0:
171,189,70621,1,0,1:0:0:0:
155,156,70688,1,0,1:0:0:0:
119,146,70756,2,0,L|50:150,2,38.25,0|0|0,1:0|1:0|1:0,0:0:0:0:
348,68,71026,6,0,L|478:168,2,153,6|2|2,1:2|0:0|0:0,0:0:0:0:
112,58,71837,6,0,P|83:100|134:205,1,153,10|0,0:2|0:0,0:0:0:0:
248,233,72378,2,0,L|323:256,1,76.5,0|0,0:0|1:0,0:0:0:0:
183,323,72648,6,0,L|52:238,2,153,2|2|2,1:2|1:2|0:0,0:0:0:0:
267,337,73324,1,0,1:0:0:0:
408,348,73459,6,0,L|410:172,1,153,10|2,1:2|1:2,0:0:0:0:
270,128,73999,2,0,L|187:137,1,76.5,10|0,1:2|0:0,0:0:0:0:
52,195,74270,6,0,P|24:131|90:66,1,153,2|10,1:2|1:2,0:0:0:0:
208,37,74810,2,0,L|288:38,1,76.5,2|0,0:0|1:0,0:0:0:0:
422,88,75081,6,0,P|450:152|384:217,1,153,10|2,1:2|1:2,0:0:0:0:
266,246,75621,2,0,L|195:213,1,76.5,10|0,1:2|0:0,0:0:0:0:
397,338,75891,5,8,1:2:0:0:
428,271,76026,1,0,1:0:0:0:
393,206,76161,1,8,1:2:0:0:
320,194,76296,1,0,1:0:0:0:
393,206,76432,2,0,L|444:202,2,38.25,0|0|0,1:0|1:0|1:0,0:0:0:0:
165,287,76702,6,0,P|118:271|167:175,1,191.25,4|0,1:2|0:0,0:0:0:0:
386,122,77513,6,0,P|435:129|475:222,1,153,4|0,1:0|0:0,0:0:0:0:
348,266,78053,1,0,1:0:0:0:
309,267,78120,1,0,1:0:0:0:
271,269,78188,1,0,1:0:0:0:
58,260,78324,6,0,L|49:173,1,76.5,4|0,1:0|0:0,0:0:0:0:
184,129,78594,2,0,L|276:116,1,76.5,2|2,1:3|1:2,0:0:0:0:
122,55,78864,5,2,1:2:0:0:
87,67,78931,1,0,1:2:0:0:
72,101,78999,1,2,1:2:0:0:
87,135,79066,1,0,1:2:0:0:
122,147,79134,1,2,1:2:0:0:
465,159,79405,6,0,P|490:200|422:275,1,153,12|2,1:2|0:0,0:0:0:0:
359,283,79810,1,2,1:2:0:0:
279,248,79945,2,0,L|430:201,1,153,10|2,1:2|1:2,0:0:0:0:
472,146,80351,1,2,1:2:0:0:
448,77,80486,1,10,1:2:0:0:
377,63,80621,1,2,0:0:0:0:
234,111,80756,6,0,L|93:39,2,153,2|10|2,1:2|1:2|0:0,0:0:0:0:
315,116,81432,1,2,1:2:0:0:
457,125,81567,6,0,P|479:172|408:248,1,153,10|2,1:2|1:2,0:0:0:0:
376,187,81972,1,10,1:2:0:0:
307,155,82107,1,10,1:2:0:0:
231,156,82242,1,0,0:0:0:0:
83,202,82378,6,0,L|63:126,1,76.5,2|0,1:2|0:0,0:0:0:0:
210,126,82648,2,0,L|224:44,1,76.5,10|0,1:2|0:0,0:0:0:0:
141,48,82918,2,0,L|130:125,1,76.5,2|2,1:2|1:3,0:0:0:0:
278,186,83189,6,0,L|441:249,1,153,10|2,1:2|1:2,0:0:0:0:
453,175,83594,1,2,1:2:0:0:
420,109,83729,1,10,1:2:0:0:
348,97,83864,1,2,0:0:0:0:
134,237,83999,6,0,L|10:128,2,153,6|10|2,1:2|1:2|0:0,0:0:0:0:
211,256,84675,1,0,1:2:0:0:
290,290,84810,2,0,L|145:351,1,153,10|2,1:2|1:2,0:0:0:0:
227,352,85216,1,10,1:2:0:0:
365,348,85351,2,0,L|462:342,1,76.5,10|2,1:2|0:0,0:0:0:0:
227,278,85621,6,0,P|195:217|274:178,1,153,6|10,1:2|1:2,0:0:0:0:
324,161,86026,1,0,0:0:0:0:
351,93,86161,1,2,0:0:0:0:
307,35,86296,1,2,1:2:0:0:
154,37,86432,6,0,P|119:75|184:149,1,153,10|2,1:2|1:2,0:0:0:0:
300,155,86972,2,0,L|308:260,1,76.5,10|2,1:2|0:0,0:0:0:0:
100,308,87243,6,0,P|49:292|55:197,1,153,6|10,1:2|1:2,0:0:0:0:
93,144,87648,1,2,0:0:0:0:
161,111,87783,1,2,0:0:0:0:
237,110,87918,1,2,1:2:0:0:
455,119,88053,6,0,P|484:162|412:226,1,153,10|0,1:2|1:0,0:0:0:0:
379,287,88459,1,0,1:0:0:0:
309,318,88594,1,10,1:2:0:0:
234,313,88729,1,0,0:0:0:0:
459,350,88864,6,0,P|478:293|401:235,1,153,2|10,1:2|1:2,0:0:0:0:
266,199,89405,2,0,L|180:196,1,76.5,2|2,0:0|1:2,0:0:0:0:
405,43,89675,5,10,1:2:0:0:
449,101,89810,1,0,1:0:0:0:
427,171,89945,1,8,1:2:0:0:
357,193,90080,1,0,1:0:0:0:
427,171,90216,2,0,L|475:184,2,38.25,0|0|0,1:0|1:0|1:0,0:0:0:0:
205,254,90486,6,0,L|51:164,2,153,6|10|2,1:2|1:2|0:0,0:0:0:0:
284,271,91162,1,2,1:2:0:0:
208,284,91297,2,0,L|104:294,1,76.5,10|0,1:2|0:0,0:0:0:0:
274,349,91567,5,2,1:2:0:0:
345,336,91702,1,0,1:0:0:0:
370,267,91837,1,10,1:2:0:0:
323,211,91972,1,2,0:0:0:0:
176,169,92108,6,0,L|26:84,1,153,2|10,1:2|1:2,0:0:0:0:
65,165,92513,1,0,0:0:0:0:
123,214,92648,1,2,0:0:0:0:
197,226,92783,1,0,1:2:0:0:
344,111,92918,6,0,L|356:271,1,153,10|2,1:2|1:2,0:0:0:0:
281,258,93324,1,2,0:0:0:0:
238,197,93459,1,10,1:2:0:0:
257,126,93594,1,2,0:0:0:0:
402,53,93729,6,0,P|455:63|477:169,1,153,2|10,1:2|1:2,0:0:0:0:
345,216,94270,2,0,L|246:222,1,76.5,2|0,0:0|1:0,0:0:0:0:
128,242,94540,6,0,P|73:223|92:135,1,153,10|2,1:2|1:2,0:0:0:0:
156,122,94945,1,2,1:2:0:0:
230,103,95080,1,10,1:2:0:0:
304,84,95215,1,2,1:2:0:0:
90,42,95351,6,0,L|5:56,1,76.5,4|0,1:0|0:0,0:0:0:0:
143,125,95621,2,0,L|239:132,1,76.5,4|0,1:0|0:0,0:0:0:0:
86,200,95891,2,0,L|78:288,1,76.5,4|0,1:0|0:0,0:0:0:0:
289,330,96162,6,0,L|450:283,1,153,0|2,1:0|1:2,0:0:0:0:
400,274,96499,1,2,0:0:0:0:
386,240,96567,1,2,1:2:0:0:
400,206,96634,1,2,0:0:0:0:
435,193,96702,2,0,L|488:191,2,38.25,2|0|2,1:2|1:0|1:2,0:0:0:0:
220,190,96972,6,0,L|78:104,2,153,6|0|0,1:2|1:0|1:0,0:0:0:0:
486,65,97783,6,0,P|465:115|358:148,1,153,4|2,1:0|1:2,0:0:0:0:
303,154,98189,1,2,0:0:0:0:
377,151,98324,2,0,L|450:124,1,76.5,2|2,1:2|0:0,0:0:0:0:
232,93,98594,5,2,1:2:0:0:
183,147,98729,1,0,1:0:0:0:
206,216,98864,1,2,1:2:0:0:
278,230,98999,1,0,1:0:0:0:
359,265,99135,2,0,L|281:271,1,76.5,2|0,1:2|1:0,0:0:0:0:
70,322,99405,5,2,1:2:0:0:
35,308,99472,1,2,1:2:0:0:
21,273,99540,1,2,1:2:0:0:
37,239,99607,1,2,1:2:0:0:
72,227,99675,2,0,L|156:218,1,76.5,2|2,1:2|1:2,0:0:0:0:
287,216,99945,2,0,L|288:124,1,76.5,2|2,1:2|1:2,0:0:0:0:
66,35,100216,6,0,P|37:78|111:128,1,153,6|2,1:2|1:2,0:0:0:0:
241,187,100621,2,0,L|262:149,2,38.25,0|0|0,1:0|1:0|1:0,0:0:0:0:
164,206,100891,1,0,1:0:0:0:
374,200,101026,6,0,L|487:318,1,153,4|0,1:0|1:0,0:0:0:0:
344,317,101432,2,0,L|323:279,2,38.25,0|0|0,1:0|1:0|1:0,0:0:0:0:
421,336,101702,1,0,1:0:0:0:
210,345,101837,6,0,L|50:290,1,153,6|2,1:2|1:2,0:0:0:0:
29,230,102243,1,0,1:0:0:0:
63,165,102378,1,2,1:2:0:0:
136,157,102513,1,0,1:0:0:0:
279,80,102648,5,2,1:2:0:0:
314,90,102715,1,0,0:0:0:0:
329,123,102783,1,0,1:0:0:0:
313,157,102850,1,0,0:0:0:0:
277,165,102918,2,0,L|188:170,1,76.5,2|2,1:3|1:3,0:0:0:0:
341,241,103189,2,0,L|430:244,1,76.5,0|0,1:0|1:0,0:0:0:0:
206,322,103459,6,0,L|68:248,1,153,6|0,1:2|1:0,0:0:0:0:
200,169,103864,2,0,L|221:131,2,38.25,0|0|0,1:0|1:0|1:0,0:0:0:0:
123,188,104134,1,0,1:0:0:0:
334,62,104270,6,0,L|477:131,1,153,6|2,1:2|1:2,0:0:0:0:
338,179,104675,2,0,L|317:141,2,38.25,0|0|0,1:0|1:0|1:0,0:0:0:0:
415,198,104945,1,0,1:0:0:0:
197,102,105081,5,6,1:2:0:0:
126,124,105216,1,0,1:0:0:0:
98,193,105351,1,2,1:2:0:0:
132,258,105486,1,0,1:0:0:0:
204,275,105621,2,0,L|294:275,1,76.5,2|0,1:2|1:0,0:0:0:0:
63,123,105891,5,2,1:2:0:0:
29,140,105958,1,0,0:0:0:0:
17,175,106026,1,0,1:0:0:0:
32,209,106093,1,0,1:0:0:0:
66,224,106162,2,0,L|157:227,1,76.5,0|0,1:0|1:0,0:0:0:0:
350,285,106432,2,0,L|395:289,2,38.25,0|0|0,1:0|0:0|1:0,0:0:0:0:
137,328,106702,6,0,P|84:304|137:179,1,229.500008754731,6|0,1:2|0:0,0:0:0:0:
279,124,107513,2,0,L|395:152,2,114.750004377365,2|0|0,0:0|0:0|0:0,0:0:0:0:
134,79,108324,6,0,L|6:111,2,114.750004377365,2|0|0,0:0|0:0|0:0,0:0:0:0:
373,46,109135,1,2,0:0:0:0:
445,56,109270,1,0,0:0:0:0:
478,122,109405,1,0,0:0:0:0:
444,187,109540,1,0,0:0:0:0:
371,196,109675,1,0,0:0:0:0:
125,295,109945,6,0,L|265:188,2,153,2|2|2,0:0|0:0|0:0,0:0:0:0:
363,102,110756,2,0,L|496:196,2,153,2|2|2,0:0|0:0|0:0,0:0:0:0:
112,45,111567,6,0,P|85:101|148:162,1,153,2|0,0:0|0:0,0:0:0:0:
184,222,111972,1,2,0:3:0:0:
253,252,112107,1,2,0:3:0:0:
328,242,112242,1,2,0:3:0:0:
112,343,112378,6,0,L|31:326,1,76.5,4|0,1:2|0:0,0:0:0:0:
172,265,112648,2,0,L|250:246,1,76.5,0|0,1:0|0:0,0:0:0:0:
112,204,112918,2,0,L|106:120,1,76.5,4|0,1:0|0:0,0:0:0:0:
328,53,113189,5,6,1:2:0:0:
397,80,113324,1,0,0:0:0:0:
425,149,113459,1,10,1:2:0:0:
394,216,113594,1,0,0:0:0:0:
324,241,113729,1,2,1:2:0:0:
81,257,113999,6,0,L|65:175,1,76.5,2|0,1:2|0:0,0:0:0:0:
148,171,114270,2,0,L|161:74,1,76.5,10|0,1:2|0:0,0:0:0:0:
80,75,114540,1,10,1:2:0:0:
317,56,114810,6,0,L|405:58,1,76.5,2|0,1:2|0:0,0:0:0:0:
310,138,115081,2,0,L|206:133,2,76.5,10|0|2,1:2|0:0|1:2,0:0:0:0:
388,149,115486,1,2,0:0:0:0:
251,242,115621,6,0,L|97:290,1,153,2|10,1:2|1:2,0:0:0:0:
57,231,116026,1,0,0:0:0:0:
82,163,116161,1,10,1:2:0:0:
154,150,116296,1,0,0:0:0:0:
367,132,116432,6,0,P|416:143|412:237,1,153,4|10,1:0|1:2,0:0:0:0:
377,295,116837,1,0,0:0:0:0:
311,333,116972,1,2,1:2:0:0:
236,339,117107,1,0,0:0:0:0:
452,351,117243,6,0,P|466:291|386:240,1,153,6|10,1:2|1:2,0:0:0:0:
328,235,117648,1,0,0:0:0:0:
403,237,117783,2,0,L|480:198,1,76.5,10|0,1:2|1:0,0:0:0:0:
261,157,118053,6,0,L|97:88,1,153,6|10,1:2|1:2,0:0:0:0:
158,162,118459,1,0,0:0:0:0:
224,198,118594,1,2,1:2:0:0:
300,192,118729,1,2,0:3:0:0:
168,280,118864,2,0,L|81:279,1,76.5,2|2,1:2|3:0,0:0:0:0:
308,146,119135,5,4,1:0:0:0:
342,158,119202,1,0,1:0:0:0:
357,192,119270,1,0,1:0:0:0:
341,226,119337,1,0,1:0:0:0:
305,237,119405,2,0,L|207:234,1,76.5,0|0,1:0|1:0,0:0:0:0:
86,259,119675,5,4,1:0:0:0:
50,194,119810,1,0,1:0:0:0:
79,126,119945,1,8,1:2:0:0:
150,108,120080,1,0,1:0:0:0:
79,126,120216,2,0,L|26:116,2,38.25,4|0|0,1:0|1:0|1:0,0:0:0:0:
290,155,120486,5,4,1:0:0:0:
325,219,120621,1,0,1:0:0:0:
296,287,120756,1,8,1:2:0:0:
225,305,120891,1,0,1:0:0:0:
151,307,121027,2,0,L|97:317,2,38.25,4|0|0,1:0|1:0|1:0,0:0:0:0:
367,76,121297,5,4,1:0:0:0:
438,93,121432,1,0,1:0:0:0:
470,160,121567,1,2,1:2:0:0:
438,226,121702,1,0,1:0:0:0:
366,243,121837,2,0,L|272:235,1,76.5,2|0,1:2|1:0,0:0:0:0:
77,225,122108,6,0,L|64:136,1,76.5,0|0,1:0|1:0,0:0:0:0:
142,100,122378,2,0,L|250:89,1,76.5,8|0,1:0|1:0,0:0:0:0:
81,31,122648,2,0,L|81:111,1,76.5,8|0,1:1|0:0,0:0:0:0:
299,197,122918,6,0,L|390:177,1,76.5,6|0,1:2|0:0,0:0:0:0:
245,280,123189,2,0,L|237:178,1,76.5,6|0,1:2|0:0,0:0:0:0:
368,168,123459,6,0,L|446:129,1,76.5,6|0,1:2|0:0,0:0:0:0:
325,148,123729,2,0,L|321:60,1,76.5,6|0,1:2|0:0,0:0:0:0:
423,122,123999,6,0,L|469:58,1,76.5,6|0,1:2|0:0,0:0:0:0:
381,26,124270,2,0,L|303:-4,1,76.5,6|0,1:2|0:0,0:0:0:0:
85,110,124540,6,0,P|42:134|65:249,1,153,6|8,1:2|1:2,0:0:0:0:
117,246,124945,2,0,L|260:157,1,153,2|2,0:0|0:0,0:0:0:0:
327,153,125351,1,0,1:2:0:0:
158,232,125621,2,0,L|143:74,1,153,8|10,1:2|1:2,0:0:0:0:
408,51,126162,6,0,P|390:98|273:129,1,153,2|10,1:2|1:2,0:0:0:0:
222,154,126567,2,0,L|145:129,1,76.5,2|10,0:0|1:2,0:0:0:0:
285,252,126837,2,0,L|415:335,2,153,2|2|2,3:0|3:2|3:2,0:0:0:0:
204,251,127513,2,0,L|194:169,1,76.5,0|0,1:0|0:0,0:0:0:0:
405,67,127783,6,0,P|437:117|377:183,1,153,4|10,1:0|1:2,0:0:0:0:
310,199,128189,1,2,0:0:0:0:
387,181,128324,2,0,L|477:202,1,76.5,2|2,1:2|1:2,0:0:0:0:
325,149,128594,5,6,1:2:0:0:
254,171,128729,1,2,0:0:0:0:
226,240,128864,1,10,1:2:0:0:
262,305,128999,1,0,0:0:0:0:
334,320,129135,2,0,L|237:344,1,76.5,10|2,1:2|1:2,0:0:0:0:
48,348,129405,6,0,P|31:293|105:230,1,153,4|8,1:0|1:2,0:0:0:0:
169,218,129810,1,0,0:0:0:0:
246,216,129945,2,0,L|250:138,1,76.5,2|2,1:2|0:0,0:0:0:0:
115,137,130216,2,0,L|108:56,1,76.5,0|0,1:0|0:0,0:0:0:0:
315,31,130486,5,4,1:0:0:0:
349,43,130553,1,0,1:0:0:0:
363,77,130621,1,0,1:0:0:0:
347,110,130688,1,0,1:0:0:0:
311,119,130756,2,0,L|212:122,1,76.5,0|0,1:0|1:0,0:0:0:0:
455,144,131026,6,0,P|473:191|400:252,1,153,6|10,1:2|1:2,0:0:0:0:
333,238,131432,1,2,0:0:0:0:
296,173,131567,1,2,1:2:0:0:
320,103,131702,1,2,0:0:0:0:
461,68,131837,6,0,L|474:221,1,153,2|10,1:2|1:2,0:0:0:0:
325,260,132378,1,10,1:2:0:0:
50,90,132648,6,0,P|90:134|187:151,1,153,6|10,1:2|1:2,0:0:0:0:
256,140,133053,1,2,0:0:0:0:
49,260,133189,2,0,L|35:180,1,76.5,4|0,1:2|0:0,0:0:0:0:
246,78,133459,5,2,1:2:0:0:
316,102,133594,1,0,1:0:0:0:
345,170,133729,1,2,1:2:0:0:
314,238,133864,1,0,1:0:0:0:
243,260,133999,2,0,L|154:262,1,76.5,2|2,1:2|1:2,0:0:0:0:
378,355,134270,6,0,P|419:348|439:250,1,153,4|8,1:0|1:2,0:0:0:0:
398,189,134675,1,2,0:0:0:0:
331,154,134810,1,2,1:2:0:0:
255,155,134945,1,0,0:0:0:0:
44,256,135081,6,0,P|19:202|99:134,1,153,6|10,1:2|1:2,0:0:0:0:
113,71,135486,1,2,0:0:0:0:
179,36,135621,1,2,1:2:0:0:
255,38,135756,1,0,0:0:0:0:
471,115,135891,6,0,P|489:176|417:233,1,153,6|2,1:2|0:3,0:0:0:0:
276,240,136432,2,0,L|223:230,2,38.25,0|0|0,1:0|1:0|1:0,0:0:0:0:
416,272,136702,6,0,L|488:228,1,76.5,0|0,1:0|1:0,0:0:0:0:
410,171,136972,1,0,1:0:0:0:
374,156,137039,1,0,0:0:0:0:
338,142,137107,1,0,1:0:0:0:
203,165,137243,2,0,L|190:73,1,76.5,8|0,1:0|1:0,0:0:0:0:
410,37,137513,6,0,P|434:97|356:149,1,153,6|8,1:2|1:2,0:0:0:0:
299,157,137918,1,2,0:0:0:0:
377,149,138053,2,0,L|450:182,2,76.5,2|2|2,1:2|0:0|1:2,0:0:0:0:
234,250,138459,2,0,P|206:192|283:144,1,153,2|0,0:0|0:0,0:0:0:0:
342,131,138864,1,8,1:2:0:0:
95,63,139135,5,2,1:2:0:0:
54,124,139270,1,0,0:0:0:0:
85,190,139405,1,10,1:2:0:0:
157,200,139540,1,2,0:0:0:0:
234,207,139675,1,2,1:2:0:0:
154,233,139810,6,0,L|22:142,2,153,2|2|2,0:0|0:0|0:0,0:0:0:0:
223,266,140486,1,8,1:2:0:0:
297,273,140621,1,0,1:0:0:0:
90,356,140756,6,0,L|19:309,1,76.5,6|2,1:2|0:0,0:0:0:0:
107,262,141026,2,0,L|250:198,1,153,10|2,1:2|1:2,0:0:0:0:
324,190,141432,1,0,0:0:0:0:
110,165,141567,5,4,1:0:0:0:
33,183,141702,2,0,L|30:20,1,153,2|0,0:0|0:0,0:0:0:0:
104,73,142108,1,10,1:2:0:0:
181,81,142243,1,0,1:0:0:0:
395,113,142378,6,0,P|408:164|332:218,1,153,6|10,1:2|1:2,0:0:0:0:
255,226,142783,2,0,P|213:232|181:335,1,153,2|2,0:0|0:3,0:0:0:0:
251,351,143189,1,0,1:0:0:0:
330,354,143324,1,0,0:0:0:0:
114,365,143459,5,6,1:2:0:0:
78,353,143526,1,0,1:0:0:0:
64,319,143594,1,0,1:0:0:0:
79,285,143661,1,0,1:0:0:0:
115,275,143729,2,0,L|203:278,1,76.5,2|0,1:2|1:0,0:0:0:0:
406,175,143999,6,0,L|488:143,1,76.5,6|2,1:2|0:0,0:0:0:0:
406,175,144270,2,0,L|241:133,1,153,10|2,1:2|1:2,0:0:0:0:
27,50,144810,2,0,L|36:227,1,153,2|10,1:2|1:2,0:0:0:0:
164,255,145351,1,10,1:2:0:0:
435,326,145621,6,0,P|439:273|356:222,1,153,6|10,1:2|1:2,0:0:0:0:
282,209,146026,2,0,L|133:151,1,153,2|0,0:0|0:0,0:0:0:0:
358,66,146432,5,6,1:2:0:0:
428,89,146567,1,0,1:0:0:0:
456,158,146702,1,2,1:2:0:0:
424,225,146837,1,2,1:2:0:0:
352,244,146972,2,0,L|275:237,1,76.5,2|2,1:2|1:2,0:0:0:0:
60,300,147243,6,0,P|48:234|142:185,1,153,6|0,1:2|1:0,0:0:0:0:
147,151,147603,1,0,1:0:0:0:
196,138,147693,1,0,1:0:0:0:
248,131,147783,2,0,L|329:129,1,76.5,4|2,1:0|0:0,0:0:0:0:
112,50,148053,6,0,P|85:102|174:155,1,153,4|0,1:0|1:0,0:0:0:0:
192,172,148414,1,0,1:0:0:0:
208,218,148504,1,0,1:0:0:0:
180,257,148594,2,0,L|94:264,1,76.5,4|0,1:0|0:0,0:0:0:0:
321,329,148864,6,0,L|392:333,2,51,4|0|0,1:2|1:0|1:0,0:0:0:0:
274,311,149134,1,0,1:0:0:0:
255,266,149224,1,0,0:0:0:0:
277,221,149314,1,0,1:0:0:0:
324,207,149405,2,0,L|425:200,1,76.5,0|0,1:0|0:0,0:0:0:0:
259,137,149675,6,0,L|243:56,4,76.5,2|0|2|0|2,2:0|2:0|2:0|2:0|0:0,0:0:0:0:
336,155,150351,1,2,0:0:0:0:
116,254,150486,6,0,L|30:234,1,76.5,6|4,1:2|1:2,0:0:0:0:
292,340,150891,2,0,L|382:324,1,76.5,4|4,1:2|1:2,0:0:0:0:
100,128,151297,6,0,L|246:190,2,153,4|4|4,1:2|1:2|1:2,0:0:0:0:
378,46,152108,5,4,1:2:0:0:
455,73,152243,2,0,P|416:109|287:127,1,153,0|4,1:0|1:2,0:0:0:0:
183,139,152648,2,0,L|174:235,1,76.5,2|2,1:2|0:0,0:0:0:0:
397,122,152918,6,0,P|425:167|361:233,1,153,4|0,1:0|1:0,0:0:0:0:
323,291,153324,1,0,1:0:0:0:
352,357,153459,1,0,1:0:0:0:
425,364,153594,1,0,1:0:0:0:
208,353,153729,6,0,L|66:277,1,153,6|6,1:2|1:2,0:0:0:0:
279,260,154270,1,6,1:2:0:0:
41,237,154540,6,0,L|34:74,1,153,6|6,1:2|1:2,0:0:0:0:
203,49,155081,1,6,1:2:0:0:
468,266,155351,6,0,L|305:306,1,153,6|4,1:2|1:0,0:0:0:0:
284,288,155688,1,0,1:0:0:0:
270,254,155756,1,0,1:0:0:0:
285,220,155823,1,0,1:0:0:0:
319,206,155891,2,0,L|415:200,1,76.5,4|0,1:0|1:0,0:0:0:0:
170,343,156162,6,0,P|143:301|222:244,1,153,4|0,1:0|1:0,0:0:0:0:
241,227,156499,1,0,1:0:0:0:
255,193,156567,1,0,1:0:0:0:
239,160,156634,1,0,1:0:0:0:
203,150,156702,2,0,L|134:154,2,38.25,0|0|0,1:0|1:0|1:0,0:0:0:0:
435,175,156972,5,6,3:2:0:0:
435,175,157243,1,10,0:0:0:0:
435,175,157513,1,10,0:0:0:0:
266,97,157783,6,0,L|146:192,2,153,10|10|10,0:0|0:0|0:0,0:0:0:0:
350,75,158459,2,0,L|290:73,1,38.25,0|0,1:0|1:0,0:0:0:0:
271,73,158594,6,0,L|116:154,2,153,10|10|10,0:0|0:0|0:0,0:0:0:0:
31,246,159405,5,10,0:0:0:0:
31,246,159675,1,10,0:0:0:0:
31,246,159945,2,0,L|117:230,1,76.5,10|0,0:0|1:0,0:0:0:0:
321,310,160216,5,14,1:2:0:0:
357,246,160351,1,8,0:0:0:0:
325,180,160486,1,10,0:0:0:0:
252,171,160621,1,8,0:0:0:0:
175,117,160756,2,0,L|256:109,1,76.5,10|0,0:0|1:0,0:0:0:0:
470,153,161026,5,6,1:2:0:0:
256,192,161162,12,0,162378,0:0:0:0:
266,37,162648,6,0,P|348:113|263:340,1,382.5,4|0,0:0|0:0,0:0:0:0:
24,184,163459,5,4,1:2:0:0:
256,192,166702,12,0,168053,0:0:0:0:
293,229,168324,6,0,L|308:134,1,76.5,6|0,1:2|0:0,0:0:0:0:
172,164,168594,2,0,L|157:78,1,76.5,6|0,1:2|0:0,0:0:0:0:
295,55,168864,2,0,L|389:53,1,76.5,6|0,1:2|0:0,0:0:0:0:
147,86,169135,6,0,P|122:148|211:180,1,153,4|2,1:2|1:2,0:0:0:0:
218,202,169472,1,2,1:2:0:0:
232,236,169540,1,2,1:2:0:0:
217,270,169607,1,2,1:2:0:0:
181,280,169675,2,0,L|77:287,1,76.5,8|2,1:1|1:2,0:0:0:0:
327,95,169945,5,6,1:2:0:0:
374,107,170035,1,2,0:0:0:0:
395,151,170125,1,2,0:0:0:0:
374,196,170215,1,10,1:2:0:0:
295,221,170351,1,0,0:0:0:0:
215,220,170486,6,0,L|204:134,1,76.5,2|0,0:0|0:0,0:0:0:0:
341,136,170756,2,0,L|349:34,1,76.5,10|0,1:2|0:0,0:0:0:0:
141,70,171026,5,2,1:2:0:0:
93,82,171116,1,2,0:0:0:0:
72,126,171206,1,2,0:0:0:0:
93,171,171296,1,10,1:2:0:0:
169,191,171432,1,0,0:0:0:0:
373,289,171567,6,0,L|449:295,1,76.5,6|0,1:2|0:0,0:0:0:0:
326,222,171837,2,0,L|322:145,1,76.5,10|0,1:2|0:0,0:0:0:0:
454,78,172107,5,2,0:0:0:0:
475,122,172197,1,0,0:0:0:0:
455,166,172287,1,2,0:0:0:0:
407,179,172377,1,10,1:2:0:0:
327,185,172513,1,0,0:0:0:0:
197,202,172648,6,0,L|186:116,1,76.5,2|0,1:2|0:0,0:0:0:0:
331,181,172918,2,0,L|338:91,1,76.5,10|0,1:2|0:0,0:0:0:0:
128,58,173189,6,0,L|19:183,1,153,6|10,1:2|1:2,0:0:0:0:
105,215,173594,1,2,0:0:0:0:
183,228,173729,2,0,L|272:224,1,76.5,2|0,0:0|1:0,0:0:0:0:
50,355,173999,6,0,P|32:308|111:245,1,153,10|2,1:2|1:2,0:0:0:0:
175,233,174405,1,2,1:2:0:0:
97,244,174540,2,0,L|14:211,1,76.5,10|0,1:2|0:0,0:0:0:0:
235,148,174810,6,0,L|392:75,1,153,2|10,1:2|1:2,0:0:0:0:
338,150,175216,1,0,0:0:0:0:
274,191,175351,1,2,0:0:0:0:
199,196,175486,1,2,1:2:0:0:
408,189,175621,6,0,P|452:198|457:308,1,153,10|10,1:2|1:2,0:0:0:0:
397,313,176026,1,2,1:2:0:0:
255,330,176162,1,2,1:2:0:0:
217,334,176229,1,0,1:0:0:0:
179,338,176297,1,0,1:0:0:0:
394,357,176432,6,0,P|446:334|443:237,1,153,6|10,1:2|1:2,0:0:0:0:
308,211,176972,2,0,L|226:199,1,76.5,2|0,0:0|1:0,0:0:0:0:
96,285,177243,6,0,P|63:223|135:170,1,153,10|2,1:2|1:2,0:0:0:0:
163,113,177648,1,0,1:0:0:0:
233,83,177783,1,8,1:2:0:0:
309,85,177918,1,2,0:0:0:0:
448,171,178053,6,0,L|460:338,1,153,2|10,1:2|1:2,0:0:0:0:
321,355,178594,2,0,L|242:349,1,76.5,2|0,0:0|1:0,0:0:0:0:
114,349,178864,5,10,1:2:0:0:
67,331,178954,1,2,0:0:0:0:
48,285,179044,1,2,0:0:0:0:
68,239,179134,1,2,1:2:0:0:
115,222,179225,2,0,L|192:219,2,51,2|2|10,0:0|0:0|1:2,0:0:0:0:
42,211,179540,1,0,0:0:0:0:
255,155,179675,6,0,L|405:254,2,153,2|8|2,1:2|1:2|0:0,0:0:0:0:
176,150,180351,1,2,1:2:0:0:
42,211,180486,6,0,P|17:155|95:86,1,153,10|2,1:2|1:2,0:0:0:0:
105,154,180891,1,2,1:2:0:0:
171,192,181026,1,10,1:2:0:0:
246,193,181161,1,2,1:2:0:0:
459,166,181297,6,0,L|466:249,1,76.5,4|0,1:2|0:0,0:0:0:0:
334,274,181567,2,0,L|247:301,1,76.5,4|0,1:2|0:0,0:0:0:0:
395,349,181837,2,0,L|491:364,1,76.5,4|0,1:2|0:0,0:0:0:0:
259,368,182108,5,0,1:0:0:0:
187,349,182243,1,0,1:0:0:0:
157,282,182378,1,0,1:0:0:0:
192,217,182513,1,0,1:0:0:0:
264,204,182648,2,0,L|329:203,2,38.25,0|0|0,1:0|1:0|1:0,0:0:0:0:
57,235,182918,6,0,P|34:177|104:108,1,153,6|2,1:2|1:2,0:0:0:0:
245,69,183459,1,2,1:2:0:0:
494,273,183729,6,0,L|319:224,1,153,6|2,1:2|1:2,0:0:0:0:
272,220,184135,1,2,0:0:0:0:
347,231,184270,2,0,L|428:198,1,76.5,2|2,1:2|0:0,0:0:0:0:
208,105,184540,5,6,1:2:0:0:
176,172,184675,1,0,1:0:0:0:
209,238,184810,1,2,1:2:0:0:
282,253,184945,1,0,1:0:0:0:
363,293,185081,2,0,L|263:302,1,76.5,2|0,1:2|1:0,0:0:0:0:
77,322,185351,5,2,1:2:0:0:
41,313,185418,1,2,1:2:0:0:
24,280,185486,1,2,1:2:0:0:
39,246,185553,1,2,1:2:0:0:
75,236,185621,2,0,L|165:231,1,76.5,2|2,1:2|1:2,0:0:0:0:
290,190,185891,2,0,L|339:181,2,38.25,2|2|2,1:2|1:2|1:2,0:0:0:0:
76,228,186162,6,0,P|45:177|128:113,1,153,6|2,1:2|1:2,0:0:0:0:
228,98,186567,2,0,L|247:60,2,38.25,2|0|0,1:2|1:0|1:0,0:0:0:0:
151,118,186837,1,0,1:0:0:0:
361,137,186972,6,0,L|480:237,1,153,4|2,1:2|1:2,0:0:0:0:
346,335,187378,2,0,L|327:373,2,38.25,2|2|2,1:2|1:2|1:2,0:0:0:0:
423,315,187648,1,0,1:0:0:0:
207,264,187783,6,0,L|68:180,1,153,6|2,1:2|1:2,0:0:0:0:
112,118,188188,1,0,1:0:0:0:
175,76,188323,1,0,1:0:0:0:
250,69,188458,1,0,1:0:0:0:
459,100,188594,6,0,L|468:178,1,76.5,2|0,1:2|0:0,0:0:0:0:
341,194,188864,2,0,L|332:275,1,76.5,2|2,3:0|3:0,0:0:0:0:
466,275,189135,2,0,L|479:366,1,76.5,8|0,1:0|0:0,0:0:0:0:
259,362,189405,6,0,L|98:309,1,153,4|0,1:0|1:0,0:0:0:0:
34,301,189810,2,0,L|13:259,2,38.25,0|0|0,1:0|1:0|1:0,0:0:0:0:
114,313,190081,1,0,1:0:0:0:
326,278,190216,6,0,L|470:221,1,153,4|0,1:0|1:0,0:0:0:0:
337,187,190621,2,0,L|317:150,2,38.25,0|0|0,1:0|1:0|1:0,0:0:0:0:
414,209,190891,1,0,1:0:0:0:
194,174,191026,6,0,L|117:171,1,76.5,4|0,1:2|1:0,0:0:0:0:
194,174,191297,1,0,1:0:0:0:
227,191,191364,1,0,1:0:0:0:
240,226,191432,1,0,1:0:0:0:
226,261,191499,1,0,1:0:0:0:
192,277,191567,2,0,L|105:275,1,76.5,0|0,1:0|1:0,0:0:0:0:
333,336,191837,6,0,L|424:320,1,76.5,4|0,1:2|1:0,0:0:0:0:
331,248,192108,2,0,L|259:224,1,76.5,0|0,1:0|1:0,0:0:0:0:
120,187,192378,2,0,L|97:149,2,38.25,0|0|0,1:0|1:0|1:0,0:0:0:0:
335,94,192648,6,0,L|476:186,1,153,4|10,1:2|1:2,0:0:0:0:
429,245,193053,1,2,0:0:0:0:
368,290,193188,1,2,1:2:0:0:
293,300,193323,1,0,1:0:0:0:
83,348,193459,6,0,P|55:295|132:238,1,153,4|10,1:0|1:2,0:0:0:0:
161,178,193864,1,2,0:0:0:0:
230,146,193999,1,10,1:2:0:0:
306,146,194134,1,0,1:0:0:0:
97,69,194270,6,0,L|20:66,1,76.5,6|0,1:2|0:0,0:0:0:0:
141,94,194540,2,0,L|152:180,1,76.5,6|0,1:2|0:0,0:0:0:0:
30,200,194810,2,0,L|24:281,1,76.5,6|0,1:2|0:0,0:0:0:0:
114,305,195081,1,2,1:2:0:0:
375,100,195351,5,10,1:2:0:0:
408,115,195418,1,2,0:0:0:0:
422,150,195486,1,0,1:0:0:0:
407,184,195553,1,0,1:0:0:0:
373,199,195621,2,0,L|286:195,1,76.5,2|2,1:2|1:2,0:0:0:0:
87,269,195891,6,0,P|68:219|148:163,1,153,4|10,1:0|1:2,0:0:0:0:
210,151,196297,2,0,L|298:169,2,76.5,2|0|2,0:0|1:0|0:0,0:0:0:0:
132,132,196702,5,2,1:2:0:0:
204,148,196837,1,2,0:0:0:0:
235,214,196972,1,10,1:2:0:0:
203,281,197107,1,2,0:0:0:0:
130,296,197242,1,10,1:2:0:0:
208,299,197378,1,2,0:0:0:0:
422,331,197513,6,0,P|439:277|366:213,1,153,4|10,1:0|1:2,0:0:0:0:
300,202,197918,2,0,L|163:131,1,153,2|2,0:0|0:0,0:0:0:0:
374,75,198324,6,0,L|501:172,1,153,4|2,1:0|1:2,0:0:0:0:
466,237,198729,1,0,1:0:0:0:
405,280,198864,1,2,1:2:0:0:
329,284,198999,1,0,1:0:0:0:
119,327,199135,6,0,P|100:279|173:221,1,153,6|10,1:2|1:2,0:0:0:0:
248,223,199540,2,0,P|267:175|194:117,1,153,2|0,0:0|0:0,0:0:0:0:
61,219,199945,6,0,L|54:48,1,153,4|8,1:0|1:2,0:0:0:0:
86,134,200351,1,2,0:0:0:0:
149,175,200486,1,2,1:2:0:0:
225,176,200621,1,0,1:0:0:0:
435,97,200756,6,0,P|466:156|414:218,1,153,6|10,1:2|0:0,0:0:0:0:
264,246,201297,2,0,L|221:248,2,38.25,0|0|0,1:0|1:0|1:0,0:0:0:0:
396,153,201567,5,0,1:0:0:0:
429,169,201634,1,0,0:0:0:0:
442,204,201702,1,0,1:0:0:0:
427,238,201769,1,0,0:0:0:0:
392,252,201837,2,0,L|304:246,1,76.5,0|0,1:0|1:0,0:0:0:0:
108,249,202108,6,0,L|94:159,1,76.5,8|0,1:0|1:0,0:0:0:0:
320,119,202378,6,0,L|471:224,2,153,6|10|2,1:2|1:2|1:2,0:0:0:0:
242,117,203053,1,0,0:0:0:0:
163,123,203189,2,0,L|153:200,1,76.5,0|0,1:0|0:0,0:0:0:0:
280,200,203459,2,0,L|288:293,1,76.5,10|0,1:2|0:0,0:0:0:0:
155,305,203729,2,0,L|75:309,1,76.5,4|0,1:0|1:0,0:0:0:0:
289,338,203999,6,0,L|430:259,2,153,4|10|2,1:0|1:2|1:2,0:0:0:0:
214,352,204675,1,2,0:0:0:0:
79,358,204810,6,0,P|52:293|125:244,1,153,2|10,1:2|1:2,0:0:0:0:
185,233,205216,1,2,0:0:0:0:
106,244,205351,2,0,L|12:215,1,76.5,14|0,1:2|1:2,0:0:0:0:
244,141,205621,6,0,L|397:217,1,153,4|10,1:0|1:2,0:0:0:0:
225,253,206162,2,0,L|143:264,1,76.5,4|0,1:0|1:0,0:0:0:0:
363,335,206432,6,0,P|376:280|297:231,1,153,4|10,1:0|1:2,0:0:0:0:
233,220,206837,1,2,0:0:0:0:
204,153,206972,1,14,1:2:0:0:
246,93,207107,1,0,1:0:0:0:
463,69,207243,6,0,L|472:158,1,76.5,6|0,1:2|0:0,0:0:0:0:
341,189,207513,2,0,L|262:212,1,76.5,6|0,1:2|0:0,0:0:0:0:
400,277,207783,2,0,L|481:291,1,76.5,6|0,1:2|0:0,0:0:0:0:
261,350,208053,6,0,P|209:337|220:247,1,153,4|2,1:0|1:2,0:0:0:0:
290,231,208459,1,2,1:2:0:0:
424,204,208594,2,0,L|475:205,2,38.25,8|0|0,1:0|1:0|1:0,0:0:0:0:
214,148,208864,6,0,L|59:89,2,153,4|10|10,1:0|1:2|1:2,0:0:0:0:
490,166,209675,6,0,P|460:206|357:229,1,153,4|10,1:0|1:2,0:0:0:0:
287,250,210081,1,2,0:0:0:0:
365,229,210216,2,0,L|455:259,1,76.5,10|0,1:2|0:0,0:0:0:0:
227,337,210486,5,6,1:2:0:0:
155,319,210621,1,0,1:0:0:0:
123,252,210756,1,2,1:2:0:0:
156,186,210891,1,0,1:0:0:0:
228,169,211026,1,2,1:2:0:0:
266,172,211093,1,0,1:0:0:0:
304,174,211161,1,0,1:0:0:0:
95,67,211297,5,2,1:2:0:0:
59,78,211364,1,0,0:0:0:0:
47,112,211432,1,0,1:0:0:0:
66,143,211499,1,0,1:0:0:0:
103,147,211567,2,0,L|186:145,1,76.5,0|0,1:0|1:0,0:0:0:0:
317,248,211837,2,0,L|366:245,2,38.25,0|2|0,1:0|1:2|0:0,0:0:0:0:
95,324,212108,6,0,P|74:269|152:217,1,153,4|2,1:0|1:2,0:0:0:0:
218,201,212513,2,0,L|240:167,2,38.25,0|0|0,1:0|1:0|1:0,0:0:0:0:
139,213,212783,1,2,1:2:0:0:
351,75,212918,6,0,L|488:168,1,153,4|2,1:2|1:2,0:0:0:0:
346,231,213324,2,0,L|324:197,2,38.25,0|0|0,1:0|1:0|1:0,0:0:0:0:
425,243,213594,1,0,1:0:0:0:
215,299,213729,6,0,L|123:277,1,76.5,4|0,1:0|1:0,0:0:0:0:
218,222,213999,2,0,L|296:214,1,76.5,2|0,1:2|1:0,0:0:0:0:
432,191,214270,2,0,L|431:108,1,76.5,2|0,1:2|1:0,0:0:0:0:
225,65,214540,5,2,1:2:0:0:
190,79,214608,1,0,1:0:0:0:
176,113,214675,1,0,1:0:0:0:
191,148,214742,1,0,1:0:0:0:
226,161,214810,2,0,L|316:149,1,76.5,2|2,1:3|1:3,0:0:0:0:
97,268,215081,2,0,L|14:260,1,76.5,8|0,1:0|1:0,0:0:0:0:
234,162,215351,5,2,1:3:0:0:
268,174,215418,1,0,1:3:0:0:
284,208,215486,1,0,1:3:0:0:
269,242,215553,1,0,1:3:0:0:
234,255,215621,1,2,1:3:0:0:
97,216,215756,5,2,1:3:0:0:
63,228,215823,1,0,1:3:0:0:
47,262,215891,1,0,1:3:0:0:
62,296,215958,1,0,1:3:0:0:
97,309,216026,1,2,1:3:0:0:
311,335,216162,6,0,L|406:327,1,76.5,2|0,1:3|0:0,0:0:0:0:
161,155,216432,5,4,1:0:0:0:
256,192,216567,12,0,222581,0:0:0:0:
