osu file format v14

[General]
AudioFilename: audio.mp3
AudioLeadIn: 0
PreviewTime: 163391
Countdown: 0
SampleSet: Soft
StackLeniency: 0.7
Mode: 2
LetterboxInBreaks: 0
WidescreenStoryboard: 0

[Editor]
Bookmarks: 45081,64540,79405,106702,124540,137513,150486,163459,189405,192648,216432
DistanceSpacing: 0.8
BeatDivisor: 4
GridSize: 32
TimelineZoom: 3.699998

[Metadata]
Title:Le Cirque de Minuit (2019 Re:work)
TitleUnicode:Le Cirque de Minuit (2019 Re:work)
Artist:Morimori Atsushi
ArtistUnicode:モリモリあつし
Creator:Jemzuu
Version:Ornemental
Source:osu!
Tags:ajamez spectator featured artist mappers guild fa electronic instrumental グラン=ギニョルに終幕を 非可逆リズム 悠久の時を刻む街 Ornamental rework drum and bass dnb n
BeatmapID:2702395
BeatmapSetID:1303098

[Difficulty]
HPDrainRate:6
CircleSize:4.2
OverallDifficulty:9.6
ApproachRate:9.6
SliderMultiplier:1.9
SliderTickRate:2

[Events]
//Background and Video events
0,0,"85034930_p0.jpg",0,0
//Break Periods
2,163659,166193
//Storyboard Layer 0 (Background)
//Storyboard Layer 1 (Fail)
//Storyboard Layer 2 (Pass)
//Storyboard Layer 3 (Foreground)
//Storyboard Layer 4 (Overlay)
//Storyboard Sound Samples

[TimingPoints]
487,540.540540540541,3,2,1,20,1,0
26432,-100,3,2,1,40,0,0
27108,-100,3,2,1,50,0,0
27784,-100,3,2,1,5,0,0
28054,270.27027027027,3,2,6,70,1,0
28121,-100,3,2,1,70,0,0
38593,-100,3,2,2,60,0,0
43391,-100,3,2,2,5,0,0
43458,-100,3,2,2,60,0,0
51026,-100,3,2,1,60,0,0
51566,-100,3,2,1,70,0,0
64539,-100,3,2,3,90,0,0
64674,-100,3,2,3,90,0,0
64877,-100,3,2,3,5,0,0
64945,-100,3,2,3,90,0,0
65012,-100,3,2,3,5,0,0
65080,-100,3,2,3,90,0,0
65283,-100,3,2,3,5,0,0
65350,-100,3,2,3,90,0,0
65553,-100,3,2,3,5,0,0
65621,-33.3333333333333,3,2,3,90,0,0
65823,-33.3333333333333,3,2,3,5,0,0
65891,-100,3,2,3,90,0,0
66093,-100,3,2,3,5,0,0
66161,-100,3,2,3,90,0,0
66296,-100,3,2,3,90,0,0
66634,-100,3,2,3,5,0,0
66701,-100,3,2,3,90,0,0
66904,-100,3,2,3,5,0,0
66972,-100,3,2,3,90,0,0
67174,-100,3,2,3,5,0,0
67242,-100,3,2,3,50,0,0
67377,-100,3,2,3,60,0,0
67512,-100,3,2,3,70,0,0
67647,-100,3,2,3,80,0,0
67783,-40,3,2,3,90,0,0
67985,-40,3,2,3,5,0,0
68053,-39.5256916996047,3,2,3,90,0,0
68256,-39.5256916996047,3,2,3,5,0,0
68324,-37.7358490566038,3,2,3,90,0,0
68526,-37.7358490566038,3,2,3,5,0,0
68594,-35.4609929078014,3,2,3,90,0,0
68796,-35.4609929078014,3,2,3,5,0,0
68864,-34.965034965035,3,2,3,90,0,0
69066,-34.965034965035,3,2,3,5,0,0
69135,-33.3333333333333,3,2,3,90,0,0
69337,-33.3333333333333,3,2,3,5,0,0
69405,-34.1296928327645,3,2,3,90,0,0
69607,-34.1296928327645,3,2,3,5,0,0
69675,-81.9672131147541,3,2,3,80,0,0
70216,-86.9565217391304,3,2,3,90,0,0
70485,-86.9565217391304,3,2,3,60,0,0
70553,-86.9565217391304,3,2,3,65,0,0
70620,-86.9565217391304,3,2,3,70,0,0
70688,-86.9565217391304,3,2,3,75,0,0
70756,-86.9565217391304,3,2,3,80,0,0
71026,-100,3,2,4,70,0,0
71297,-100,3,2,2,70,0,0
73458,-100,3,2,2,80,0,0
73729,-100,3,2,2,80,0,0
73999,-100,3,2,2,80,0,0
74269,-100,3,2,2,80,0,0
76702,-200,3,2,5,90,0,0
77513,-100,3,2,2,90,0,0
78323,-100,3,2,2,70,0,0
79405,-100,3,2,4,70,0,0
79608,-100,3,2,2,70,0,0
82986,-100,3,2,1,70,0,0
83189,-100,3,2,2,70,0,0
95350,-100,3,2,3,70,0,0
95553,-100,3,2,2,5,0,0
95620,-100,3,2,3,90,0,0
95823,-100,3,2,2,5,0,0
95891,-100,3,2,3,90,0,0
96093,-100,3,2,2,5,0,0
96161,-100,3,2,2,90,0,0
106702,-133.333333333333,3,2,4,60,0,0
107243,-133.333333333333,3,2,2,60,0,0
109135,-100,3,2,2,60,0,0
111972,-100,3,2,1,60,0,0
112378,-100,3,2,5,60,0,0
112580,-100,3,2,2,5,0,0
112647,-100,3,2,2,60,0,0
113188,-100,3,2,1,70,0,0
124540,-100,3,2,4,80,0,0
124675,-100,3,2,1,80,0,0
149674,-100,3,2,3,90,0,0
150823,-100,3,2,3,5,0,0
150891,-100,3,2,3,90,0,0
151499,-100,3,2,3,5,0,0
151567,-30.7692307692308,3,2,3,90,0,0
151769,-30.7692307692308,3,2,3,5,0,0
151837,-100,3,2,3,90,0,0
152039,-100,3,2,3,5,0,0
152107,-100,3,2,3,90,0,0
153188,-100,3,2,3,50,0,0
153323,-100,3,2,3,60,0,0
153458,-100,3,2,3,70,0,0
153593,-100,3,2,3,80,0,0
153729,-38.4615384615385,3,2,3,90,0,0
153931,-38.4615384615385,3,2,3,5,0,0
153999,-35.7142857142857,3,2,3,90,0,0
154202,-35.7142857142857,3,2,3,5,0,0
154270,-33.3333333333333,3,2,3,90,0,0
154472,-33.3333333333333,3,2,3,5,0,0
154540,-32.258064516129,3,2,3,90,0,0
154742,-32.258064516129,3,2,3,5,0,0
154810,-31.25,3,2,3,90,0,0
155012,-31.25,3,2,3,5,0,0
155081,-30.7692307692308,3,2,3,90,0,0
155283,-30.7692307692308,3,2,3,5,0,0
155351,-75.7575757575758,3,2,3,90,0,0
155553,-75.7575757575758,3,2,3,5,0,0
155621,-83.3333333333333,3,2,3,90,0,0
156162,-86.9565217391304,3,2,3,90,0,0
156431,-86.9565217391304,3,2,3,60,0,0
156499,-86.9565217391304,3,2,3,65,0,0
156566,-86.9565217391304,3,2,3,70,0,0
156634,-86.9565217391304,3,2,3,75,0,0
156702,-86.9565217391304,3,2,3,80,0,0
156972,-100,3,2,4,90,0,0
157243,-100,3,2,2,90,0,0
161026,-100,3,2,1,90,0,0
161162,-100,3,2,1,30,0,0
162648,-100,3,2,5,90,0,0
163458,-100,3,2,4,70,0,0
166702,-100,3,2,4,30,0,0
167513,-100,3,2,4,45,0,0
168323,-100,3,2,1,80,0,0
168526,-100,3,2,1,5,0,0
168594,-100,3,2,1,80,0,0
168796,-100,3,2,1,5,0,0
168864,-100,3,2,1,80,0,0
169066,-100,3,2,1,5,0,0
169134,-100,3,2,5,80,0,0
169202,-100,3,2,1,80,0,0
169945,-83.3333333333333,3,2,2,90,0,1
173189,-86.9565217391304,3,2,2,90,0,1
176162,-100,3,2,2,90,0,0
176432,-100,3,2,2,90,0,1
181297,-33.3333333333333,3,2,2,90,0,1
181499,-33.3333333333333,3,2,2,5,0,1
181567,-36.3636363636364,3,2,2,90,0,1
181769,-36.3636363636364,3,2,2,5,0,1
181837,-40,3,2,2,90,0,1
182039,-40,3,2,2,5,0,1
182108,-90.9090909090909,3,2,2,90,0,1
186162,-100,3,2,2,90,0,0
189135,-100,3,2,1,90,0,0
189404,-100,3,2,1,90,0,0
191026,-83.3333333333333,3,2,1,90,0,0
191837,-83.3333333333333,3,2,5,90,0,0
191905,-83.3333333333333,3,2,1,90,0,0
192648,-83.3333333333333,3,2,4,90,0,1
192783,-83.3333333333333,3,2,1,90,0,1
202108,-100,3,2,1,90,0,0
202378,-86.9565217391304,3,2,4,90,0,1
202581,-86.9565217391304,3,2,1,90,0,1
207243,-33.3333333333333,3,2,1,90,0,1
207445,-33.3333333333333,3,2,1,5,0,1
207513,-31.7460317460317,3,2,1,90,0,1
207715,-31.7460317460317,3,2,1,5,0,1
207783,-30.3030303030303,3,2,1,90,0,1
207985,-30.3030303030303,3,2,1,5,0,1
208053,-86.9565217391304,3,2,1,90,0,1
212108,-90.9090909090909,3,2,1,90,0,0
213729,-83.3333333333333,3,2,1,90,0,0
216432,-100,3,2,1,90,0,1
216499,-100,3,2,1,30,0,0
217242,-100,3,2,1,20,0,0
218053,-100,3,2,1,10,0,0
220215,-100,3,2,1,40,0,0
221026,-100,3,2,1,50,0,0
221837,-100,3,2,1,60,0,0
222581,-100,3,2,1,5,0,0

[Colours]
Combo1 : 255,170,213
Combo2 : 166,166,210
Combo3 : 108,206,253

[HitObjects]
256,192,24811,12,0,27784,0:0:0:0:
179,339,28054,5,6,3:0:0:0:
155,299,28121,1,4,3:0:0:0:
170,256,28189,1,0,0:0:0:0:
213,240,28256,1,2,3:0:0:0:
396,210,28324,1,8,3:0:0:0:
439,226,28391,1,2,3:0:0:0:
454,269,28459,1,8,3:0:0:0:
430,308,28526,1,0,0:0:0:0:
222,160,28594,6,0,L|50:151,1,142.5,8|0,0:0|0:0,0:0:0:0:
310,73,28864,6,0,L|418:66,1,95,6|0,1:2|0:0,0:0:0:0:
280,155,29135,2,0,L|278:259,1,95,10|0,1:2|0:0,0:0:0:0:
151,251,29405,2,0,L|146:365,1,95,2|2,1:2|0:0,0:0:0:0:
197,358,29608,1,2,0:0:0:0:
379,349,29675,6,0,L|386:238,1,95,2|0,1:2|0:0,0:0:0:0:
259,257,29945,2,0,L|251:140,1,95,10|0,1:2|0:0,0:0:0:0:
118,108,30216,2,0,L|226:89,1,95,10|2,1:2|0:0,0:0:0:0:
259,84,30418,1,2,0:0:0:0:
68,33,30486,6,0,L|64:146,1,95,2|0,1:2|0:0,0:0:0:0:
195,142,30756,2,0,L|202:242,1,95,10|2,1:2|0:0,0:0:0:0:
337,295,31026,2,0,L|229:315,1,95,2|0,1:2|0:0,0:0:0:0:
195,334,31229,1,0,0:0:0:0:
24,220,31297,6,0,L|124:208,1,95,0|2,1:0|0:0,0:0:0:0:
252,191,31567,2,0,L|255:66,1,95,8|2,1:2|0:0,0:0:0:0:
393,40,31837,2,0,L|259:35,1,95,10|0,1:2|0:0,0:0:0:0:
249,41,32040,1,0,1:0:0:0:
452,115,32108,6,0,L|456:219,1,95,6|0,1:2|0:0,0:0:0:0:
317,197,32378,2,0,L|309:317,1,95,8|0,1:2|0:0,0:0:0:0:
172,349,32648,2,0,L|283:356,1,95,2|0,1:2|1:0,0:0:0:0:
317,357,32851,1,0,1:0:0:0:
118,254,32918,6,0,L|14:245,1,95,6|0,1:2|0:0,0:0:0:0:
159,191,33189,2,0,L|159:92,1,95,10|2,1:2|0:0,0:0:0:0:
294,88,33459,2,0,L|400:80,1,95,10|0,1:2|0:0,0:0:0:0:
337,66,33662,1,0,1:0:0:0:
135,81,33729,5,4,1:2:0:0:
94,162,33864,1,0,1:0:0:0:
137,243,33999,1,8,1:2:0:0:
228,253,34134,1,0,1:0:0:0:
104,311,34270,1,10,1:2:0:0:
231,349,34405,2,0,L|291:349,1,47.5,2|0,1:3|0:0,0:0:0:0:
72,234,34540,5,4,1:0:0:0:
176,205,34675,2,0,L|183:170,2,23.75,0|0|0,1:0|1:0|1:0,1:0:0:0:
371,116,34810,5,0,1:0:0:0:
267,105,34945,2,0,L|260:70,2,23.75,0|0|0,1:0|1:0|1:0,0:0:0:0:
453,247,35081,5,0,1:0:0:0:
226,151,35216,2,0,L|219:116,2,23.75,0|0|0,1:0|1:0|1:0,0:0:0:0:
450,135,35351,6,0,P|466:195|363:264,1,190,4|0,1:0|1:0,0:0:0:0:
286,278,35711,1,0,1:0:0:0:
380,278,35801,1,0,1:0:0:0:
157,360,35891,2,0,L|148:173,1,142.5,4|0,1:0|0:0,0:0:0:0:
359,164,36162,6,0,P|323:125|177:94,1,190,4|0,1:0|1:0,0:0:0:0:
269,59,36522,1,0,1:0:0:0:
361,48,36612,1,0,1:0:0:0:
124,33,36702,2,0,L|125:205,1,142.5,4|0,1:0|0:0,0:0:0:0:
341,212,36972,6,0,L|499:331,1,190,4|0,1:0|1:0,0:0:0:0:
399,351,37333,1,0,1:0:0:0:
492,326,37423,1,0,1:0:0:0:
260,368,37513,2,0,L|254:203,1,142.5,0|0,1:0|0:0,0:0:0:0:
476,171,37783,6,0,L|403:122,1,63.3333333333333,0|0,1:0|1:0,0:0:0:0:
340,128,37963,1,0,1:0:0:0:
126,100,38053,2,0,L|199:51,1,63.3333333333333,0|0,1:0|1:0,0:0:0:0:
270,58,38233,1,0,1:0:0:0:
43,215,38324,2,0,L|126:194,1,63.3333333333333,0|0,1:0|1:0,0:0:0:0:
334,234,38504,1,0,1:0:0:0:
68,347,38594,6,0,P|24:268|234:96,2,380,4|2|2,1:2|0:0|0:0,0:0:0:0:
474,113,40216,1,2,0:0:0:0:
95,82,41026,5,2,0:0:0:0:
23,70,41117,1,2,0:0:0:0:
95,82,41207,1,2,0:0:0:0:
177,120,41297,1,2,0:0:0:0:
250,104,41387,1,2,0:0:0:0:
177,120,41477,1,2,0:0:0:0:
373,250,41567,1,2,0:0:0:0:
450,242,41658,1,2,0:0:0:0:
373,250,41748,1,2,0:0:0:0:
71,355,41837,6,0,P|37:286|110:173,1,190,4|2,1:0|0:0,0:0:0:0:
272,151,42310,1,0,1:0:0:0:
103,271,42378,2,0,L|96:105,1,142.5,10|0,1:2|0:0,0:0:0:0:
288,53,42648,6,0,L|103:53,1,142.5,0|2,1:0|0:0,0:0:0:0:
198,70,42918,1,2,1:2:0:0:
463,106,43189,2,0,P|480:174|444:255,1,142.5,10|0,0:0|0:0,0:0:0:0:
262,261,43459,6,0,P|315:311|442:325,1,190,2|2,1:2|0:0,0:0:0:0:
423,206,43932,1,0,1:0:0:0:
247,160,43999,2,0,L|70:142,1,142.5,10|0,1:2|0:0,0:0:0:0:
290,75,44270,6,0,L|396:63,1,95,0|0,1:0|0:0,0:0:0:0:
245,148,44540,2,0,L|239:248,1,95,8|0,0:0|0:0,0:0:0:0:
385,216,44810,2,0,L|398:326,1,95,10|2,0:0|0:0,0:0:0:0:
104,111,45081,6,0,P|258:198|205:366,2,380,6|2|2,1:2|0:0|0:0,0:0:0:0:
475,49,46702,1,2,0:0:0:0:
199,99,47513,5,2,0:0:0:0:
275,117,47603,1,2,0:0:0:0:
200,131,47693,1,2,0:0:0:0:
117,153,47783,1,2,0:0:0:0:
39,186,47873,1,2,0:0:0:0:
119,185,47963,1,2,0:0:0:0:
352,234,48053,1,2,0:0:0:0:
274,267,48143,1,2,0:0:0:0:
354,266,48233,1,2,0:0:0:0:
86,362,48324,6,0,P|51:267|114:205,1,190,6|2,1:2|0:0,0:0:0:0:
295,165,48797,1,0,1:0:0:0:
99,191,48864,2,0,L|95:24,1,142.5,10|0,1:2|0:0,0:0:0:0:
299,35,49135,6,0,L|416:40,1,95,0|0,1:0|0:0,0:0:0:0:
256,102,49405,2,0,L|252:214,1,95,2|0,1:2|0:0,0:0:0:0:
111,274,49675,2,0,L|222:282,1,95,10|0,1:2|0:0,0:0:0:0:
455,125,49945,6,0,L|345:137,1,95,10|0,1:2|1:0,0:0:0:0:
225,179,50216,1,10,1:2:0:0:
361,177,50351,1,0,1:0:0:0:
127,276,50486,1,10,1:2:0:0:
263,274,50621,1,0,1:0:0:0:
28,321,50756,5,10,1:2:0:0:
14,276,50823,1,0,0:0:0:0:
33,234,50891,1,0,1:0:0:0:
76,216,50958,1,0,0:0:0:0:
265,196,51026,1,2,3:0:0:0:
318,181,51093,1,2,3:0:0:0:
347,142,51161,1,2,3:0:0:0:
337,96,51228,1,2,3:0:0:0:
153,59,51297,2,0,L|97:56,1,47.5,2|2,3:0|3:0,0:0:0:0:
299,22,51432,2,0,L|359:13,1,47.5,2|2,3:0|3:0,0:0:0:0:
115,288,51567,6,0,P|50:269|71:153,1,190,6|8,1:2|1:2,0:0:0:0:
159,132,51972,1,0,0:0:0:0:
296,72,52108,2,0,L|179:58,1,95,2|0,1:2|0:0,0:0:0:0:
334,143,52378,2,0,L|441:126,1,95,0|0,1:2|0:0,0:0:0:0:
205,320,52648,2,0,L|197:219,1,95,10|0,1:2|0:0,0:0:0:0:
327,216,52918,2,0,L|338:99,1,95,0|0,1:2|0:0,0:0:0:0:
103,46,53189,6,0,L|201:57,1,95,2|0,1:2|0:0,0:0:0:0:
60,127,53459,2,0,L|54:230,1,95,8|0,1:2|0:0,0:0:0:0:
189,169,53729,2,0,L|201:272,1,95,2|2,1:3|0:3,0:0:0:0:
446,336,53999,5,2,1:2:0:0:
372,325,54090,1,2,0:0:0:0:
446,336,54180,1,2,0:0:0:0:
361,298,54270,1,2,1:2:0:0:
284,275,54360,1,2,0:0:0:0:
366,260,54450,1,2,0:0:0:0:
154,231,54540,1,2,1:2:0:0:
223,194,54630,1,0,0:0:0:0:
300,181,54720,1,2,1:2:0:0:
57,157,54810,6,0,L|48:42,1,95,4|0,1:0|0:0,0:0:0:0:
183,29,55081,2,0,L|78:13,1,95,10|0,1:2|0:0,0:0:0:0:
210,115,55351,1,2,1:2:0:0:
332,185,55486,2,0,L|267:192,1,47.5
84,219,55621,6,0,L|73:111,1,95,4|0,1:0|0:0,0:0:0:0:
211,102,55891,2,0,L|224:212,1,95,10|0,1:2|0:0,0:0:0:0:
74,310,56162,2,0,L|196:328,1,95,2|0,1:2|0:0,0:0:0:0:
218,326,56364,1,0,1:0:0:0:
410,344,56432,6,0,L|417:237,1,95,4|0,1:0|0:0,0:0:0:0:
286,241,56702,2,0,L|280:138,1,95,10|0,1:2|0:0,0:0:0:0:
136,84,56972,2,0,L|249:66,1,95,2|0,1:2|0:0,0:0:0:0:
457,45,57243,2,0,L|351:33,1,95,2|0,1:2|0:0,0:0:0:0:
235,108,57513,2,0,L|234:187,1,47.5,0|0,1:0|1:0,0:0:0:0:
417,183,57648,2,0,L|421:271,1,47.5,0|0,1:0|1:0,0:0:0:0:
228,329,57783,5,0,1:0:0:0:
197,325,57816,1,0,1:0:0:0:
171,313,57850,1,0,1:0:0:0:
153,293,57884,1,0,1:0:0:0:
147,269,57918,1,0,1:0:0:0:
154,245,57951,1,0,1:0:0:0:
172,225,57985,1,0,1:0:0:0:
199,212,58019,1,0,1:0:0:0:
229,210,58053,6,0,L|408:200,1,142.5,0|0,1:0|0:0,0:0:0:0:
172,113,58324,6,0,L|65:95,1,95,4|0,1:0|0:0,0:0:0:0:
212,52,58594,2,0,L|226:181,1,95,2|0,1:2|0:0,0:0:0:0:
84,187,58864,2,0,L|67:305,1,95,0|0,1:0|0:0,0:0:0:0:
288,353,59135,2,0,L|186:348,1,95,10|0,1:2|0:0,0:0:0:0:
305,277,59405,2,0,L|422:270,1,95,0|0,1:0|0:0,0:0:0:0:
163,243,59675,6,0,L|154:146,1,95,4|0,1:0|0:0,0:0:0:0:
291,77,59945,2,0,L|184:64,1,95,10|0,1:2|0:0,0:0:0:0:
146,65,60148,1,2,0:0:0:0:
93,62,60216,1,2,1:3:0:0:
230,30,60351,1,2,0:3:0:0:
14,184,60486,6,0,L|132:205,1,95,6|2,1:2|1:2,0:0:0:0:
242,238,60756,1,10,1:2:0:0:
106,233,60891,1,2,1:2:0:0:
326,137,61026,1,10,1:2:0:0:
190,91,61162,2,0,L|267:88,1,47.5,0|0,1:0|1:0,0:0:0:0:
450,124,61297,6,0,L|460:242,1,95,4|0,1:0|0:0,0:0:0:0:
333,231,61567,2,0,L|326:332,1,95,10|0,1:2|0:0,0:0:0:0:
187,373,61837,2,0,L|315:358,1,95,2|0,1:2|0:0,0:0:0:0:
333,357,62040,1,0,1:0:0:0:
139,284,62108,6,0,L|8:275,1,95,4|0,1:0|0:0,0:0:0:0:
180,204,62378,2,0,L|72:195,1,95,10|0,1:2|0:0,0:0:0:0:
229,129,62648,2,0,L|358:111,1,95,10|0,1:2|0:0,0:0:0:0:
272,102,62851,1,0,1:0:0:0:
71,250,62918,6,0,L|58:45,1,190,4|2,1:0|3:0,0:0:0:0:
316,18,63459,1,0,1:0:0:0:
286,59,63526,1,0,1:0:0:0:
239,83,63594,1,0,1:0:0:0:
184,86,63661,1,0,1:0:0:0:
373,151,63729,5,0,1:0:0:0:
424,160,63796,1,0,0:0:0:0:
451,200,63864,1,0,1:0:0:0:
433,243,63931,1,0,1:0:0:0:
239,340,63999,1,0,1:0:0:0:
221,297,64066,1,0,3:0:0:0:
248,257,64134,1,0,1:0:0:0:
299,248,64201,1,0,1:0:0:0:
118,191,64270,2,0,L|56:186,1,47.5,2|0,1:2|0:0,0:0:0:0:
266,126,64405,2,0,L|295:124,2,23.75,0|0|0,1:0|1:0|1:0,0:0:0:0:
59,99,64540,5,4,1:2:0:0:
304,52,64675,2,0,P|333:123|265:156,1,142.5,4|0,1:2|0:0,0:0:0:0:
128,241,64945,2,0,L|62:247,1,47.5,4|0,1:2|0:0,0:0:0:0:
274,301,65081,2,0,L|457:319,1,142.5,4|0,1:2|0:0,0:0:0:0:
214,217,65351,5,4,1:2:0:0:
190,222,65385,2,0,P|166:180|218:93,1,154.375
230,94,65621,6,0,B|499:212|499:212|245:235,1,534.375020384789,4|0,1:2|0:0,0:0:0:0:
243,238,65891,6,0,P|164:174|175:133,1,142.5,4|0,1:2|0:0,0:0:0:0:
365,76,66162,5,4,1:2:0:0:
103,59,66297,2,0,L|94:36,4,23.75,0|0|0|0|0,1:0|1:0|1:0|1:0|1:0,1:0:0:0:
355,145,66567,2,0,L|296:148,1,47.5,4|0,1:2|0:0,0:0:0:0:
115,280,66702,6,0,L|95:236,3,47.5,4|0|0|0,1:2|0:0|0:0|0:0,0:0:0:0:
307,147,66972,6,0,P|365:179|346:264,1,142.5,4|0,1:0|0:0,0:0:0:0:
310,273,67243,1,0,1:0:0:0:
170,262,67378,1,0,1:0:0:0:
310,273,67513,1,0,1:0:0:0:
165,293,67648,1,0,1:0:0:0:
444,353,67783,6,0,B|497:186|497:186|425:20,1,356.25,6|0,1:2|0:0,0:0:0:0:
369,21,68053,6,0,B|132:58|132:58|208:164,1,360.524997386942,6|0,1:2|0:0,0:0:0:0:
268,145,68324,6,0,B|49:272|49:272|142:360,1,377.625015845776,6|0,1:2|0:0,0:0:0:0:
201,360,68594,6,0,B|458:283|458:283|302:264,1,401.849979458657,6|0,1:2|0:0,0:0:0:0:
265,261,68864,6,0,B|497:121|497:121|353:93,1,407.550005596848,6|0,1:2|0:0,0:0:0:0:
303,95,69135,6,0,B|23:147|23:147|183:175,1,427.500016307831,6|0,1:2|0:0,0:0:0:0:
373,156,69405,6,0,B|474:269|474:269|435:-1,1,417.525009237843,6|0,1:2|0:0,0:0:0:0:
250,299,69675,5,4,1:0:0:0:
190,290,69742,1,0,1:0:0:0:
158,239,69810,1,0,1:0:0:0:
178,182,69877,1,0,1:0:0:0:
372,109,69945,2,0,L|402:109,2,28.9749988062668,4|0|0,1:0|1:0|1:0,0:0:0:0:
179,62,70081,2,0,L|137:58,2,28.9749988062668,0|0|0,1:0|1:0|1:0,0:0:0:0:
403,46,70216,6,0,P|467:62|449:155,1,163.875003125668,4|0,1:0|0:0,0:0:0:0:
411,161,70486,1,0,1:0:0:0:
353,169,70553,1,0,1:0:0:0:
294,176,70621,1,0,1:0:0:0:
229,175,70689,1,0,1:0:0:0:
417,300,70756,6,0,L|435:272,2,27.3125005209446,0|0|0,1:0|1:0|1:0,0:0:0:0:
298,275,70858,1,0,1:0:0:0:
171,278,70891,2,0,L|149:249,2,27.3125005209446,0|0|0,1:0|1:0|1:0,0:0:0:0:
298,275,70993,1,0,0:0:0:0:
442,309,71026,5,6,1:2:0:0:
442,309,71297,1,2,0:0:0:0:
442,309,71567,1,2,0:0:0:0:
43,106,71837,6,0,L|250:102,2,190,10|0|0,0:2|0:0|0:0,0:0:0:0:
43,106,72513,1,0,1:0:0:0:
321,278,72648,6,0,L|114:274,2,190,2|2|2,1:2|1:2|0:0,0:0:0:0:
321,278,73324,1,0,1:0:0:0:
39,117,73459,5,10,1:2:0:0:
251,89,73729,1,2,1:2:0:0:
39,117,73999,2,0,L|149:129,1,95,10|0,1:2|0:0,0:0:0:0:
185,149,74202,1,2,0:0:0:0:
368,306,74270,6,0,L|377:197,1,95,2|0,1:2|0:0,0:0:0:0:
242,205,74540,2,0,L|231:96,1,95,10|0,1:2|0:0,0:0:0:0:
479,126,74810,2,0,L|489:18,1,95,2|0,0:0|1:0,0:0:0:0:
254,26,75081,6,0,L|141:27,1,95,10|0,1:2|0:0,0:0:0:0:
294,124,75351,2,0,L|408:126,1,95,2|0,1:2|0:0,0:0:0:0:
153,259,75621,2,0,L|28:265,1,95,10|0,1:2|0:0,0:0:0:0:
306,335,75891,5,8,1:2:0:0:
175,346,76026,1,0,1:0:0:0:
423,268,76162,1,8,1:2:0:0:
178,239,76297,1,0,1:0:0:0:
311,222,76432,1,0,1:0:0:0:
335,183,76499,1,0,1:0:0:0:
319,140,76567,1,0,1:0:0:0:
275,127,76634,1,0,1:0:0:0:
21,19,76702,6,0,L|21:298,1,261.25,4|0,1:2|0:0,0:0:0:0:
307,335,77513,6,0,L|92:338,1,190,4|0,1:0|0:0,0:0:0:0:
117,337,78053,2,0,L|115:278,3,47.5,0|0|0|0,1:0|1:0|1:0|1:0,0:0:0:0:
348,115,78324,6,0,L|172:109,1,142.5,4|0,1:0|0:0,0:0:0:0:
404,218,78594,2,0,L|463:209,1,47.5,2|0,1:3|0:0,0:0:0:0:
252,288,78729,2,0,L|175:290,1,47.5,2|0,1:2|0:0,0:0:0:0:
453,352,78864,6,0,L|485:353,8,23.75,2|0|0|0|2|0|0|0|2,1:2|1:0|1:2|1:0|1:2|1:0|1:2|1:0|1:2,1:0:0:0:
20,74,79405,6,0,L|197:58,1,142.5,12|0,1:2|0:0,0:0:0:0:
211,62,79675,1,2,0:0:0:0:
85,164,79810,1,2,1:2:0:0:
318,160,79945,2,0,P|334:221|251:248,1,142.5,10|0,1:2|0:0,0:0:0:0:
225,265,80216,1,2,1:2:0:0:
353,313,80351,1,2,1:2:0:0:
127,362,80486,2,0,L|224:363,1,95,10|2,1:2|0:0,0:0:0:0:
450,348,80756,6,0,L|458:178,1,142.5,2|0,1:2|0:0,0:0:0:0:
269,197,81026,2,0,L|257:98,1,95,10|0,1:2|0:0,0:0:0:0:
392,116,81297,2,0,L|399:17,1,95,2|2,0:0|1:2,0:0:0:0:
161,84,81567,2,0,L|312:108,1,142.5,10|0,1:2|0:0,0:0:0:0:
126,225,81837,2,0,L|17:223,1,95,2|10,1:2|1:2,0:0:0:0:
167,312,82108,2,0,L|47:311,1,95,10|2,1:2|0:0,0:0:0:0:
308,367,82378,6,0,L|312:258,1,95,2|0,1:2|0:0,0:0:0:0:
72,311,82648,2,0,L|64:207,1,95,10|0,1:2|0:0,0:0:0:0:
301,138,82918,2,0,L|248:116,1,47.5,2|2,1:2|1:3,0:0:0:0:
203,115,83053,1,2,1:3:0:0:
454,59,83189,6,0,P|482:116|418:159,1,142.5,10|0,1:2|0:0,0:0:0:0:
252,202,83459,2,0,L|235:278,1,47.5,2|0,1:2|0:0,0:0:0:0:
306,260,83594,2,0,L|316:317,1,47.5,2|0,1:2|0:0,0:0:0:0:
139,345,83729,2,0,L|11:346,1,95,10|2,1:2|0:0,0:0:0:0:
289,346,83999,6,0,P|302:286|233:249,1,142.5,6|0,1:2|0:0,0:0:0:0:
49,225,84270,2,0,L|31:120,1,95,10|0,1:2|0:0,0:0:0:0:
163,127,84540,2,0,L|170:18,1,95,2|0,0:0|1:2,0:0:0:0:
396,16,84810,5,10,1:2:0:0:
350,16,84877,1,0,0:0:0:0:
327,55,84945,1,0,0:0:0:0:
350,95,85012,1,2,0:0:0:0:
395,98,85081,2,0,L|501:95,1,95,2|10,1:2|1:2,0:0:0:0:
263,184,85351,1,10,1:2:0:0:
489,95,85486,1,2,0:0:0:0:
256,294,85621,6,0,L|132:287,1,95,6|0,1:2|0:0,0:0:0:0:
396,229,85891,1,10,1:2:0:0:
265,193,86026,2,0,L|239:147,2,47.5,0|2|2,0:0|0:0|0:0,0:0:0:0:
492,248,86297,1,2,1:2:0:0:
215,315,86432,6,0,L|126:312,3,47.5,10|2|2|2,1:2|0:0|0:0|0:0,0:0:0:0:
113,318,86702,1,2,1:2:0:0:
89,278,86769,1,2,0:0:0:0:
105,236,86837,1,2,0:0:0:0:
149,223,86904,1,2,0:0:0:0:
353,124,86972,2,0,L|229:123,1,95,10|2,1:2|0:0,0:0:0:0:
17,37,87243,6,0,L|210:28,1,190,6|10,1:2|1:2,0:0:0:0:
97,64,87648,1,2,0:0:0:0:
323,160,87783,2,0,L|457:161,1,95,2|2,0:0|1:2,0:0:0:0:
180,309,88053,6,0,P|151:244|238:194,1,190,10|0,1:2|1:0,0:0:0:0:
351,189,88459,1,0,1:0:0:0:
127,140,88594,2,0,L|9:144,1,95,10|0,1:2|0:0,0:0:0:0:
274,346,88864,6,0,P|299:269|241:247,1,142.5,2|0,1:2|0:0,0:0:0:0:
60,261,89135,2,0,L|36:148,1,95,10|0,1:2|0:0,0:0:0:0:
175,148,89405,1,2,0:0:0:0:
176,100,89472,1,2,0:0:0:0:
178,53,89540,1,2,1:2:0:0:
431,27,89675,5,10,1:2:0:0:
315,72,89810,1,0,1:0:0:0:
183,92,89945,1,8,1:2:0:0:
436,188,90081,1,0,1:0:0:0:
177,288,90216,1,0,1:0:0:0:
148,252,90283,1,0,1:0:0:0:
159,208,90351,1,0,1:0:0:0:
202,191,90418,1,0,1:0:0:0:
420,282,90486,6,0,P|446:228|326:178,1,190,6|10,1:2|1:2,0:0:0:0:
245,165,90891,1,0,0:0:0:0:
378,81,91026,2,0,L|499:69,1,95,2|2,0:0|1:2,0:0:0:0:
254,304,91297,6,0,P|200:288|201:210,1,142.5,10|0,1:2|0:0,0:0:0:0:
388,166,91567,2,0,L|503:155,1,95,2|0,1:2|1:0,0:0:0:0:
260,103,91837,1,10,1:2:0:0:
378,81,91972,1,2,0:0:0:0:
157,319,92108,6,0,P|99:291|155:208,1,190,2|10,1:2|1:2,0:0:0:0:
282,179,92513,2,0,L|310:131,2,47.5,0|2|2,0:0|0:0|0:0,0:0:0:0:
152,207,92783,1,0,1:2:0:0:
396,315,92918,6,0,P|414:248|346:215,1,142.5,10|0,1:2|0:0,0:0:0:0:
168,130,93189,2,0,L|64:129,1,95,2|2,1:2|0:0,0:0:0:0:
299,41,93459,2,0,L|416:34,1,95,10|2,1:2|0:0,0:0:0:0:
157,311,93729,6,0,L|145:207,1,95,2|0,1:2|0:0,0:0:0:0:
392,180,93999,2,0,L|256:166,1,95,10|2,1:2|0:0,0:0:0:0:
429,113,94270,2,0,L|440:235,1,95,2|0,0:0|1:0,0:0:0:0:
194,325,94540,6,0,L|376:309,1,142.5,10|0,1:2|0:0,0:0:0:0:
153,239,94810,2,0,L|27:233,1,95,2|2,1:2|1:2,0:0:0:0:
293,177,95081,1,10,1:2:0:0:
53,159,95216,1,2,1:2:0:0:
292,100,95351,6,0,L|457:84,1,142.5,4|0,1:0|0:0,0:0:0:0:
225,47,95621,2,0,L|40:44,1,142.5,4|0,1:0|0:0,0:0:0:0:
300,202,95891,2,0,L|455:208,1,142.5,4|0,1:0|0:0,0:0:0:0:
211,314,96162,6,0,L|96:320,1,95,0|0,1:0|1:0,0:0:0:0:
354,360,96432,1,2,1:2:0:0:
370,316,96499,1,2,0:0:0:0:
349,275,96567,1,2,1:2:0:0:
305,263,96634,1,2,0:0:0:0:
105,212,96702,2,0,L|28:208,1,47.5,2|0,1:2|1:0,0:0:0:0:
270,126,96837,2,0,L|341:117,1,47.5,2|0,1:2|1:0,0:0:0:0:
100,96,96972,6,0,L|-3:83,1,95,6|0,1:2|0:0,0:0:0:0:
145,32,97243,2,0,L|152:148,1,95,0|0,1:0|0:0,0:0:0:0:
392,238,97513,2,0,L|286:249,1,95,0|0,1:0|0:0,0:0:0:0:
37,338,97783,6,0,P|73:282|154:264,1,142.5,4|0,1:0|0:0,0:0:0:0:
195,266,98053,1,2,1:2:0:0:
71,215,98189,1,2,0:0:0:0:
311,160,98324,1,2,1:2:0:0:
435,143,98459,1,2,0:0:0:0:
170,149,98594,6,0,L|154:18,1,95,2|0,1:2|1:0,0:0:0:0:
295,136,98864,2,0,L|304:15,1,95,2|0,1:2|1:0,0:0:0:0:
63,267,99135,2,0,L|172:266,1,95,2|0,1:2|1:0,0:0:0:0:
418,329,99405,5,2,1:2:0:0:
370,332,99472,1,2,1:2:0:0:
323,335,99540,1,2,1:2:0:0:
275,339,99607,1,2,1:2:0:0:
473,262,99675,2,0,L|483:188,1,47.5,2|2,1:2|1:2,0:0:0:0:
271,202,99810,2,0,L|256:130,1,47.5,2|2,1:2|1:2,0:0:0:0:
475,119,99945,5,2,1:2:0:0:
493,77,100012,1,2,1:2:0:0:
472,36,100080,1,2,1:2:0:0:
428,26,100147,1,2,1:2:0:0:
194,47,100216,6,0,P|176:106|270:138,1,142.5,6|0,1:2|0:0,0:0:0:0:
286,152,100486,1,2,1:2:0:0:
56,231,100621,2,0,L|-14:229,2,47.5,0|0|0,1:0|1:0|1:0,0:0:0:0:
298,279,100891,1,0,1:0:0:0:
43,363,101026,6,0,L|205:324,1,142.5,4|0,1:0|0:0,0:0:0:0:
235,323,101297,1,0,1:0:0:0:
100,278,101432,2,0,L|35:271,1,47.5,0|0,1:0|1:0,0:0:0:0:
265,196,101567,1,0,1:0:0:0:
148,177,101702,1,0,1:0:0:0:
395,101,101837,6,0,L|505:89,1,95,6|0,1:2|1:0,0:0:0:0:
351,173,102108,2,0,L|466:170,1,95,2|0,1:2|1:0,0:0:0:0:
495,177,102310,1,0,0:0:0:0:
284,298,102378,1,2,1:2:0:0:
239,289,102445,1,0,1:0:0:0:
219,248,102513,1,0,1:0:0:0:
240,207,102580,1,0,1:0:0:0:
450,92,102648,5,2,1:2:0:0:
471,132,102715,1,0,0:0:0:0:
451,173,102783,1,0,1:0:0:0:
406,182,102850,1,0,0:0:0:0:
198,114,102918,2,0,L|125:111,2,47.5,2|0|2,1:3|0:0|1:3,0:0:0:0:
336,44,103189,2,0,L|256:38,1,47.5,0|0,1:0|1:0,0:0:0:0:
89,255,103324,2,0,L|168:266,1,47.5,0|0,1:0|1:0,0:0:0:0:
355,336,103459,6,0,L|178:348,1,142.5,6|0,1:2|0:0,0:0:0:0:
396,372,103729,1,0,1:0:0:0:
134,360,103864,2,0,L|117:328,4,23.75,0|0|0|0|0,1:0|0:0|1:0|0:0|1:0,0:0:0:0:
275,370,104135,1,0,1:0:0:0:
18,191,104270,6,0,L|178:165,1,142.5,6|0,1:2|0:0,0:0:0:0:
381,154,104540,1,2,1:2:0:0:
117,153,104675,1,0,1:0:0:0:
96,143,104708,1,0,1:0:0:0:
88,121,104742,1,0,1:0:0:0:
98,100,104776,1,0,0:0:0:0:
120,92,104810,1,0,1:0:0:0:
235,70,104945,1,0,1:0:0:0:
488,301,105081,5,6,1:2:0:0:
458,264,105148,1,0,1:0:0:0:
416,242,105216,1,0,1:0:0:0:
369,238,105283,1,0,1:0:0:0:
184,235,105351,1,2,1:2:0:0:
216,198,105418,1,0,1:0:0:0:
262,176,105486,1,0,1:0:0:0:
314,172,105553,1,0,1:0:0:0:
118,111,105621,2,0,L|39:101,1,47.5,2|0,1:2|1:0,0:0:0:0:
280,53,105756,2,0,L|344:49,1,47.5,0|0,1:0|1:0,0:0:0:0:
118,141,105891,6,0,L|105:211,1,47.5,2|0,1:2|0:0,0:0:0:0:
314,200,106026,2,0,L|327:258,1,47.5,0|0,1:0|1:0,0:0:0:0:
114,308,106162,2,0,L|67:286,1,47.5,0|0,1:0|0:0,0:0:0:0:
293,299,106297,1,0,1:0:0:0:
315,293,106330,1,0,1:0:0:0:
338,287,106364,1,0,1:0:0:0:
101,355,106432,2,0,L|24:362,1,47.5,0|0,1:0|0:0,0:0:0:0:
317,358,106567,1,0,1:0:0:0:
340,358,106600,1,0,1:0:0:0:
364,359,106634,1,0,1:0:0:0:
101,355,106702,6,0,P|52:338|133:178,1,285.000010871888,6|0,1:2|0:0,0:0:0:0:
319,103,107513,2,0,L|149:93,2,142.500005435944,2|0|0,0:0|0:0|0:0,0:0:0:0:
99,279,108324,6,0,L|89:120,1,142.500005435944,2|0,0:0|0:0,0:0:0:0:
184,102,108729,1,0,0:0:0:0:
305,73,108864,2,0,L|254:66,1,35.625001358986
227,62,108999,2,0,L|176:60,1,35.625001358986,2|2,0:0|0:0,0:0:0:0:
394,139,109135,5,2,0:0:0:0:
274,172,109270,1,0,0:0:0:0:
270,219,109337,1,0,0:0:0:0:
266,266,109405,1,0,0:0:0:0:
392,234,109540,2,0,L|398:337,1,95
278,357,109810,2,0,L|341:359,1,47.5
139,325,109945,6,0,L|28:312,1,95,2|0,0:0|0:0,0:0:0:0:
183,257,110216,2,0,L|184:151,1,95,2|0,0:0|0:0,0:0:0:0:
326,149,110486,2,0,L|330:44,1,95,2|0,0:0|0:0,0:0:0:0:
273,43,110689,1,0,0:0:0:0:
62,110,110756,6,0,L|51:226,1,95,2|0,0:0|0:0,0:0:0:0:
189,233,111026,2,0,L|191:259,1,23.75,2|2,0:0|0:0,0:0:0:0:
408,339,111297,2,0,L|282:356,1,95,2|0,0:0|0:0,0:0:0:0:
262,352,111499,1,2,0:0:0:0:
464,264,111567,6,0,L|357:254,1,95,2|0,0:0|0:0,0:0:0:0:
494,149,111837,1,0,0:0:0:0:
364,107,111972,1,2,0:3:0:0:
311,118,112040,1,2,0:3:0:0:
290,159,112107,1,2,0:3:0:0:
315,200,112174,1,2,0:3:0:0:
368,207,112242,1,2,0:3:0:0:
430,208,112310,1,2,0:3:0:0:
193,291,112378,6,0,L|19:274,1,142.5,4|0,1:2|0:0,0:0:0:0:
274,210,112648,1,0,1:0:0:0:
395,189,112783,1,0,0:0:0:0:
141,133,112918,1,4,1:0:0:0:
393,105,113053,1,0,0:0:0:0:
131,260,113189,5,6,1:2:0:0:
79,185,113324,1,0,0:0:0:0:
117,102,113459,1,10,1:2:0:0:
208,94,113594,1,0,0:0:0:0:
72,44,113729,1,2,1:2:0:0:
215,20,113864,2,0,L|278:11,1,47.5,2|2,0:0|0:0,0:0:0:0:
57,137,113999,6,0,L|48:246,1,95,2|0,1:2|0:0,0:0:0:0:
186,204,114270,2,0,L|196:315,1,95,10|0,1:2|0:0,0:0:0:0:
52,361,114540,2,0,L|185:362,1,95,10|0,1:2|0:0,0:0:0:0:
201,368,114743,1,2,0:0:0:0:
409,343,114810,6,0,L|419:234,1,95,2|0,1:2|0:0,0:0:0:0:
278,242,115081,2,0,L|271:133,1,95,10|0,1:2|0:0,0:0:0:0:
414,147,115351,1,2,1:2:0:0:
436,107,115418,1,0,0:0:0:0:
418,65,115486,1,2,0:0:0:0:
373,56,115553,1,2,0:0:0:0:
172,73,115621,5,2,1:2:0:0:
294,131,115756,2,0,L|318:177,2,47.5,0|0|10,0:0|0:0|1:2,0:0:0:0:
162,150,116026,1,0,0:0:0:0:
408,304,116162,2,0,L|286:311,1,95,10|0,1:2|0:0,0:0:0:0:
260,310,116364,1,0,1:0:0:0:
44,318,116432,6,0,L|32:204,1,95,4|0,1:0|0:0,0:0:0:0:
169,211,116702,2,0,L|177:104,1,95,10|0,1:2|0:0,0:0:0:0:
316,78,116972,1,2,1:2:0:0:
177,37,117108,2,0,L|102:32,1,47.5,0|2,0:0|1:2,0:0:0:0:
345,324,117243,5,6,1:2:0:0:
397,249,117378,1,0,0:0:0:0:
359,166,117513,1,10,1:2:0:0:
268,158,117648,1,0,0:0:0:0:
404,108,117783,1,10,1:2:0:0:
261,84,117918,2,0,L|198:75,1,47.5,0|0,1:0|1:0,0:0:0:0:
434,184,118053,6,0,L|444:288,1,95,6|0,1:2|0:0,0:0:0:0:
306,217,118324,2,0,L|301:324,1,95,10|0,1:2|0:0,0:0:0:0:
164,352,118594,1,2,1:2:0:0:
211,347,118661,1,2,0:3:0:0:
258,343,118729,1,2,0:3:0:0:
305,338,118796,1,2,0:0:0:0:
112,207,118864,6,0,L|9:198,1,95,2|2,1:2|3:0,0:0:0:0:
277,82,119135,1,4,1:0:0:0:
296,125,119202,1,0,1:0:0:0:
273,166,119270,1,0,1:0:0:0:
224,179,119337,1,0,1:0:0:0:
430,237,119405,2,0,L|459:234,2,23.75,0|0|0,1:0|1:0|1:0,0:0:0:0:
217,264,119540,2,0,L|188:261,2,23.75,0|0|0,1:0|1:0|1:0,0:0:0:0:
457,321,119675,5,4,1:0:0:0:
488,234,119810,1,0,1:0:0:0:
439,156,119945,1,8,1:2:0:0:
348,146,120080,1,0,1:0:0:0:
106,60,120216,2,0,L|179:52,1,47.5,4|0,1:0|1:0,0:0:0:0:
357,36,120351,2,0,L|289:35,1,47.5,0|0,1:0|1:0,0:0:0:0:
97,73,120486,5,4,1:0:0:0:
66,160,120621,1,0,1:0:0:0:
115,238,120756,1,8,1:2:0:0:
206,248,120891,1,0,1:0:0:0:
448,334,121027,2,0,L|375:342,1,47.5,4|0,1:0|1:0,0:0:0:0:
196,355,121162,2,0,L|264:356,1,47.5,0|0,1:0|1:0,0:0:0:0:
463,271,121297,5,4,1:0:0:0:
479,228,121364,1,0,1:0:0:0:
456,188,121432,1,0,1:0:0:0:
411,181,121499,1,0,1:0:0:0:
341,174,121567,2,0,L|332:94,1,47.5,2|0,1:2|1:0,0:0:0:0:
412,111,121702,2,0,L|423:31,1,47.5,0|0,1:0|1:0,0:0:0:0:
221,139,121837,2,0,L|207:75,1,47.5,2|0,1:2|1:0,0:0:0:0:
282,71,121972,2,0,L|217:61,1,47.5,0|0,1:0|1:0,0:0:0:0:
38,69,122108,5,0,1:0:0:0:
256,56,122243,1,0,1:0:0:0:
280,57,122276,1,0,1:0:0:0:
304,59,122310,1,0,1:0:0:0:
112,166,122378,5,8,1:0:0:0:
330,140,122513,1,0,1:0:0:0:
354,141,122546,1,0,1:0:0:0:
378,143,122580,1,0,1:0:0:0:
161,353,122648,6,0,P|127:296|203:262,1,142.5,8|0,1:1|1:0,0:0:0:0:
382,238,122918,5,6,1:2:0:0:
467,219,123008,1,2,0:0:0:0:
382,238,123099,1,2,0:0:0:0:
160,138,123189,5,6,1:2:0:0:
243,124,123279,1,2,0:0:0:0:
160,138,123370,1,2,0:0:0:0:
379,68,123459,5,6,1:2:0:0:
300,51,123549,1,2,0:0:0:0:
379,68,123640,1,2,0:0:0:0:
153,233,123729,5,6,1:2:0:0:
77,219,123819,1,2,0:0:0:0:
153,233,123910,1,2,0:0:0:0:
362,266,123999,5,6,1:2:0:0:
291,308,124090,1,2,0:0:0:0:
207,319,124180,1,2,0:0:0:0:
424,164,124270,5,6,1:2:0:0:
496,154,124360,1,2,0:0:0:0:
424,164,124451,1,2,0:0:0:0:
174,195,124540,5,6,1:2:0:0:
303,158,124675,2,0,L|328:111,2,47.5,2|0|8,0:0|0:0|1:2,0:0:0:0:
163,107,124945,2,0,L|266:57,1,95,2|8,0:0|1:2,0:0:0:0:
379,57,125216,1,2,0:0:0:0:
131,33,125351,6,0,L|250:37,1,95,0|2,1:2|0:0,0:0:0:0:
89,105,125621,2,0,L|81:229,1,95,8|2,1:2|0:0,0:0:0:0:
224,256,125891,2,0,L|110:270,1,95,10|0,1:2|0:0,0:0:0:0:
377,361,126162,6,0,L|384:254,1,95,2|0,1:2|0:0,0:0:0:0:
240,223,126432,2,0,L|352:208,1,95,10|2,1:2|0:0,0:0:0:0:
190,163,126702,2,0,L|185:62,1,95,10|2,1:2|3:0,0:0:0:0:
430,39,126972,5,0,1:0:0:0:
295,76,127108,2,0,L|271:130,2,47.5,2|0|8,3:2|3:0|1:2,0:0:0:0:
430,118,127378,1,2,3:2:0:0:
306,214,127513,1,0,1:0:0:0:
166,273,127648,2,0,L|241:283,1,47.5,0|0,0:0|1:0,0:0:0:0:
430,358,127783,5,4,1:0:0:0:
475,279,127918,1,0,0:0:0:0:
433,198,128053,1,10,1:2:0:0:
342,191,128188,1,2,0:0:0:0:
475,121,128324,1,2,1:2:0:0:
336,94,128459,2,0,L|261:98,1,47.5,2|2,1:2|1:2,1:2:0:0:
72,322,128594,6,0,L|53:202,1,95,6|2,1:2|0:0,0:0:0:0:
181,224,128864,2,0,L|186:118,1,95,10|0,1:2|0:0,0:0:0:0:
321,80,129135,1,10,1:2:0:0:
173,56,129270,2,0,L|240:49,1,47.5,2|0,1:2|1:2,1:2:0:0:
441,149,129405,6,0,P|395:194|266:202,1,190,4|8,1:0|1:2,0:0:0:0:
400,268,129810,1,0,0:0:0:0:
272,327,129945,1,2,1:2:0:0:
224,323,130012,1,0,0:0:0:0:
177,319,130080,1,2,0:0:0:0:
129,315,130147,1,0,0:0:0:0:
312,365,130216,2,0,P|333:289|277:232,1,142.5,0|0,1:0|0:0,0:0:0:0:
92,197,130486,6,0,L|27:192,1,47.5,4|0,1:0|1:0,0:0:0:0:
252,134,130621,2,0,L|331:120,1,47.5,0|0,1:0|1:0,0:0:0:0:
113,79,130756,2,0,L|71:76,2,23.75,0|0|0,1:0|1:0|1:0,0:0:0:0:
317,45,130891,2,0,L|359:42,2,23.75,0|0|0,1:0|1:0|1:0,0:0:0:0:
106,154,131026,6,0,L|-1:145,1,95,6|2,1:2|0:0,0:0:0:0:
145,90,131297,2,0,L|157:197,1,95,10|2,1:2|0:0,0:0:0:0:
296,257,131567,2,0,L|183:260,1,95,2|2,1:2|0:0,0:0:0:0:
444,349,131837,6,0,L|455:241,1,95,2|0,1:2|0:0,0:0:0:0:
316,213,132108,2,0,L|306:108,1,95,10|0,1:2|0:0,0:0:0:0:
165,47,132378,2,0,L|277:38,1,95,10|0,1:2|0:0,0:0:0:0:
21,95,132648,6,0,L|185:127,1,142.5,6|0,1:2|0:0,0:0:0:0:
217,119,132918,1,10,1:2:0:0:
83,215,133053,2,0,L|157:218,1,47.5,2|0,0:0|0:0,0:0:0:0:
341,292,133189,2,0,L|174:311,1,142.5,4|0,1:2|0:0,0:0:0:0:
425,363,133459,5,2,1:2:0:0:
463,279,133594,1,0,1:0:0:0:
418,200,133729,1,2,1:2:0:0:
327,190,133864,1,0,1:0:0:0:
463,124,133999,1,2,1:2:0:0:
218,89,134135,2,0,L|159:85,1,47.5,2|0,1:2|1:0,0:0:0:0:
395,40,134270,6,0,P|426:95|316:160,1,190,4|8,1:0|1:2,0:0:0:0:
223,182,134675,1,2,0:0:0:0:
345,217,134810,1,2,1:2:0:0:
475,260,134945,2,0,L|401:271,1,47.5,0|0,0:0|1:0,0:0:0:0:
217,359,135081,6,0,L|322:346,1,95,6|2,1:2|0:0,0:0:0:0:
173,285,135351,2,0,L|54:279,1,95,10|2,1:2|0:0,0:0:0:0:
214,217,135621,1,2,1:2:0:0:
77,186,135756,2,0,L|138:179,1,47.5,0|0,0:0|1:0,0:0:0:0:
327,70,135891,6,0,L|112:58,1,190,6|2,1:2|0:3,0:0:0:0:
132,166,136297,1,0,0:0:0:0:
276,183,136432,2,0,L|288:246,1,47.5,0|0,1:0|1:0,0:0:0:0:
214,236,136567,2,0,L|204:299,1,47.5,0|0,1:0|1:0,0:0:0:0:
389,352,136702,5,0,1:0:0:0:
433,340,136769,1,0,0:0:0:0:
450,298,136837,1,0,1:0:0:0:
426,259,136904,1,0,1:0:0:0:
234,194,136972,6,0,L|163:188,1,47.5,0|0,1:0|0:0,0:0:0:0:
243,169,137108,1,0,1:0:0:0:
266,167,137141,1,0,1:0:0:0:
290,165,137175,1,0,1:0:0:0:
90,117,137243,2,0,L|21:116,1,47.5,8|0,1:0|0:0,0:0:0:0:
249,74,137378,1,0,1:0:0:0:
272,72,137411,1,0,1:0:0:0:
296,70,137445,1,0,1:0:0:0:
81,322,137513,6,0,P|44:251|134:197,1,190,6|8,1:2|1:2,0:0:0:0:
233,180,137918,1,2,0:0:0:0:
11,66,138053,2,0,L|123:58,1,95,2|2,1:2|0:0,0:0:0:0:
337,94,138324,6,0,L|218:111,1,95,2|2,1:2|0:0,0:0:0:0:
383,172,138594,2,0,L|390:274,1,95,8|0,1:2|0:0,0:0:0:0:
242,236,138864,2,0,L|235:355,1,95,8|0,1:2|1:0,0:0:0:0:
473,89,139135,6,0,L|368:50,1,95,2|0,1:2|0:0,0:0:0:0:
264,48,139405,1,10,1:2:0:0:
131,138,139540,2,0,L|185:165,1,47.5,2|2,0:0|0:0,0:0:0:0:
228,166,139675,1,2,1:2:0:0:
95,226,139810,1,2,0:0:0:0:
327,288,139945,6,0,L|359:333,2,47.5,0|0|2,1:0|0:0|0:0,0:0:0:0:
187,233,140216,2,0,L|312:220,1,95,8|2,1:2|0:0,0:0:0:0:
158,343,140486,1,8,1:2:0:0:
26,294,140621,2,0,L|88:289,1,47.5,0|0,1:0|1:0,0:0:0:0:
274,248,140756,6,0,L|397:233,1,95,6|2,1:2|0:0,0:0:0:0:
232,186,141026,2,0,L|226:79,1,95,10|0,1:2|0:0,0:0:0:0:
463,40,141297,2,0,L|468:166,1,95,2|0,1:2|0:0,0:0:0:0:
412,151,141499,1,0,1:0:0:0:
209,217,141567,5,4,1:0:0:0:
330,283,141702,2,0,P|359:221|267:153,1,190,2|0,0:0|0:0,0:0:0:0:
142,126,142108,1,10,1:2:0:0:
281,152,142243,2,0,L|354:140,1,47.5,0|0,1:0|1:0,0:0:0:0:
131,325,142378,6,0,P|106:256|175:229,1,142.5,6|0,1:2|0:0,0:0:0:0:
209,217,142648,1,10,1:2:0:0:
74,208,142783,1,2,0:0:0:0:
33,185,142850,1,2,0:3:0:0:
17,142,142918,1,8,1:2:0:0:
34,99,142985,1,2,0:3:0:0:
75,78,143053,1,2,0:3:0:0:
210,73,143189,1,0,1:0:0:0:
75,78,143324,1,0,0:0:0:0:
319,150,143459,5,6,1:2:0:0:
294,190,143526,1,0,1:0:0:0:
253,212,143594,1,0,1:0:0:0:
206,211,143661,1,0,1:0:0:0:
402,287,143729,2,0,L|438:288,2,23.75,2|0|0,1:2|1:0|1:0,0:0:0:0:
189,331,143864,2,0,L|153:332,2,23.75,0|0|0,1:0|1:0|1:0,0:0:0:0:
404,333,143999,6,0,L|503:326,1,95,6|2,1:2|0:0,0:0:0:0:
273,315,144270,2,0,P|234:252|331:199,1,190,10|2,1:2|1:2,0:0:0:0:
432,195,144675,1,0,0:0:0:0:
197,203,144810,6,0,L|175:82,1,95,2|0,1:2|0:0,0:0:0:0:
317,60,145081,2,0,L|202:50,1,95,10|0,1:2|0:0,0:0:0:0:
359,33,145351,2,0,L|368:156,1,95,10|0,1:2|0:0,0:0:0:0:
120,186,145621,6,0,P|172:221|279:220,1,142.5,6|0,1:2|0:0,0:0:0:0:
303,221,145891,1,10,1:2:0:0:
169,305,146026,2,0,L|143:263,2,47.5,2|2|2,0:0|0:0|1:2,0:0:0:0:
305,344,146297,1,0,0:0:0:0:
60,365,146432,5,6,1:2:0:0:
15,285,146567,1,0,1:0:0:0:
56,203,146702,1,2,1:2:0:0:
147,191,146837,1,2,1:2:0:0:
374,100,146972,1,2,1:2:0:0:
141,85,147108,2,0,L|74:86,1,47.5,2|2,1:2|1:2,0:0:0:0:
310,71,147243,6,0,P|332:137|228:205,1,190,6|0,1:2|1:0,0:0:0:0:
176,226,147603,1,0,1:0:0:0:
254,248,147693,1,0,1:0:0:0:
448,157,147783,1,4,1:0:0:0:
214,248,147918,1,2,0:0:0:0:
448,157,148053,6,0,L|339:148,1,95,4|0,1:0|0:0,0:0:0:0:
231,82,148324,1,0,1:0:0:0:
308,66,148414,1,0,1:0:0:0:
231,82,148504,1,0,1:0:0:0:
459,52,148594,2,0,P|489:114|419:184,1,126.666666666667,4|0,1:0|0:0,0:0:0:0:
242,220,148864,5,4,1:2:0:0:
165,204,148954,1,0,1:0:0:0:
242,220,149044,1,0,1:0:0:0:
41,295,149135,2,0,L|105:321,1,63.3333333333333,0|0,1:0|1:0,0:0:0:0:
295,289,149315,1,0,1:0:0:0:
99,318,149405,2,0,L|59:255,2,63.3333333333333,0|0|0,1:0|1:0|1:0,0:0:0:0:
379,344,149675,6,0,L|400:239,3,95,2|0|2|0,2:0|2:0|2:0|2:0,2:0:0:0:
263,204,150216,1,2,0:0:0:0:
400,148,150351,1,2,0:0:0:0:
139,110,150486,5,6,1:2:0:0:
403,53,150621,2,0,P|437:104|357:171,1,142.5,4|0,1:2|0:0,0:0:0:0:
205,264,150891,2,0,L|127:271,1,47.5,4|0,1:2|0:0,0:0:0:0:
366,338,151026,2,0,P|382:282|296:242,1,142.5,4|0,1:2|0:0,0:0:0:0:
97,202,151297,5,4,1:2:0:0:
73,207,151331,2,0,P|49:165|112:95,1,154.375
130,96,151567,6,0,B|435:138|435:138|141:139,1,578.906266562641,4|0,1:2|0:0,0:0:0:0:
146,140,151837,6,0,B|109:219|109:219|150:269,1,142.5,4|0,1:2|0:0,0:0:0:0:
403,325,152108,5,4,1:2:0:0:
145,364,152243,2,0,L|124:333,4,23.75,0|0|0|0|0,1:0|1:0|1:0|1:0|1:0,1:0:0:0:
393,206,152513,2,0,L|312:199,1,47.5,4|0,1:2|0:0,0:0:0:0:
141,162,152648,6,0,L|117:113,3,47.5,2|2|2|0,1:2|0:0|0:0|0:0,0:0:0:0:
348,53,152918,6,0,L|517:68,1,142.5,4|0,1:0|0:0,0:0:0:0:
441,98,153189,1,0,1:0:0:0:
308,128,153324,1,0,1:0:0:0:
441,124,153459,1,0,1:0:0:0:
197,213,153594,1,0,1:0:0:0:
443,317,153729,6,0,B|196:313|196:313|256:187,1,370.499983039857,6|0,1:2|0:0,0:0:0:0:
301,201,153999,6,0,B|46:129|46:129|122:19,1,398.999987823487,6|0,1:2|0:0,0:0:0:0:
174,17,154270,6,0,B|427:152|427:152|292:110,1,427.500016307831,6|0,1:2|0:0,0:0:0:0:
239,109,154540,6,0,B|487:261|487:261|326:236,1,441.750003370285,6|0,1:2|0:0,0:0:0:0:
284,236,154810,6,0,B|37:63|37:63|188:99,1,456,6|0,1:2|0:0,0:0:0:0:
239,97,155081,6,0,B|9:306|9:306|178:308,1,463.125013250113,6|0,1:2|0:0,0:0:0:0:
391,346,155351,6,0,P|431:269|326:218,1,188.099999425964,6|0,1:2|0:0,0:0:0:0:
164,184,155621,6,0,L|69:171,1,56.9999982604981,4|0,1:0|1:0,0:0:0:0:
314,103,155756,2,0,L|415:91,1,56.9999982604981,0|0,1:0|1:0,0:0:0:0:
149,75,155891,2,0,L|114:74,2,28.4999991302491,4|0|0,1:0|1:0|1:0,0:0:0:0:
369,57,156026,2,0,L|404:56,2,28.4999991302491,0|0|0,1:0|1:0|1:0,0:0:0:0:
139,84,156162,6,0,P|107:132|192:198,1,163.875003125668,4|0,1:0|0:0,0:0:0:0:
223,212,156432,1,0,1:0:0:0:
280,216,156499,1,0,1:0:0:0:
342,218,156567,1,0,1:0:0:0:
278,242,156635,1,0,1:0:0:0:
58,288,156702,6,0,L|17:279,2,27.3125005209446,0|0|0,1:0|1:0|1:0,0:0:0:0:
187,325,156803,1,0,1:0:0:0:
330,333,156837,2,0,L|370:331,2,27.3125005209446,0|0|0,1:0|1:0|1:0,0:0:0:0:
187,325,156939,1,0,1:0:0:0:
45,266,156972,5,6,3:2:0:0:
45,266,157243,1,10,0:0:0:0:
45,266,157513,1,10,0:0:0:0:
391,55,157783,6,0,L|159:39,2,190,10|10|10,0:0|0:0|0:0,0:0:0:0:
292,125,158459,2,0,L|225:123,1,47.5,0|0,1:0|1:0,0:0:0:0:
38,310,158594,6,0,L|271:301,2,190,10|10|10,0:0|0:0|0:0,0:0:0:0:
488,236,159405,5,10,0:0:0:0:
488,236,159675,1,10,0:0:0:0:
488,236,159945,1,10,0:0:0:0:
358,156,160081,2,0,L|425:150,1,47.5,0|0,1:0|1:0,0:0:0:0:
196,98,160216,6,0,L|75:77,1,95,14|8,1:2|0:0,0:0:0:0:
240,208,160486,2,0,L|354:197,1,95,10|8,0:0|0:0,0:0:0:0:
199,302,160756,1,10,0:0:0:0:
337,200,160891,2,0,L|274:200,1,47.5,0|0,1:0|1:0,0:0:0:0:
73,200,161026,5,6,1:2:0:0:
256,192,161162,12,0,162513,0:0:0:0:
258,21,162648,6,0,P|334:47|239:376,1,522.5,4|0,0:0|0:0,0:0:0:0:
18,308,163459,5,4,1:2:0:0:
256,192,166702,12,2,168189,0:0:0:0:
460,356,168324,6,0,L|475:178,1,142.5,6|0,1:2|0:0,0:0:0:0:
256,206,168594,2,0,L|253:38,1,142.5,6|0,1:2|0:0,0:0:0:0:
35,26,168864,2,0,L|27:188,1,142.5,6|0,1:2|0:0,0:0:0:0:
237,222,169135,6,0,L|307:222,1,47.5,4|0,1:2|1:0,0:0:0:0:
74,328,169270,1,0,1:0:0:0:
50,329,169303,1,0,1:0:0:0:
25,331,169337,1,0,1:0:0:0:
243,357,169405,2,0,L|250:288,1,47.5,2|2,1:2|1:2,0:0:0:0:
35,251,169540,2,0,L|26:217,2,23.75,2|0|2,1:2|1:0|1:2,0:0:0:0:
252,191,169675,6,0,L|316:182,1,47.5,8|2,1:1|1:2,0:0:0:0:
88,105,169810,1,2,1:2:0:0:
111,102,169843,1,0,1:0:0:0:
135,100,169877,1,2,1:2:0:0:
384,170,169945,6,0,L|469:157,2,75.9999976806641,6|2|2,1:2|0:0|0:0,0:0:0:0:
292,222,170216,2,0,L|415:231,2,75.9999976806641,10|2|2,1:2|0:0|0:0,0:0:0:0:
97,239,170486,2,0,L|146:150,1,75.9999976806641,2|2,0:0|0:0,0:0:0:0:
220,156,170666,1,2,0:0:0:0:
19,58,170756,2,0,L|96:9,1,75.9999976806641,10|2,1:2|0:0,0:0:0:0:
178,14,170936,1,2,0:0:0:0:
389,105,171026,6,0,L|304:92,2,75.9999976806641,2|2|2,1:2|0:0|0:0,0:0:0:0:
297,166,171297,2,0,L|174:175,2,75.9999976806641,10|2|2,1:2|0:0|0:0,0:0:0:0:
99,267,171567,2,0,L|186:268,2,75.9999976806641,6|2|2,1:2|0:0|0:0,0:0:0:0:
312,328,171837,2,0,L|398:326,2,75.9999976806641,10|2|2,1:2|0:0|0:0,0:0:0:0:
97,349,172108,6,0,L|172:292,1,75.9999976806641,2|2,0:0|0:0,0:0:0:0:
336,238,172288,1,2,0:0:0:0:
149,193,172378,2,0,L|46:193,2,75.9999976806641,10|2|2,1:2|0:0|0:0,0:0:0:0:
364,141,172648,2,0,L|291:98,1,75.9999976806641,2|2,1:2|0:0,0:0:0:0:
205,96,172828,1,2,0:0:0:0:
430,39,172918,2,0,L|325:28,1,75.9999976806641,10|2,1:2|0:0,0:0:0:0:
151,30,173099,1,2,0:0:0:0:
423,68,173189,6,0,P|472:126|395:174,1,163.875003125668,6|0,1:2|0:0,0:0:0:0:
359,181,173459,1,10,1:2:0:0:
487,233,173594,1,2,0:0:0:0:
248,299,173729,2,0,L|122:298,1,109.250002083778,2|0,0:0|1:0,0:0:0:0:
403,349,173999,6,0,L|234:253,1,163.875003125668,10|0,1:2|0:0,0:0:0:0:
199,264,174270,1,2,1:2:0:0:
343,229,174405,1,2,1:2:0:0:
89,214,174540,2,0,P|66:149|146:103,1,163.875003125668,10|2,1:2|0:0,0:0:0:0:
370,67,174810,6,0,P|313:125|208:116,1,163.875003125668,2|0,1:2|0:0,0:0:0:0:
454,155,175081,2,0,L|470:294,1,109.250002083778,10|0,1:2|0:0,0:0:0:0:
325,321,175351,2,0,L|440:332,1,109.250002083778,2|2,0:0|1:2,0:0:0:0:
201,326,175621,5,10,1:2:0:0:
68,316,175756,1,2,1:2:0:0:
318,227,175891,1,10,1:2:0:0:
183,213,176026,1,2,1:2:0:0:
414,136,176162,2,0,L|475:128,1,47.5,2|0,1:2|1:0,0:0:0:0:
255,77,176297,2,0,L|170:72,1,47.5,0|0,1:0|1:0,0:0:0:0:
430,40,176432,6,0,P|469:105|378:168,1,190,6|10,1:2|1:2,0:0:0:0:
280,189,176837,1,0,0:0:0:0:
157,215,176972,1,2,0:0:0:0:
280,189,177108,1,0,1:0:0:0:
50,254,177243,6,0,P|32:203|115:154,1,142.5,10|0,1:2|0:0,0:0:0:0:
139,139,177513,1,2,1:2:0:0:
259,115,177648,1,0,1:0:0:0:
139,139,177783,1,8,1:2:0:0:
259,115,177918,1,2,0:0:0:0:
487,299,178053,6,0,L|317:327,1,142.5,2|0,1:2|0:0,0:0:0:0:
135,348,178324,1,10,1:2:0:0:
251,327,178459,2,0,L|284:250,2,47.5,2|2|2,0:0|0:0|0:0,0:0:0:0:
135,348,178729,1,0,1:0:0:0:
375,215,178864,5,10,1:2:0:0:
450,206,178954,1,2,0:0:0:0:
375,215,179044,1,2,0:0:0:0:
161,146,179135,1,2,1:2:0:0:
230,106,179225,1,2,0:0:0:0:
312,100,179315,1,2,0:0:0:0:
93,59,179405,1,10,1:2:0:0:
18,50,179495,1,2,0:0:0:0:
93,59,179585,1,2,0:0:0:0:
330,165,179675,6,0,P|289:199|181:217,1,142.5,2|0,1:2|0:0,0:0:0:0:
150,224,179945,1,8,1:2:0:0:
279,269,180081,1,0,0:0:0:0:
41,304,180216,2,0,L|37:205,1,95,2|2,0:0|1:2,0:0:0:0:
285,114,180486,6,0,L|104:109,1,142.5,10|0,1:2|0:0,0:0:0:0:
336,37,180756,1,2,1:2:0:0:
461,27,180891,1,2,1:2:0:0:
226,208,181026,1,10,1:2:0:0:
471,238,181162,1,2,1:2:0:0:
199,351,181297,6,0,B|476:278|476:278|257:155,1,534.375020384789,4|0,1:2|0:0,0:0:0:0:
243,256,181567,6,0,B|497:190|497:190|290:75,1,489.843754671514,4|0,1:2|0:0,0:0:0:0:
282,164,181837,6,0,B|495:54|495:54|411:193,1,356.25,4|0,1:2|0:0,0:0:0:0:
235,218,182108,5,0,1:0:0:0:
105,228,182243,1,0,1:0:0:0:
360,319,182378,1,0,1:0:0:0:
383,274,182445,1,0,1:0:0:0:
362,229,182513,1,0,1:0:0:0:
312,220,182580,1,0,1:0:0:0:
98,141,182648,2,0,L|49:137,2,26.1250007972718,0|0|0,1:0|1:0|1:0,0:0:0:0:
319,96,182783,2,0,L|368:92,2,26.1250007972718,0|0|0,1:0|1:0|1:0,0:0:0:0:
107,241,182918,6,0,L|2:227,1,104.500003189087,6|0,1:2|0:0,0:0:0:0:
145,162,183189,2,0,L|15:149,1,104.500003189087,2|0,1:2|0:0,0:0:0:0:
290,71,183459,2,0,L|415:54,1,104.500003189087,2|0,1:2|0:0,0:0:0:0:
146,304,183729,6,0,P|115:234|185:188,1,156.750004783631,6|0,1:2|0:0,0:0:0:0:
225,179,183999,1,2,1:2:0:0:
473,121,184135,1,2,0:0:0:0:
342,93,184270,1,2,1:2:0:0:
483,77,184405,1,2,0:0:0:0:
235,304,184540,6,0,L|114:292,1,104.500003189087,6|0,1:2|1:0,0:0:0:0:
272,237,184810,2,0,L|413:225,1,104.500003189087,2|0,1:2|1:0,0:0:0:0:
137,195,185081,1,2,1:2:0:0:
375,155,185216,1,0,1:0:0:0:
122,245,185351,6,0,L|141:178,1,52.2500015945435,2|2,1:2|1:2,0:0:0:0:
211,188,185486,2,0,L|228:137,1,52.2500015945435,2|2,1:2|1:2,0:0:0:0:
43,105,185621,2,0,L|87:62,1,52.2500015945435,2|2,1:2|1:2,0:0:0:0:
253,55,185756,2,0,L|322:28,1,52.2500015945435,2|2,1:2|1:2,0:0:0:0:
122,222,185891,2,0,L|217:203,1,52.2500015945435,2|2,1:2|1:2,0:0:0:0:
351,221,186026,2,0,L|433:218,1,52.2500015945435,2|2,1:2|1:2,0:0:0:0:
202,353,186162,6,0,P|174:292|252:261,1,142.5,6|0,1:2|0:0,0:0:0:0:
281,250,186432,1,2,1:2:0:0:
44,215,186567,2,0,L|28:172,4,23.75,2|0|0|0|0,1:2|1:0|1:0|1:0|1:0,1:0:0:0:
283,148,186837,1,0,1:0:0:0:
27,79,186972,6,0,L|204:59,1,142.5,4|0,1:2|0:0,0:0:0:0:
388,90,187243,1,2,1:2:0:0:
265,183,187378,2,0,L|202:187,1,47.5,2|2,1:2|1:2,0:0:0:0:
429,213,187513,2,0,L|443:314,1,95,2|0,1:2|1:0,0:0:0:0:
186,336,187783,6,0,L|295:322,1,95,6|0,1:2|1:0,0:0:0:0:
141,273,188053,2,0,L|129:168,1,95,2|0,1:2|1:0,0:0:0:0:
374,191,188324,1,0,1:0:0:0:
402,152,188391,1,0,1:0:0:0:
383,110,188459,1,0,1:0:0:0:
331,99,188526,1,0,1:0:0:0:
128,95,188594,6,0,L|166:64,1,47.5,2|0,1:2|3:3,0:0:0:0:
223,55,188729,2,0,L|285:49,1,47.5,0|0,0:0|3:3,0:0:0:0:
72,235,188864,2,0,L|-2:229,1,47.5,2|0,3:0|0:0,0:0:0:0:
226,171,188999,2,0,L|290:166,1,47.5,2|0,3:0|0:0,0:0:0:0:
54,339,189135,6,0,P|26:280|105:257,1,142.5,8|0,1:0|0:0,0:0:0:0:
307,231,189405,6,0,L|133:207,1,142.5,4|0,1:0|0:0,0:0:0:0:
379,148,189675,1,0,1:0:0:0:
251,94,189810,2,0,L|310:82,1,47.5,0|0,1:0|1:0,0:0:0:0:
492,31,189945,2,0,L|392:24,1,95,0|0,1:0|1:0,0:0:0:0:
163,250,190216,6,0,L|336:276,1,142.5,4|0,1:0|0:0,0:0:0:0:
107,353,190486,1,0,1:0:0:0:
337,184,190621,2,0,L|277:182,1,47.5,0|0,1:0|1:0,0:0:0:0:
94,95,190756,1,0,1:0:0:0:
329,70,190891,1,0,1:0:0:0:
70,239,191026,5,4,1:2:0:0:
41,191,191093,1,0,1:0:0:0:
63,141,191161,1,0,1:0:0:0:
117,130,191228,1,0,1:0:0:0:
317,89,191297,2,0,L|396:91,1,56.9999982604981,0|0,1:0|1:0,0:0:0:0:
178,237,191432,2,0,L|97:247,1,56.9999982604981,0|0,1:0|1:0,0:0:0:0:
351,337,191567,5,0,1:0:0:0:
379,289,191634,1,0,1:0:0:0:
357,239,191702,1,0,1:0:0:0:
303,228,191769,1,0,1:0:0:0:
99,255,191837,6,0,L|83:182,1,56.9999982604981,4|0,1:2|0:0,0:0:0:0:
308,157,191972,2,0,L|318:93,1,56.9999982604981,0|0,1:0|1:0,0:0:0:0:
101,72,192108,2,0,L|35:52,1,56.9999982604981,0|0,1:0|0:0,0:0:0:0:
265,37,192243,1,0,1:0:0:0:
293,33,192276,1,0,1:0:0:0:
321,29,192310,1,0,1:0:0:0:
101,145,192378,5,0,1:0:0:0:
73,146,192411,1,0,1:0:0:0:
61,170,192445,1,0,1:0:0:0:
75,193,192479,1,0,1:0:0:0:
102,191,192513,1,0,1:0:0:0:
297,222,192581,1,0,1:0:0:0:
491,284,192648,6,0,L|386:337,1,113.999996520996,4|2,1:2|0:0,0:0:0:0:
248,353,192918,2,0,L|378:329,1,113.999996520996,10|2,1:2|0:0,0:0:0:0:
108,279,193189,1,2,1:2:0:0:
239,251,193324,2,0,L|300:228,1,56.9999982604981,0|0,1:0|1:0,0:0:0:0:
79,204,193459,6,0,L|58:69,1,113.999996520996,4|2,1:0|0:0,0:0:0:0:
210,35,193729,2,0,L|94:29,1,113.999996520996,10|2,1:2|0:0,0:0:0:0:
331,146,193999,1,10,1:2:0:0:
194,119,194135,2,0,L|267:113,1,56.9999982604981,0|0,1:0|1:0,0:0:0:0:
472,229,194270,6,0,L|353:241,1,113.999996520996,6|0,1:2|0:0,0:0:0:0:
119,256,194540,1,6,1:2:0:0:
357,266,194675,1,0,0:0:0:0:
117,291,194810,2,0,L|99:177,1,113.999996520996,6|0,1:2|0:0,0:0:0:0:
241,111,195081,2,0,L|112:103,1,113.999996520996,2|2,1:2|0:0,0:0:0:0:
381,47,195351,5,10,1:2:0:0:
411,92,195418,1,2,0:0:0:0:
392,144,195486,1,0,1:0:0:0:
340,159,195553,1,0,1:0:0:0:
119,251,195621,2,0,L|71:248,2,28.4999991302491,2|0|0,1:2|1:0|1:0,1:0:0:0:
350,267,195756,2,0,L|398:264,2,28.4999991302491,2|0|0,1:2|1:0|1:0,1:0:0:0:
115,329,195891,6,0,L|5:281,1,113.999996520996,4|0,1:0|0:0,0:0:0:0:
66,261,196094,1,2,0:0:0:0:
272,184,196162,2,0,L|146:172,1,113.999996520996,10|2,1:2|0:0,0:0:0:0:
298,104,196432,2,0,L|418:88,1,113.999996520996,0|2,1:0|0:0,0:0:0:0:
172,257,196702,5,2,1:2:0:0:
306,263,196837,2,0,L|315:182,1,56.9999982604981,2|2,0:0|0:0,0:0:0:0:
123,96,196972,2,0,L|-7:76,1,113.999996520996,10|2,1:2|0:0,0:0:0:0:
158,173,197243,2,0,L|34:181,1,113.999996520996,10|2,1:2|0:0,0:0:0:0:
306,263,197513,5,4,1:0:0:0:
173,331,197648,1,2,0:0:0:0:
144,284,197715,1,2,0:0:0:0:
164,233,197783,1,10,1:2:0:0:
217,219,197850,1,0,0:0:0:0:
436,230,197918,2,0,L|438:109,1,113.999996520996,2|0,0:0|1:0,0:0:0:0:
204,77,198189,2,0,L|128:77,1,56.9999982604981,2|0,0:0|0:0,0:0:0:0:
369,28,198324,6,0,L|514:11,1,113.999996520996,4|0,1:0|1:0,0:0:0:0:
244,152,198594,1,2,1:2:0:0:
373,165,198729,1,0,1:0:0:0:
126,273,198864,1,2,1:2:0:0:
374,321,198999,2,0,L|311:331,1,56.9999982604981,0|0,1:0|1:0,1:0:0:0:
102,360,199135,6,0,L|105:217,1,113.999996520996,6|2,1:2|0:0,0:0:0:0:
235,223,199405,2,0,L|240:149,1,56.9999982604981,10|2,1:2|0:0,0:0:0:0:
33,209,199540,2,0,P|17:131|143:53,1,227.999993041992,2|0,0:0|0:0,0:0:0:0:
186,47,199878,1,0,1:0:0:0:
400,145,199945,6,0,P|360:195|247:221,1,170.999994781494,4|0,1:0|0:0,0:0:0:0:
202,218,200216,1,8,1:2:0:0:
328,260,200351,1,2,0:0:0:0:
106,319,200486,1,2,1:2:0:0:
345,349,200621,2,0,L|428:344,1,56.9999982604981,0|0,1:0|1:0,0:0:0:0:
161,368,200756,6,0,P|128:295|244:220,1,227.999993041992,6|10,1:2|0:0,0:0:0:0:
467,203,201297,1,0,1:0:0:0:
494,155,201364,1,0,1:0:0:0:
472,104,201432,1,0,1:0:0:0:
419,92,201499,1,0,1:0:0:0:
212,99,201567,5,0,1:0:0:0:
242,146,201634,1,0,0:0:0:0:
292,171,201702,1,0,1:0:0:0:
348,166,201769,1,0,0:0:0:0:
145,251,201837,6,0,L|67:257,1,56.9999982604981,0|0,1:0|0:0,0:0:0:0:
291,312,201972,1,0,1:0:0:0:
319,313,202005,1,0,1:0:0:0:
347,314,202039,1,0,1:0:0:0:
134,275,202108,6,0,L|62:278,1,47.5,8|0,1:0|1:0,0:0:0:0:
280,336,202243,1,0,1:0:0:0:
308,337,202276,1,0,1:0:0:0:
336,338,202310,1,0,1:0:0:0:
97,362,202378,6,0,P|60:299|138:253,1,163.875003125668,6|0,1:2|0:0,0:0:0:0:
176,244,202648,1,10,1:2:0:0:
40,198,202783,1,0,0:0:0:0:
285,160,202918,2,0,L|407:147,1,109.250002083778,2|0,1:2|0:0,0:0:0:0:
148,72,203189,6,0,P|222:131|306:117,1,163.875003125668,0|0,1:0|0:0,0:0:0:0:
83,181,203459,2,0,L|71:293,1,109.250002083778,10|0,1:2|0:0,0:0:0:0:
309,322,203729,1,4,1:0:0:0:
68,313,203864,2,0,L|142:306,1,54.6250010418892,0|0,1:0|1:0,0:0:0:0:
351,297,203999,6,0,P|374:240|281:206,1,163.875003125668,4|0,1:0|0:0,0:0:0:0:
240,197,204270,1,10,1:2:0:0:
372,134,204405,2,0,L|407:77,2,54.6250010418892,0|2|2,0:0|0:0|1:2,0:0:0:0:
232,119,204675,1,2,0:0:0:0:
474,146,204810,5,2,1:2:0:0:
493,195,204877,1,2,0:0:0:0:
470,242,204945,1,2,0:0:0:0:
418,255,205012,1,2,0:0:0:0:
211,318,205081,2,0,L|329:272,1,109.250002083778,10|2,1:2|0:0,0:0:0:0:
192,229,205351,1,14,1:2:0:0:
444,121,205486,2,0,L|350:118,1,54.6250010418892,0|0,1:2|1:0,0:0:0:0:
176,106,205621,6,0,P|217:153|329:168,1,163.875003125668,4|0,1:0|0:0,0:0:0:0:
126,217,205891,2,0,L|-4:212,1,109.250002083778,10|0,1:2|0:0,0:0:0:0:
237,120,206162,1,4,1:0:0:0:
19,33,206297,2,0,L|93:30,1,54.6250010418892,0|0,1:0|1:0,0:0:0:0:
290,109,206432,6,0,P|249:156|137:171,1,163.875003125668,4|0,1:0|0:0,0:0:0:0:
364,225,206702,2,0,L|473:251,1,109.250002083778,10|2,1:2|0:0,0:0:0:0:
237,316,206972,1,14,1:2:0:0:
471,339,207108,2,0,L|417:339,1,54.6250010418892,0|0,1:0|1:0,0:0:0:0:
172,365,207243,6,0,B|172:78|172:78|447:74,1,427.500016307831,6|0,1:2|0:0,0:0:0:0:
481,338,207513,6,0,B|481:38|481:38|206:47,1,448.875013270498,6|0,1:2|0:0,0:0:0:0:
126,351,207783,6,0,B|126:37|126:37|397:44,1,470.250004484654,6|0,1:2|0:0,0:0:0:0:
490,254,208053,6,0,L|367:246,1,109.250002083778,4|0,1:0|1:0,0:0:0:0:
148,237,208324,2,0,L|132:164,1,54.6250010418892,2|2,1:2|1:2,0:0:0:0:
332,166,208459,2,0,L|340:104,1,54.6250010418892,2|2,1:2|1:2,0:0:0:0:
137,69,208594,1,8,1:0:0:0:
109,68,208627,1,0,1:0:0:0:
82,68,208661,1,0,1:0:0:0:
302,29,208729,1,0,1:0:0:0:
329,28,208762,1,0,1:0:0:0:
356,28,208796,1,0,1:0:0:0:
148,114,208864,6,0,P|79:129|70:223,1,163.875003125668,4|0,1:0|0:0,0:0:0:0:
283,288,209135,1,10,1:2:0:0:
154,306,209270,1,0,0:0:0:0:
409,320,209405,2,0,P|420:257|326:220,1,163.875003125668,10|0,1:2|0:0,0:0:0:0:
111,115,209675,6,0,P|169:148|290:115,1,163.875003125668,4|0,1:0|0:0,0:0:0:0:
49,228,209945,2,0,L|30:104,1,109.250002083778,10|2,1:2|0:0,0:0:0:0:
270,45,210216,1,10,1:2:0:0:
135,35,210351,1,0,0:0:0:0:
371,209,210486,5,6,1:2:0:0:
496,194,210621,1,0,1:0:0:0:
257,335,210756,1,2,1:2:0:0:
396,302,210891,2,0,L|312:295,1,54.6250010418892,0|0,1:0|1:0,0:0:0:0:
127,279,211026,2,0,L|177:235,1,54.6250010418892,2|0,1:2|1:0,0:0:0:0:
234,224,211162,2,0,L|306:218,1,54.6250010418892,0|0,1:0|1:0,0:0:0:0:
86,186,211297,6,0,L|62:127,1,54.6250010418892,2|0,1:2|0:0,0:0:0:0:
280,117,211432,1,0,1:0:0:0:
293,139,211465,1,0,1:0:0:0:
306,163,211499,1,0,1:0:0:0:
108,90,211567,6,0,L|31:60,1,54.6250010418892,0|0,1:0|1:0,0:0:0:0:
285,76,211702,1,0,1:0:0:0:
310,90,211735,1,0,1:0:0:0:
335,104,211769,1,0,1:0:0:0:
128,20,211837,6,0,L|60:15,1,54.6250010418892,0|2,1:0|1:2,0:0:0:0:
286,16,211972,1,0,0:0:0:0:
317,24,212005,1,0,1:0:0:0:
348,32,212039,1,2,1:2:0:0:
88,168,212108,6,0,P|63:233|163:249,1,156.750004783631,4|0,1:0|0:0,0:0:0:0:
360,291,212378,1,2,1:2:0:0:
78,361,212513,2,0,L|59:320,4,26.1250007972718,0|0|0|0|0,1:0|1:0|1:0|1:0|1:0,1:0:0:0:
343,308,212783,1,2,1:2:0:0:
63,215,212918,6,0,L|250:166,1,156.750004783631,4|0,1:2|0:0,0:0:0:0:
447,100,213189,1,2,1:2:0:0:
215,64,213324,2,0,L|147:61,1,52.2500015945435,0|0,1:0|1:0,0:0:0:0:
391,194,213459,2,0,L|516:182,1,104.500003189087,0|0,1:0|1:0,0:0:0:0:
233,335,213729,6,0,L|134:327,1,56.9999982604981,4|0,1:0|1:0,0:0:0:0:
238,308,213864,2,0,L|310:302,1,56.9999982604981,0|0,1:0|1:0,0:0:0:0:
77,186,213999,2,0,L|-16:178,1,56.9999982604981,2|0,1:2|1:0,0:0:0:0:
253,117,214135,2,0,L|319:114,1,56.9999982604981,0|0,1:0|1:0,0:0:0:0:
79,179,214270,5,2,1:2:0:0:
44,136,214337,1,0,1:0:0:0:
63,85,214405,1,0,1:0:0:0:
116,75,214472,1,0,1:0:0:0:
331,80,214540,6,0,L|320:147,1,56.9999982604981,2|0,1:2|1:0,0:0:0:0:
250,135,214675,2,0,L|237:191,1,56.9999982604981,0|0,1:0|1:0,0:0:0:0:
448,198,214810,2,0,L|389:246,1,56.9999982604981,2|0,1:3|0:0,0:0:0:0:
196,289,214945,2,0,L|134:313,1,56.9999982604981,2|0,1:3|0:0,0:0:0:0:
386,337,215081,6,0,L|305:344,1,56.9999982604981,8|0,1:0|1:0,0:0:0:0:
126,348,215216,2,0,L|54:346,1,56.9999982604981,0|0,1:0|1:0,0:0:0:0:
297,180,215351,6,0,L|307:146,2,28.4999991302491,2|0|0,1:3|0:3|1:3,0:3:0:0:
255,190,215452,1,0,0:3:0:0:
213,190,215486,2,0,L|202:156,2,28.4999991302491,0|0|0,1:3|0:3|1:3,0:3:0:0:
259,209,215587,1,0,0:3:0:0:
308,214,215621,2,0,L|332:191,2,28.4999991302491,2|0|0,1:3|0:3|1:3,0:3:0:0:
215,236,215722,1,0,0:3:0:0:
90,230,215756,6,0,L|62:207,2,28.4999991302491,2|0|0,1:3|0:3|1:3,0:3:0:0:
225,273,215858,1,0,0:3:0:0:
358,274,215891,2,0,L|395:259,2,28.4999991302491,0|0|0,1:3|0:3|1:3,0:3:0:0:
204,299,215993,1,0,0:3:0:0:
50,300,216026,2,0,L|13:285,2,28.4999991302491,2|0|0,1:3|0:3|1:3,0:3:0:0:
217,330,216128,1,0,0:3:0:0:
401,346,216162,6,0,P|437:297|355:235,1,170.999994781494,2|0,1:3|0:0,0:0:0:0:
90,147,216432,5,4,1:0:0:0:
256,192,216499,12,0,222581,0:0:0:0:
