osu file format v14

[General]
AudioFilename: audio.mp3
AudioLeadIn: 0
PreviewTime: 163391
Countdown: 0
SampleSet: Soft
StackLeniency: 0.7
Mode: 2
LetterboxInBreaks: 0
WidescreenStoryboard: 1

[Editor]
Bookmarks: 28054,45081,64540,79405,106702,124540,137513,150486,163459,189405,216432
DistanceSpacing: 0.8
BeatDivisor: 2
GridSize: 32
TimelineZoom: 3.699998

[Metadata]
Title:Le Cirque de Minuit (2019 Re:work)
TitleUnicode:Le Cirque de Minuit (2019 Re:work)
Artist:Morimori Atsushi
ArtistUnicode:モリモリあつし
Creator:Jemzuu
Version:Cup
Source:osu!
Tags:ajamez spectator featured artist mappers guild fa electronic instrumental グラン=ギニョルに終幕を 非可逆リズム 悠久の時を刻む街 Ornamental rework drum and bass dnb n
BeatmapID:2722308
BeatmapSetID:1303098

[Difficulty]
HPDrainRate:2
CircleSize:2.6
OverallDifficulty:6
ApproachRate:6
SliderMultiplier:1.03
SliderTickRate:1

[Events]
//Background and Video events
0,0,"85034930_p0.jpg",0,0
//Break Periods
2,107243,111328
2,163662,165652
//Storyboard Layer 0 (Background)
//Storyboard Layer 1 (Fail)
//Storyboard Layer 2 (Pass)
//Storyboard Layer 3 (Foreground)
//Storyboard Layer 4 (Overlay)
//Storyboard Sound Samples

[TimingPoints]
487,540.540540540541,3,2,1,20,1,0
26432,-100,3,2,1,40,0,0
27108,-100,3,2,1,50,0,0
27784,-100,3,2,1,5,0,0
28054,270.27027027027,3,2,6,70,1,0
28121,-100,3,2,1,70,0,0
38593,-100,3,2,2,60,0,0
43391,-100,3,2,2,5,0,0
43458,-100,3,2,2,60,0,0
51026,-100,3,2,1,60,0,0
51566,-100,3,2,1,70,0,0
64539,-100,3,2,3,90,0,0
64674,-100,3,2,3,90,0,0
64877,-100,3,2,3,5,0,0
64945,-100,3,2,3,90,0,0
65012,-100,3,2,3,5,0,0
65080,-100,3,2,3,90,0,0
65283,-100,3,2,3,5,0,0
65350,-100,3,2,3,90,0,0
65553,-100,3,2,3,5,0,0
65621,-100,3,2,3,90,0,0
65823,-100,3,2,3,5,0,0
65891,-100,3,2,3,90,0,0
66093,-100,3,2,3,5,0,0
66161,-100,3,2,3,90,0,0
66296,-100,3,2,3,90,0,0
66634,-100,3,2,3,5,0,0
66701,-100,3,2,3,90,0,0
66904,-100,3,2,3,5,0,0
66972,-100,3,2,3,90,0,0
67174,-100,3,2,3,5,0,0
67242,-100,3,2,3,50,0,0
67377,-100,3,2,3,60,0,0
67512,-100,3,2,3,70,0,0
67647,-100,3,2,3,80,0,0
67783,-100,3,2,3,90,0,0
67985,-100,3,2,3,5,0,0
68053,-100,3,2,3,90,0,0
68256,-100,3,2,3,5,0,0
68324,-100,3,2,3,90,0,0
68526,-100,3,2,3,5,0,0
68594,-100,3,2,3,90,0,0
68796,-100,3,2,3,5,0,0
68864,-100,3,2,3,90,0,0
69066,-100,3,2,3,5,0,0
69135,-100,3,2,3,90,0,0
69337,-100,3,2,3,5,0,0
69405,-100,3,2,3,90,0,0
69607,-100,3,2,3,5,0,0
69675,-100,3,2,3,80,0,0
70216,-100,3,2,3,90,0,0
70485,-100,3,2,3,60,0,0
70553,-100,3,2,3,65,0,0
70620,-100,3,2,3,70,0,0
70688,-100,3,2,3,75,0,0
70756,-100,3,2,3,80,0,0
71026,-100,3,2,4,70,0,0
71297,-100,3,2,2,70,0,0
73458,-100,3,2,2,80,0,0
73729,-100,3,2,2,80,0,0
73999,-100,3,2,2,80,0,0
74269,-100,3,2,2,80,0,0
76702,-200,3,2,5,90,0,0
77513,-100,3,2,2,90,0,0
78323,-100,3,2,2,70,0,0
79405,-100,3,2,4,70,0,0
79608,-100,3,2,2,70,0,0
95350,-100,3,2,3,70,0,0
95553,-100,3,2,2,5,0,0
95620,-100,3,2,3,90,0,0
95823,-100,3,2,2,5,0,0
95891,-100,3,2,3,90,0,0
96093,-100,3,2,2,5,0,0
96161,-100,3,2,2,90,0,0
106702,-133.333333333333,3,2,4,60,0,0
107243,-133.333333333333,3,2,2,60,0,0
109135,-100,3,2,2,60,0,0
111972,-100,3,2,1,60,0,0
112378,-100,3,2,5,60,0,0
112580,-100,3,2,2,5,0,0
112647,-100,3,2,2,60,0,0
113188,-100,3,2,1,70,0,0
124540,-100,3,2,4,80,0,0
124675,-100,3,2,1,80,0,0
149674,-100,3,2,3,90,0,0
150823,-100,3,2,3,5,0,0
150891,-100,3,2,3,90,0,0
151499,-100,3,2,3,5,0,0
151567,-100,3,2,3,90,0,0
151769,-100,3,2,3,5,0,0
151837,-100,3,2,3,90,0,0
152039,-100,3,2,3,5,0,0
152107,-100,3,2,3,90,0,0
153188,-100,3,2,3,50,0,0
153323,-100,3,2,3,60,0,0
153458,-100,3,2,3,70,0,0
153593,-100,3,2,3,80,0,0
153729,-100,3,2,3,90,0,0
153931,-100,3,2,3,5,0,0
153999,-100,3,2,3,90,0,0
154202,-100,3,2,3,5,0,0
154270,-100,3,2,3,90,0,0
154472,-100,3,2,3,5,0,0
154540,-100,3,2,3,90,0,0
154742,-100,3,2,3,5,0,0
154810,-100,3,2,3,90,0,0
155012,-100,3,2,3,5,0,0
155081,-100,3,2,3,90,0,0
155283,-100,3,2,3,5,0,0
155351,-100,3,2,3,90,0,0
155553,-100,3,2,3,5,0,0
155621,-100,3,2,3,90,0,0
156162,-100,3,2,3,90,0,0
156431,-100,3,2,3,60,0,0
156499,-100,3,2,3,65,0,0
156566,-100,3,2,3,70,0,0
156634,-100,3,2,3,75,0,0
156702,-100,3,2,3,80,0,0
156972,-100,3,2,4,90,0,0
157243,-100,3,2,2,90,0,0
161026,-100,3,2,1,90,0,0
161162,-100,3,2,1,30,0,0
162648,-100,3,2,5,90,0,0
163458,-100,3,2,4,70,0,0
166702,-100,3,2,4,30,0,0
167513,-100,3,2,4,45,0,0
168323,-100,3,2,1,80,0,0
168526,-100,3,2,1,5,0,0
168594,-100,3,2,1,80,0,0
168796,-100,3,2,1,5,0,0
168864,-100,3,2,1,80,0,0
169066,-100,3,2,1,5,0,0
169134,-100,3,2,5,80,0,0
169202,-100,3,2,1,80,0,0
169945,-100,3,2,2,90,0,1
173189,-100,3,2,2,90,0,1
176162,-100,3,2,2,90,0,0
176432,-100,3,2,2,90,0,1
181297,-100,3,2,2,90,0,1
181499,-100,3,2,2,5,0,1
181567,-100,3,2,2,90,0,1
181769,-100,3,2,2,5,0,1
181837,-100,3,2,2,90,0,1
182039,-100,3,2,2,5,0,1
182108,-100,3,2,2,90,0,1
186162,-100,3,2,2,90,0,0
189135,-100,3,2,1,90,0,0
189404,-100,3,2,1,90,0,0
191026,-100,3,2,1,90,0,0
191837,-100,3,2,5,90,0,0
191905,-100,3,2,1,90,0,0
192648,-100,3,2,4,90,0,1
192783,-100,3,2,1,90,0,1
202108,-100,3,2,1,90,0,0
202378,-100,3,2,4,90,0,1
202581,-100,3,2,1,90,0,1
207243,-100,3,2,1,90,0,1
207445,-100,3,2,1,5,0,1
207513,-100,3,2,1,90,0,1
207715,-100,3,2,1,5,0,1
207783,-100,3,2,1,90,0,1
207985,-100,3,2,1,5,0,1
208053,-100,3,2,1,90,0,1
212108,-100,3,2,1,90,0,0
213729,-100,3,2,1,90,0,0
216432,-100,3,2,1,90,0,1
216499,-100,3,2,1,30,0,0
217242,-100,3,2,1,20,0,0
218053,-100,3,2,1,10,0,0
220215,-100,3,2,1,40,0,0
221026,-100,3,2,1,50,0,0
221837,-100,3,2,1,60,0,0
222581,-100,3,2,1,5,0,0

[Colours]
Combo1 : 255,170,213
Combo2 : 166,166,210
Combo3 : 108,206,253

[HitObjects]
256,192,24811,8,0,27784,0:0:0:0:
378,43,28054,6,0,L|388:162,1,103,6|8,3:0|3:0,0:0:0:0:
334,174,28459,1,8,3:0:0:0:
281,183,28594,1,8,0:0:0:0:
147,237,28864,6,0,L|38:216,2,103,6|10|2,1:2|1:2|1:2,0:0:0:0:
262,319,29675,2,0,L|316:221,2,103,2|10|10,1:2|1:2|1:2,0:0:0:0:
145,337,30486,6,0,L|129:223,1,103,2|10,1:2|1:2,0:0:0:0:
225,197,31026,1,2,1:2:0:0:
339,203,31297,2,0,L|344:97,1,103,0|8,1:0|1:2,0:0:0:0:
244,74,31837,1,10,1:2:0:0:
123,154,32108,6,0,L|214:210,1,103,6|8,1:2|1:2,0:0:0:0:
320,235,32648,1,2,1:2:0:0:
437,264,32918,2,0,L|441:140,1,103,6|10,1:2|1:2,0:0:0:0:
345,131,33459,1,10,1:2:0:0:
223,114,33729,6,0,L|119:79,2,103,4|8|10,1:2|1:2|1:2,0:0:0:0:
340,111,34540,2,0,L|352:226,1,103,4|0,1:0|1:0,0:0:0:0:
246,251,35081,1,0,1:0:0:0:
117,318,35351,6,0,L|226:336,1,103,4|0,1:0|1:0,0:0:0:0:
218,334,35891,1,4,1:0:0:0:
349,207,36162,2,0,L|240:225,1,103,4|0,1:0|1:0,0:0:0:0:
248,223,36702,1,4,1:0:0:0:
116,87,36972,6,0,L|225:105,1,103,4|0,1:0|1:0,0:0:0:0:
217,103,37512,1,0,1:0:0:0:
86,143,37783,2,0,L|25:230,2,103,0|0|0,1:0|1:0|1:0,0:0:0:0:
221,104,38594,6,0,L|372:264,2,206,4|2|2,1:2|0:0|0:0,0:0:0:0:
37,85,40216,1,2,0:0:0:0:
284,278,41026,6,0,L|289:158,1,103,2|2,0:0|0:0,0:0:0:0:
180,113,41567,2,0,L|233:87,1,51.5,2|0,0:0|0:0,0:0:0:0:
282,84,41837,6,0,L|391:120,2,103,4|2|10,1:0|0:0|1:2,0:0:0:0:
169,198,42648,2,0,L|60:234,2,103,0|2|10,1:0|1:2|0:0,0:0:0:0:
290,253,43459,6,0,L|359:169,2,103,2|2|10,1:2|0:0|1:2,0:0:0:0:
168,320,44270,2,0,L|164:206,1,103,0|8,1:0|0:0,0:0:0:0:
283,164,44810,2,0,L|344:157,1,51.5,10|2,0:0|0:0,0:0:0:0:
267,140,45081,6,0,L|124:308,2,206,6|2|2,1:2|0:0|0:0,0:0:0:0:
458,97,46702,1,2,0:0:0:0:
254,43,47513,6,0,L|133:52,1,103,2|2,0:0|0:0,0:0:0:0:
128,80,47918,1,0,0:0:0:0:
150,49,48053,1,2,0:0:0:0:
284,178,48324,6,0,L|380:228,2,103,6|2|10,1:2|0:0|1:2,0:0:0:0:
174,239,49135,2,0,L|157:123,1,103,0|2,1:0|1:2,0:0:0:0:
269,103,49675,1,10,1:2:0:0:
383,60,49945,6,0,L|290:130,1,103,10|10,1:2|1:2,0:0:0:0:
197,141,50486,1,10,1:2:0:0:
82,153,50756,2,0,L|78:266,1,103,10|2,1:2|3:0,0:0:0:0:
188,299,51297,2,0,L|248:307,1,51.5,2|2,3:0|3:0,0:0:0:0:
172,332,51567,6,0,L|66:348,1,103,6|8,1:2|1:2,0:0:0:0:
181,366,52108,2,0,L|185:264,1,103,2|0,1:2|1:2,0:0:0:0:
300,245,52648,6,0,L|306:132,1,103,10|0,1:2|1:2,0:0:0:0:
187,121,53189,2,0,L|283:77,1,103,2|8,1:2|1:2,0:0:0:0:
387,69,53729,1,2,1:3:0:0:
279,82,53999,6,0,L|168:97,1,103,2|2,1:2|1:2,0:0:0:0:
70,237,54540,2,0,L|124:255,1,51.5,2|0,1:2|0:0,0:0:0:0:
185,262,54810,6,0,L|237:167,2,103,4|10|2,1:0|1:2|1:2,0:0:0:0:
60,345,55621,2,0,L|145:278,1,103,4|10,1:0|1:2,0:0:0:0:
245,264,56162,1,2,1:2:0:0:
365,277,56432,6,0,L|369:166,1,103,4|10,1:0|1:2,0:0:0:0:
264,142,56972,1,2,1:2:0:0:
142,195,57243,2,0,L|130:73,1,103,2|0,1:2|1:0,0:0:0:0:
235,46,57783,2,0,L|290:33,1,51.5,0|0,1:0|1:0,0:0:0:0:
338,33,58053,1,0,1:0:0:0:
203,47,58324,6,0,L|198:160,1,103,4|2,1:0|1:2,0:0:0:0:
295,194,58864,1,0,1:0:0:0:
406,210,59135,2,0,L|416:324,1,103,10|0,1:2|1:0,0:0:0:0:
286,342,59675,6,0,L|179:302,2,103,4|10|2,1:0|1:2|1:3,0:0:0:0:
408,233,60486,2,0,L|301:211,1,103,6|10,1:2|1:2,0:0:0:0:
197,190,61026,2,0,L|131:181,1,51.5,10|0,1:2|1:0,0:0:0:0:
212,159,61297,6,0,L|307:115,2,103,4|10|2,1:0|1:2|1:2,0:0:0:0:
97,173,62108,2,0,L|25:83,2,103,4|10|10,1:0|1:2|1:2,0:0:0:0:
226,161,62918,6,0,P|285:175|330:314,1,206,4|0,1:0|1:0,0:0:0:0:
214,336,63729,2,0,L|110:304,2,103,0|0|2,1:0|1:0|1:2,0:0:0:0:
348,338,64540,6,0,L|408:322,1,51.5,4|4,1:2|1:2,0:0:0:0:
299,243,64945,2,0,L|238:239,1,51.5,4|4,1:2|1:2,0:0:0:0:
115,257,65351,6,0,L|101:140,1,103,4|4,1:2|1:2,0:0:0:0:
200,106,65891,1,4,1:2:0:0:
332,111,66162,6,0,L|338:48,1,51.5,4|0,1:2|1:0,0:0:0:0:
226,49,66567,2,0,L|215:122,1,51.5,4|4,1:2|1:2,0:0:0:0:
350,175,66972,6,0,L|452:195,2,103,4|0|0,1:0|1:0|1:0,0:0:0:0:
221,186,67783,6,0,L|225:302,1,103,6|6,1:2|1:2,0:0:0:0:
332,313,68324,1,6,1:2:0:0:
203,333,68594,6,0,L|93:315,2,103,6|6|6,1:2|1:2|1:2,0:0:0:0:
333,238,69405,2,0,L|235:202,1,103,6|4,1:2|1:0,0:0:0:0:
126,182,69945,1,4,1:0:0:0:
258,111,70216,6,0,P|293:126|237:240,1,206,4|0,1:0|1:0,0:0:0:0:
111,268,71026,6,0,P|48:241|103:136,1,206,6|2,1:2|0:0,0:0:0:0:
199,106,71837,2,0,P|275:113|275:274,1,257.5,10|0,0:2|1:0,0:0:0:0:
232,280,72648,6,0,L|138:213,2,103,2|2|2,1:2|1:2|0:0,0:0:0:0:
345,340,73459,2,0,L|443:289,2,103,10|2|10,1:2|1:2|1:2,0:0:0:0:
223,354,74270,6,0,L|217:232,1,103,2|10,1:2|1:2,0:0:0:0:
324,220,74810,1,2,0:0:0:0:
441,224,75081,2,0,L|443:113,1,103,10|2,1:2|1:2,0:0:0:0:
334,87,75621,1,10,1:2:0:0:
213,106,75891,6,0,L|105:134,2,103,8|8|0,1:2|1:2|1:0,0:0:0:0:
268,91,76567,1,0,1:0:0:0:
328,91,76702,6,0,P|350:105|321:164,1,103,4|0,1:2|0:0,0:0:0:0:
190,182,77513,5,4,1:0:0:0:
95,235,78053,2,0,L|150:264,1,51.5,0|0,1:0|1:0,0:0:0:0:
197,269,78324,6,0,L|314:238,1,103,4|2,1:0|1:3,0:0:0:0:
180,342,78864,2,0,L|145:295,2,51.5,2|2|2,1:2|1:2|1:2,0:0:0:0:
314,346,79405,6,0,L|207:322,1,103,12|2,1:2|0:0,0:0:0:0:
99,306,79945,2,0,L|92:200,1,103,10|2,1:2|1:2,0:0:0:0:
144,174,80351,1,2,1:2:0:0:
197,164,80486,1,10,1:2:0:0:
318,102,80756,6,0,L|424:146,2,103,2|10|2,1:2|1:2|0:0,0:0:0:0:
199,148,81567,2,0,L|285:215,1,103,10|2,1:2|1:2,0:0:0:0:
332,226,81972,1,10,1:2:0:0:
385,231,82108,1,10,1:2:0:0:
263,320,82378,6,0,L|159:343,2,103,2|10|2,1:2|1:2|1:2,0:0:0:0:
386,330,83189,2,0,L|390:209,1,103,10|2,1:2|1:2,0:0:0:0:
337,203,83594,1,2,1:2:0:0:
283,193,83729,1,10,1:2:0:0:
151,228,83999,6,0,L|143:120,1,103,6|10,1:2|1:2,0:0:0:0:
245,95,84540,1,2,0:0:0:0:
363,56,84810,2,0,L|246:42,1,103,10|2,1:2|1:2,0:0:0:0:
152,149,85351,2,0,L|87:154,1,51.5,10|2,1:2|0:0,0:0:0:0:
162,178,85621,6,0,L|266:213,2,103,6|10|2,1:2|1:2|0:0,0:0:0:0:
29,195,86432,2,0,L|33:304,1,103,10|2,1:2|1:2,0:0:0:0:
130,337,86972,1,10,1:2:0:0:
254,352,87243,6,0,L|248:242,1,103,6|10,1:2|1:2,0:0:0:0:
197,229,87648,1,2,0:0:0:0:
145,224,87783,1,2,0:0:0:0:
265,155,88053,6,0,L|385:138,1,103,10|0,1:2|1:0,0:0:0:0:
394,124,88459,1,0,1:0:0:0:
368,139,88594,1,10,1:2:0:0:
233,329,88864,6,0,L|132:293,2,103,2|10|2,1:2|1:2|0:0,0:0:0:0:
350,334,89675,2,0,L|353:213,1,103,10|8,1:2|1:2,0:0:0:0:
248,207,90216,1,0,1:0:0:0:
115,231,90486,6,0,L|110:105,1,103,6|10,1:2|1:2,0:0:0:0:
226,114,91026,2,0,L|263:68,2,51.5,2|2|10,0:0|1:2|1:2,0:0:0:0:
103,180,91567,2,0,L|186:252,1,103,2|10,1:2|1:2,0:0:0:0:
232,258,91972,1,2,0:0:0:0:
290,265,92108,6,0,L|409:255,2,103,2|10|2,1:2|1:2|0:0,0:0:0:0:
174,329,92918,2,0,L|164:220,1,103,10|2,1:2|1:2,0:0:0:0:
217,197,93324,1,2,0:0:0:0:
269,186,93459,1,10,1:2:0:0:
391,227,93729,6,0,L|449:137,2,103,2|10|2,1:2|1:2|0:0,0:0:0:0:
268,261,94540,2,0,P|253:202|266:160,1,103,10|2,1:2|1:2,0:0:0:0:
317,138,94945,1,2,1:2:0:0:
372,131,95081,1,10,1:2:0:0:
241,86,95351,6,0,L|126:58,2,103,4|4|4,1:0|1:0|1:0,0:0:0:0:
373,176,96162,2,0,L|259:194,1,103,0|2,1:0|1:2,0:0:0:0:
222,203,96567,1,2,1:2:0:0:
202,248,96702,1,2,1:2:0:0:
224,292,96837,1,2,1:2:0:0:
273,302,96972,6,0,L|377:335,2,103,6|0|0,1:2|1:0|1:0,0:0:0:0:
148,331,97783,2,0,L|135:213,1,103,4|2,1:0|1:2,0:0:0:0:
189,199,98189,1,2,0:0:0:0:
242,189,98324,1,2,1:2:0:0:
112,144,98594,6,0,L|18:89,2,103,2|2|2,1:2|1:2|1:2,0:0:0:0:
235,112,99405,2,0,P|277:115|322:257,1,206,2|2,1:2|1:2,0:0:0:0:
195,273,100216,6,0,L|79:253,1,103,6|2,1:2|1:2,0:0:0:0:
146,222,100621,2,0,L|251:213,1,103,0|0,1:0|1:0,0:0:0:0:
308,209,101026,6,0,L|312:98,1,103,4|0,1:0|1:0,0:0:0:0:
261,93,101432,1,0,1:0:0:0:
209,84,101567,1,0,1:0:0:0:
337,97,101837,6,0,L|439:154,2,103,6|2|2,1:2|1:2|1:2,0:0:0:0:
212,100,102648,2,0,L|210:215,1,103,2|2,1:2|1:3,0:0:0:0:
260,222,103053,1,2,1:3:0:0:
313,229,103189,1,0,1:0:0:0:
443,291,103459,6,0,L|444:184,1,103,6|0,1:2|1:0,0:0:0:0:
390,173,103864,2,0,L|276:155,1,103,0|0,1:0|1:0,0:0:0:0:
229,168,104270,6,0,L|214:50,1,103,6|2,1:2|1:2,0:0:0:0:
269,40,104675,1,0,1:0:0:0:
323,36,104810,1,0,1:0:0:0:
189,213,105081,6,0,L|103:148,2,103,6|2|2,1:2|1:2|1:2,0:0:0:0:
308,189,105891,2,0,L|316:298,1,103,2|0,1:2|1:0,0:0:0:0:
197,324,106432,2,0,L|138:312,1,51.5,0|0,1:0|1:0,0:0:0:0:
210,293,106702,5,6,1:2:0:0:
317,125,112378,6,0,L|415:169,2,103,4|0|4,1:2|1:0|1:0,0:0:0:0:
185,201,113189,6,0,L|119:98,2,103,6|10|2,1:2|1:2|1:2,0:0:0:0:
292,234,113999,2,0,L|379:159,2,103,2|10|10,1:2|1:2|1:2,0:0:0:0:
178,274,114810,6,0,L|161:151,1,103,2|10,1:2|1:2,0:0:0:0:
272,117,115351,2,0,L|329:84,1,51.5,2|2,1:2|0:0,0:0:0:0:
371,79,115621,2,0,L|474:138,2,103,2|10|10,1:2|1:2|1:2,0:0:0:0:
241,94,116432,6,0,L|250:212,1,103,4|10,1:0|1:2,0:0:0:0:
350,230,116972,1,2,1:2:0:0:
217,285,117243,2,0,L|115:229,2,103,6|10|10,1:2|1:2|1:2,0:0:0:0:
341,328,118053,6,0,L|334:211,1,103,6|10,1:2|1:2,0:0:0:0:
233,193,118594,1,2,1:2:0:0:
105,218,118864,2,0,L|94:109,1,103,2|4,1:2|1:0,0:0:0:0:
148,84,119270,1,0,1:0:0:0:
201,74,119405,1,0,1:0:0:0:
334,222,119675,6,0,L|228:249,1,103,4|8,1:0|1:2,0:0:0:0:
126,302,120216,2,0,L|61:288,1,51.5,4|0,1:0|1:0,0:0:0:0:
140,268,120486,6,0,L|252:226,1,103,4|8,1:0|1:2,0:0:0:0:
340,207,121026,2,0,L|399:196,1,51.5,4|0,1:0|1:0,0:0:0:0:
322,155,121297,6,0,L|210:116,2,103,4|2|2,1:0|1:2|1:2,0:0:0:0:
432,201,122108,1,0,1:0:0:0:
485,102,122378,1,8,1:1:0:0:
432,201,122648,1,8,1:1:0:0:
305,229,122918,6,0,L|187:251,1,103,6|6,1:2|1:2,0:0:0:0:
337,348,123459,6,0,L|350:237,1,103,6|6,1:2|1:2,0:0:0:0:
219,247,123999,6,0,L|207:129,1,103,6|6,1:2|1:2,0:0:0:0:
72,107,124540,6,0,L|210:211,2,154.5,6|2|0,1:2|0:0|1:2,0:0:0:0:
170,59,125621,1,8,1:2:0:0:
283,50,125891,1,10,1:2:0:0:
162,67,126162,6,0,L|162:177,1,103,2|10,1:2|1:2,0:0:0:0:
260,206,126702,1,10,1:2:0:0:
377,195,126972,2,0,L|381:311,1,103,0|8,1:0|1:2,0:0:0:0:
275,343,127513,1,0,1:0:0:0:
145,345,127783,6,0,L|245:284,1,103,4|10,1:0|1:2,0:0:0:0:
336,267,128324,2,0,L|399:253,1,51.5,2|2,1:2|1:2,0:0:0:0:
321,226,128594,6,0,L|210:199,2,103,6|10|10,1:2|1:2|1:2,0:0:0:0:
455,231,129405,6,0,P|472:193|390:121,1,154.5,4|0,1:0|0:0,0:0:0:0:
352,113,129945,1,2,1:2:0:0:
237,98,130216,1,0,1:0:0:0:
360,99,130486,6,0,L|389:41,2,51.5,4|0|0,1:0|1:0|1:0,0:0:0:0:
227,142,131026,6,0,L|119:99,2,103,6|10|2,1:2|1:2|1:2,0:0:0:0:
334,166,131837,1,2,1:2:0:0:
384,249,132108,1,10,1:2:0:0:
334,166,132378,1,10,1:2:0:0:
202,216,132648,6,0,L|97:175,1,103,6|10,1:2|1:2,0:0:0:0:
157,141,133053,1,2,0:0:0:0:
215,129,133189,5,4,1:2:0:0:
331,108,133459,1,2,1:2:0:0:
206,95,133729,2,0,L|98:71,1,103,2|2,1:2|1:2,0:0:0:0:
159,46,134135,1,2,1:2:0:0:
221,42,134270,6,0,P|262:49|258:157,1,154.5,4|2,1:0|0:0,0:0:0:0:
218,161,134810,1,2,1:2:0:0:
106,203,135081,5,6,1:2:0:0:
45,288,135351,1,10,1:2:0:0:
106,203,135621,1,2,1:2:0:0:
218,161,135891,6,0,L|317:219,2,103,6|2|0,1:2|0:3|1:0,0:0:0:0:
94,202,136702,2,0,L|82:87,1,103,0|0,1:0|1:0,0:0:0:0:
188,48,137243,2,0,L|249:40,1,51.5,8|0,1:0|1:0,0:0:0:0:
303,43,137513,6,0,L|311:157,1,103,6|8,1:2|1:2,0:0:0:0:
207,179,138053,1,2,1:2:0:0:
320,233,138324,6,0,L|418:276,2,103,2|8|8,1:2|1:2|1:2,0:0:0:0:
197,295,139135,2,0,L|194:188,1,103,2|10,1:2|1:2,0:0:0:0:
303,157,139675,2,0,L|367:147,1,51.5,2|2,1:2|0:0,0:0:0:0:
292,124,139945,6,0,L|189:88,2,103,0|8|8,1:0|1:2|1:2,0:0:0:0:
426,130,140756,6,0,L|434:246,1,103,6|10,1:2|1:2,0:0:0:0:
331,270,141297,1,2,1:2:0:0:
212,298,141567,5,4,1:0:0:0:
161,286,141702,2,0,L|270:260,1,103,2|0,0:0|0:0,0:0:0:0:
314,251,142108,1,10,1:2:0:0:
183,216,142378,6,0,L|67:186,1,103,6|10,1:2|1:2,0:0:0:0:
49,162,142783,1,2,0:0:0:0:
83,190,142918,1,8,1:2:0:0:
195,201,143189,1,0,1:0:0:0:
69,264,143459,5,6,1:2:0:0:
41,223,143594,1,0,1:0:0:0:
58,176,143729,1,2,1:2:0:0:
107,165,143864,1,0,1:0:0:0:
169,165,143999,6,0,L|265:211,2,103,6|10|2,1:2|1:2|1:2,0:0:0:0:
63,180,144810,2,0,L|56:64,1,103,2|10,1:2|1:2,0:0:0:0:
161,53,145351,1,10,1:2:0:0:
290,76,145621,6,0,L|294:186,1,103,6|10,1:2|1:2,0:0:0:0:
243,198,146026,1,2,0:0:0:0:
189,202,146162,1,2,1:2:0:0:
319,277,146432,6,0,L|423:311,1,103,6|2,1:2|1:2,0:0:0:0:
313,352,146972,2,0,L|252:357,1,51.5,2|2,1:2|1:2,0:0:0:0:
201,362,147243,6,0,L|192:252,1,103,6|0,1:2|1:0,0:0:0:0:
296,230,147783,1,4,1:0:0:0:
421,168,148053,6,0,L|319:117,1,103,4|0,1:0|1:0,0:0:0:0:
226,119,148594,1,4,1:0:0:0:
95,72,148864,6,0,L|189:131,1,103,4|0,1:2|1:0,0:0:0:0:
290,152,149405,1,0,1:0:0:0:
411,122,149675,6,0,P|455:142|396:252,1,206,2|2,2:0|0:0,0:0:0:0:
272,307,150486,6,0,L|206:296,1,51.5,6|4,1:2|1:2,0:0:0:0:
112,275,150891,2,0,L|105:214,1,51.5,4|4,1:2|1:2,0:0:0:0:
235,166,151297,6,0,L|145:113,1,103,4|4,1:2|1:2,0:0:0:0:
35,109,151837,1,4,1:2:0:0:
170,38,152108,6,0,L|234:49,1,51.5,4|0,1:2|1:0,0:0:0:0:
332,84,152513,2,0,L|337:158,1,51.5,4|2,1:2|1:2,0:0:0:0:
201,160,152918,6,0,P|186:228|215:261,1,103,4|0,1:0|1:0,0:0:0:0:
303,291,153459,1,0,1:0:0:0:
428,337,153729,6,0,L|432:228,1,103,6|6,1:2|1:2,0:0:0:0:
323,202,154270,1,6,1:2:0:0:
195,147,154540,6,0,L|306:103,2,103,6|6|6,1:2|1:2|1:2,0:0:0:0:
65,184,155351,6,0,L|54:75,1,103,6|4,1:2|1:0,0:0:0:0:
159,44,155891,1,4,1:0:0:0:
285,61,156162,6,0,L|119:209,1,206,4|0,1:0|1:0,0:0:0:0:
265,255,156972,6,0,L|376:307,2,103,6|10|10,3:2|0:0|0:0,0:0:0:0:
159,260,157783,2,0,L|94:170,2,103,10|10|10,0:0|0:0|0:0,0:0:0:0:
212,268,158459,1,0,1:0:0:0:
266,273,158594,5,10,0:0:0:0:
328,218,158864,1,10,0:0:0:0:
266,273,159135,1,10,0:0:0:0:
155,266,159405,6,0,L|48:201,2,103,10|10|10,0:0|0:0|0:0,0:0:0:0:
204,273,160081,1,0,1:0:0:0:
259,277,160216,5,14,1:2:0:0:
382,255,160486,2,0,L|414:200,2,51.5,10|8|10,0:0|0:0|0:0,0:0:0:0:
247,185,161026,5,6,1:2:0:0:
256,192,161297,8,0,162378,0:0:0:0:
257,65,162648,6,0,P|308:86|244:234,1,257.5,4|0,0:0|0:0,0:0:0:0:
176,236,163459,5,4,1:2:0:0:
256,192,166702,12,0,168053,0:0:0:0:
272,147,168324,6,0,L|372:85,2,103,6|6|6,1:2|1:2|1:2,0:0:0:0:
136,223,169135,2,0,L|130:109,1,103,4|2,1:2|1:2,0:0:0:0:
233,86,169675,1,8,1:1:0:0:
367,157,169945,6,0,L|268:189,1,103,6|10,1:2|1:2,0:0:0:0:
159,226,170486,2,0,L|125:284,2,51.5,2|0|10,0:0|0:0|1:2,0:0:0:0:
277,206,171026,2,0,L|311:264,2,51.5,2|0|10,1:2|0:0|1:2,0:0:0:0:
149,160,171567,6,0,L|48:135,1,103,6|10,1:2|1:2,0:0:0:0:
172,70,172108,2,0,L|206:128,2,51.5,2|0|10,0:0|0:0|1:2,0:0:0:0:
53,114,172648,2,0,L|53:232,1,103,2|10,1:2|1:2,0:0:0:0:
188,215,173189,6,0,L|193:320,1,103,6|10,1:2|1:2,0:0:0:0:
141,346,173594,1,2,0:0:0:0:
89,353,173729,1,2,0:0:0:0:
215,298,173999,6,0,L|321:268,1,103,10|2,1:2|1:2,0:0:0:0:
342,247,174405,1,2,1:2:0:0:
314,269,174540,1,10,1:2:0:0:
185,284,174810,6,0,L|176:173,1,103,2|10,1:2|1:2,0:0:0:0:
277,137,175351,1,2,0:0:0:0:
397,121,175621,2,0,L|310:55,1,103,10|10,1:2|1:2,0:0:0:0:
205,60,176162,2,0,L|134:78,1,51.5,2|0,1:2|1:0,0:0:0:0:
221,106,176432,6,0,L|315:158,2,103,6|10|2,1:2|1:2|0:0,0:0:0:0:
110,106,177243,2,0,L|110:227,1,103,10|2,1:2|1:2,0:0:0:0:
161,229,177648,1,0,1:0:0:0:
213,237,177783,1,8,1:2:0:0:
334,314,178053,6,0,L|329:201,1,103,2|10,1:2|1:2,0:0:0:0:
230,181,178594,1,2,0:0:0:0:
103,208,178864,2,0,L|85:100,1,103,10|2,1:2|1:2,0:0:0:0:
138,76,179270,1,0,0:0:0:0:
190,67,179405,1,10,1:2:0:0:
317,118,179675,6,0,L|412:195,2,103,2|8|2,1:2|1:2|0:0,0:0:0:0:
192,233,180486,2,0,L|292:188,1,103,10|2,1:2|1:2,0:0:0:0:
313,178,180891,1,2,1:2:0:0:
285,190,181026,1,10,1:2:0:0:
151,220,181297,6,0,L|47:169,2,103,4|4|4,1:2|1:2|1:2,0:0:0:0:
281,174,182108,2,0,L|288:284,1,103,0|0,1:0|1:0,0:0:0:0:
237,297,182513,1,0,1:0:0:0:
188,310,182648,1,0,1:0:0:0:
59,304,182918,6,0,L|16:186,2,103,6|2|2,1:2|1:2|1:2,0:0:0:0:
188,323,183729,2,0,L|303:291,1,103,6|2,1:2|1:2,0:0:0:0:
238,266,184135,1,2,0:0:0:0:
185,261,184270,1,2,1:2:0:0:
315,200,184540,6,0,L|421:145,2,103,2|2|2,1:2|1:2|1:2,0:0:0:0:
188,175,185351,2,0,L|153:116,2,51.5,2|2|2,1:2|1:2|1:2,0:0:0:0:
241,200,185756,1,2,1:2:0:0:
297,208,185891,1,2,1:2:0:0:
432,166,186162,6,0,L|439:273,1,103,6|2,1:2|1:2,0:0:0:0:
384,296,186567,2,0,L|263:312,1,103,2|0,1:2|1:0,0:0:0:0:
224,307,186972,5,4,1:2:0:0:
338,254,187243,2,0,L|372:206,2,51.5,2|2|2,1:2|1:2|1:2,0:0:0:0:
208,204,187783,6,0,L|117:146,2,103,6|2|0,1:2|1:2|1:0,0:0:0:0:
321,202,188594,2,0,L|424:148,2,103,2|2|8,1:2|3:0|1:0,0:0:0:0:
187,275,189405,6,0,L|175:161,1,103,4|0,1:0|1:0,0:0:0:0:
227,147,189810,1,0,1:0:0:0:
281,140,189945,1,0,1:0:0:0:
152,81,190216,6,0,L|39:66,1,103,4|0,1:0|1:0,0:0:0:0:
23,87,190621,1,0,1:0:0:0:
48,68,190756,1,0,1:0:0:0:
183,159,191026,6,0,L|292:191,2,103,4|0|0,1:2|1:0|1:0,0:0:0:0:
48,68,191837,1,4,1:2:0:0:
24,111,191972,1,0,1:0:0:0:
45,157,192107,1,0,1:0:0:0:
94,167,192243,2,0,L|157:164,1,51.5,0|0,1:0|1:0,0:0:0:0:
279,282,192648,6,0,L|173:326,2,103,4|10|2,1:2|1:2|1:2,0:0:0:0:
402,281,193459,2,0,L|459:189,2,103,4|10|10,1:0|1:2|1:2,0:0:0:0:
274,313,194270,6,0,L|268:193,1,103,6|6,1:2|1:2,0:0:0:0:
370,177,194810,1,6,1:2:0:0:
474,161,195081,1,2,1:2:0:0:
346,93,195351,6,0,L|234:73,1,103,10|2,1:2|1:2,0:0:0:0:
192,67,195756,1,2,1:2:0:0:
134,72,195891,6,0,L|134:193,1,103,4|10,1:0|1:2,0:0:0:0:
241,206,196432,1,0,1:0:0:0:
354,185,196702,2,0,L|363:299,1,103,2|10,1:2|1:2,0:0:0:0:
310,314,197108,1,2,0:0:0:0:
258,319,197243,1,10,1:2:0:0:
125,351,197513,6,0,P|101:286|122:242,1,103,4|10,1:0|1:2,0:0:0:0:
165,235,197918,2,0,L|274:212,1,103,2|2,0:0|0:0,0:0:0:0:
324,198,198324,1,4,1:0:0:0:
209,171,198594,2,0,L|202:44,1,103,2|2,1:2|1:2,0:0:0:0:
337,37,199135,6,0,L|231:82,1,103,6|10,1:2|1:2,0:0:0:0:
184,88,199540,2,0,L|183:206,1,103,2|0,0:0|0:0,0:0:0:0:
243,198,199945,6,0,P|286:202|319:311,1,154.5,4|2,1:0|0:0,0:0:0:0:
274,311,200486,1,2,1:2:0:0:
151,317,200756,6,0,L|62:253,2,103,6|10|0,1:2|0:0|1:0,0:0:0:0:
262,320,201567,2,0,L|367:261,2,103,0|0|8,1:0|1:0|1:0,0:0:0:0:
128,331,202378,6,0,L|126:222,1,103,6|10,1:2|1:2,0:0:0:0:
226,200,202918,1,2,1:2:0:0:
346,152,203189,2,0,L|250:107,1,103,0|10,1:0|1:2,0:0:0:0:
146,84,203729,2,0,L|92:84,1,51.5,4|0,1:0|1:0,0:0:0:0:
157,101,203999,6,0,L|270:137,2,103,4|10|2,1:0|1:2|1:2,0:0:0:0:
43,129,204810,2,0,L|39:249,1,103,2|10,1:2|1:2,0:0:0:0:
142,277,205351,2,0,L|212:297,1,51.5,14|0,1:2|1:0,0:0:0:0:
249,303,205621,6,0,L|250:193,1,103,4|10,1:0|1:2,0:0:0:0:
134,153,206162,2,0,L|78:142,1,51.5,4|0,1:0|1:0,0:0:0:0:
145,119,206432,2,0,L|252:107,1,103,4|10,1:0|1:2,0:0:0:0:
355,38,206972,2,0,L|292:33,1,51.5,14|0,1:2|1:0,0:0:0:0:
243,45,207243,6,0,L|152:109,2,103,6|6|6,1:2|1:2|1:2,0:0:0:0:
375,60,208053,2,0,L|379:173,1,103,4|2,1:0|1:2,0:0:0:0:
327,191,208459,1,2,1:2:0:0:
273,197,208594,1,0,1:0:0:0:
404,278,208864,6,0,L|492:215,2,103,4|10|10,1:0|1:2|1:2,0:0:0:0:
281,298,209675,2,0,L|271:177,1,103,4|10,1:0|1:2,0:0:0:0:
326,163,210081,1,2,0:0:0:0:
379,154,210216,1,10,1:2:0:0:
248,113,210486,6,0,L|144:74,2,103,6|2|2,1:2|1:2|1:2,0:0:0:0:
300,115,211162,1,0,1:0:0:0:
353,118,211297,1,2,1:2:0:0:
234,208,211567,2,0,L|194:257,2,51.5,0|0|0,1:0|1:0|1:0,0:0:0:0:
368,300,212108,6,0,L|261:326,1,103,4|2,1:0|1:2,0:0:0:0:
206,326,212513,2,0,L|199:215,1,103,0|2,1:0|1:2,0:0:0:0:
257,200,212918,5,4,1:2:0:0:
371,131,213189,2,0,L|411:180,2,51.5,2|0|0,1:2|1:0|1:0,0:0:0:0:
237,98,213729,6,0,L|124:58,2,103,4|2|2,1:0|1:2|1:2,0:0:0:0:
357,162,214540,2,0,L|259:194,1,103,2|2,1:2|1:3,0:0:0:0:
207,207,214945,1,2,1:3:0:0:
153,214,215081,1,8,1:0:0:0:
279,223,215351,6,0,L|281:344,1,103,2|2,1:3|1:3,0:0:0:0:
230,339,215756,1,2,1:3:0:0:
177,338,215891,1,0,1:3:0:0:
230,339,216026,1,2,1:3:0:0:
283,326,216162,5,2,1:3:0:0:
139,266,216432,5,4,1:0:0:0:
256,192,216702,8,0,222581,0:0:0:0:
