osu file format v14

[General]
AudioFilename: audio.mp3
AudioLeadIn: 0
PreviewTime: 22878
Countdown: 0
SampleSet: Normal
StackLeniency: 0.7
Mode: 1
LetterboxInBreaks: 0
WidescreenStoryboard: 0

[Editor]
DistanceSpacing: 1.5
BeatDivisor: 4
GridSize: 32
TimelineZoom: 4.000004

[Metadata]
Title:Funkotsu Saishin Casinou
TitleUnicode:粉骨砕身カジノゥ
Artist:Morimori Atsushi
ArtistUnicode:モリモリあつし
Creator:EdamaMe411
Version:Gambling
Source:
Tags:
BeatmapID:1749737
BeatmapSetID:835418

[Difficulty]
HPDrainRate:7
CircleSize:5
OverallDifficulty:4
ApproachRate:5
SliderMultiplier:1.4
SliderTickRate:1

[Events]
//Background and Video events
0,0,"b8915791edc44390354f0b8b9678a513.png",0,70
//Break Periods
//Storyboard Layer 0 (Background)
//Storyboard Layer 1 (Fail)
//Storyboard Layer 2 (Pass)
//Storyboard Layer 3 (Foreground)
//Storyboard Sound Samples

[TimingPoints]
1212,303.030303030303,4,1,0,80,1,0
1212,-125,4,1,0,80,0,0
6666,-117.647058823529,4,1,0,80,0,0
7272,-111.111111111111,4,1,0,80,0,0
7878,-105.263157894737,4,1,0,80,0,0
8484,-100,4,1,0,80,0,0
10113,-97.0873786407767,4,1,0,80,0,0
10189,-94.3396226415094,4,1,0,80,0,0
10265,-91.743119266055,4,1,0,80,0,0
10340,-89.2857142857143,4,1,0,80,0,0
10416,-86.9565217391304,4,1,0,80,0,0
10492,-84.7457627118644,4,1,0,80,0,0
10568,-82.6446280991736,4,1,0,80,0,0
10908,-90.9090909090909,4,1,0,80,0,0
20568,-83.3333333333333,4,1,0,80,0,0
20871,-76.9230769230769,4,1,0,80,0,0
21174,-71.4285714285714,4,1,0,80,0,0
21477,-66.6666666666667,4,1,0,80,0,0
21780,-90.9090909090909,4,1,0,80,0,0
21780,-62.5,4,1,0,80,0,0
22765,-66.6666666666667,4,1,0,80,0,0
22840,-71.4285714285714,4,1,0,80,0,0
22916,-76.9230769230769,4,1,0,80,0,0
22992,-83.3333333333333,4,1,0,80,0,0
23068,-100,4,1,0,80,0,0
27196,-71.4285714285714,4,1,0,80,0,0
27651,-100,4,1,0,80,0,0
29999,-33.3333333333333,4,1,0,80,0,0
30189,-100,4,1,0,80,0,0
42537,-90.9090909090909,4,1,0,80,0,0
42575,303.030303030303,4,1,0,80,1,8
42575,-25,4,1,0,80,0,0
42576,303.030303030303,4,1,0,80,1,0
42613,-100,4,1,0,80,0,0
42840,-90.9090909090909,4,1,0,80,0,0
42878,303.030303030303,4,1,0,80,1,8
42878,-25,4,1,0,80,0,0
42879,303.030303030303,4,1,0,80,1,0
42916,-100,4,1,0,80,0,0
43143,-90.9090909090909,4,1,0,80,0,0
43181,303.030303030303,4,1,0,80,1,8
43181,-25,4,1,0,80,0,0
43182,303.030303030303,4,1,0,80,1,0
43219,-100,4,1,0,80,0,0
43446,-90.9090909090909,4,1,0,80,0,0
43484,303.030303030303,4,1,0,80,1,8
43484,-25,4,1,0,80,0,0
43485,303.030303030303,4,1,0,80,1,0
43749,-90.9090909090909,4,1,0,80,0,0
43787,303.030303030303,4,1,0,80,1,8
43787,-25,4,1,0,80,0,0
43788,303.030303030303,4,1,0,80,1,0
43825,-100,4,1,0,80,0,0
44052,-90.9090909090909,4,1,0,80,0,0
44090,303.030303030303,4,1,0,80,1,8
44090,-25,4,1,0,80,0,0
44091,303.030303030303,4,1,0,80,1,0
44128,-100,4,1,0,80,0,0
44355,-90.9090909090909,4,1,0,80,0,0
44393,303.030303030303,4,1,0,80,1,8
44393,-25,4,1,0,80,0,0
44394,303.030303030303,4,1,0,80,1,0
44431,-100,4,1,0,80,0,0
44658,-90.9090909090909,4,1,0,80,0,0
44696,303.030303030303,4,1,0,80,1,8
44696,-25,4,1,0,80,0,0
44697,303.030303030303,4,1,0,80,1,0
44733,-100,4,1,0,80,0,0
44962,-90.9090909090909,4,1,0,80,0,0
44999,303.030303030303,4,1,0,80,1,8
44999,-25,4,1,0,80,0,0
45000,303.030303030303,4,1,0,80,1,0
45037,-100,4,1,0,80,0,0
45265,-90.9090909090909,4,1,0,80,0,0
45302,303.030303030303,4,1,0,80,1,8
45302,-25,4,1,0,80,0,0
45303,303.030303030303,4,1,0,80,1,0
45340,-100,4,1,0,80,0,0
45568,-90.9090909090909,4,1,0,80,0,0
45605,303.030303030303,4,1,0,80,1,8
45605,-25,4,1,0,80,0,0
45606,303.030303030303,4,1,0,80,1,0
45643,-100,4,1,0,80,0,0
45871,-90.9090909090909,4,1,0,80,0,0
45908,303.030303030303,4,1,0,80,1,8
45908,-25,4,1,0,80,0,0
45909,303.030303030303,4,1,0,80,1,0
45946,-100,4,1,0,80,0,0
46174,-90.9090909090909,4,1,0,80,0,0
46212,303.030303030303,4,1,0,80,1,8
46212,-25,4,1,0,80,0,0
46213,303.030303030303,4,1,0,80,1,0
46249,-100,4,1,0,80,0,0
46477,-90.9090909090909,4,1,0,80,0,0
46515,303.030303030303,4,1,0,80,1,0
46516,-25,4,1,0,80,0,0
46517,303.030303030303,4,1,0,80,1,8
46552,-100,4,1,0,80,0,0
46780,-90.9090909090909,4,1,0,80,0,0
46818,303.030303030303,4,1,0,80,1,8
46818,-25,4,1,0,80,0,0
46819,303.030303030303,4,1,0,80,1,0
46855,-100,4,1,0,80,0,0
47083,-90.9090909090909,4,1,0,80,0,0
47120,303.030303030303,4,1,0,80,1,8
47120,-25,4,1,0,80,0,0
47121,303.030303030303,4,1,0,80,1,0
47158,-100,4,1,0,80,0,0
47386,-90.9090909090909,4,1,0,80,0,0
47423,303.030303030303,4,1,0,80,1,8
47423,-25,4,1,0,80,0,0
47424,303.030303030303,4,1,0,80,1,0
47462,-100,4,1,0,80,0,0
47689,-90.9090909090909,4,1,0,80,0,0
47727,303.030303030303,4,1,0,80,1,0
47727,-25,4,1,0,80,0,0
47728,303.030303030303,4,1,0,80,1,8
47765,-100,4,1,0,80,0,0
47992,-90.9090909090909,4,1,0,80,0,0
48029,303.030303030303,4,1,0,80,1,8
48029,-25,4,1,0,80,0,0
48030,303.030303030303,4,1,0,80,1,0
48068,-100,4,1,0,80,0,0
48295,-90.9090909090909,4,1,0,80,0,0
48332,303.030303030303,4,1,0,80,1,8
48332,-25,4,1,0,80,0,0
48333,303.030303030303,4,1,0,80,1,0
48371,-100,4,1,0,80,0,0
48598,-90.9090909090909,4,1,0,80,0,0
48635,303.030303030303,4,1,0,80,1,8
48635,-25,4,1,0,80,0,0
48636,303.030303030303,4,1,0,80,1,0
48674,-100,4,1,0,80,0,0
48901,-90.9090909090909,4,1,0,80,0,0
48938,303.030303030303,4,1,0,80,1,8
48938,-25,4,1,0,80,0,0
48939,303.030303030303,4,1,0,80,1,0
48977,-100,4,1,0,80,0,0
49204,-90.9090909090909,4,1,0,80,0,0
49241,303.030303030303,4,1,0,80,1,8
49241,-25,4,1,0,80,0,0
49242,303.030303030303,4,1,0,80,1,0
49280,-100,4,1,0,80,0,0
49507,-90.9090909090909,4,1,0,80,0,0
49544,303.030303030303,4,1,0,80,1,8
49544,-25,4,1,0,80,0,0
49545,303.030303030303,4,1,0,80,1,0
49583,-100,4,1,0,80,0,0
49848,303.030303030303,4,1,0,80,1,8
49848,-25,4,1,0,80,0,0
49849,303.030303030303,4,1,0,80,1,0
49886,-100,4,1,0,80,0,0
50113,-90.9090909090909,4,1,0,80,0,0
50150,303.030303030303,4,1,0,80,1,8
50150,-25,4,1,0,80,0,0
50151,303.030303030303,4,1,0,80,1,0
50189,-100,4,1,0,80,0,0
50416,-90.9090909090909,4,1,0,80,0,0
50453,303.030303030303,4,1,0,80,1,8
50453,-25,4,1,0,80,0,0
50454,303.030303030303,4,1,0,80,1,0
50492,-100,4,1,0,80,0,0
50719,-90.9090909090909,4,1,0,80,0,0
50757,303.030303030303,4,1,0,80,1,8
50757,-25,4,1,0,80,0,0
50760,303.030303030303,4,1,0,80,1,0
50795,-100,4,1,0,80,0,0
50908,303.030303030303,4,1,0,80,1,8
56324,-71.4285714285714,4,1,0,80,0,0
57006,-100,4,1,0,80,0,0
64242,454.545454545455,4,1,0,70,1,0
64242,-66.6666666666667,4,1,0,70,0,0
87821,-62.5,4,1,0,70,0,0
87935,-66.6666666666667,4,1,0,70,0,0
89639,-58.8235294117647,4,1,0,70,0,0
89753,-66.6666666666667,4,1,0,70,0,0
90492,-66.6666666666667,4,1,0,70,0,0
90548,-55.5555555555556,4,1,0,70,0,0
90662,-66.6666666666667,4,1,0,70,0,0
91457,-52.6315789473684,4,1,0,70,0,0
91571,-66.6666666666667,4,1,0,70,0,0
91912,-50,4,1,0,70,0,0
92026,-66.6666666666667,4,1,0,70,0,0
92367,-33.3333333333333,4,1,0,70,0,0
92480,-66.6666666666667,4,1,0,70,0,0
92821,-25,4,1,0,70,0,0
92935,-66.6666666666667,4,1,0,70,0,0
93306,-25,4,1,0,80,0,0
93332,303.030303030303,4,1,0,80,1,0
93332,-25,4,1,0,80,0,0
94342,-83.3333333333333,4,1,0,80,0,0
94518,-76.9230769230769,4,1,0,80,0,0
94569,-83.3333333333333,4,1,0,80,0,0
94821,-71.4285714285714,4,1,0,80,0,0
94872,-83.3333333333333,4,1,0,80,0,0
95124,-66.6666666666667,4,1,0,80,0,0
95175,-83.3333333333333,4,1,0,80,0,0
95402,-62.5,4,1,0,80,0,0
95680,-83.3333333333333,4,1,0,80,0,1
105730,-66.6666666666667,4,1,0,80,0,0
105781,-83.3333333333333,4,1,0,80,0,1
115124,-76.9230769230769,4,1,0,80,0,0
115175,-83.3333333333333,4,1,0,80,0,0
115427,-66.6666666666667,4,1,0,80,0,0
115503,-83.3333333333333,4,1,0,80,0,0
115730,-58.8235294117647,4,1,0,80,0,0
115781,-83.3333333333333,4,1,0,80,0,0
116034,-52.6315789473684,4,1,0,80,0,0
116084,-83.3333333333333,4,1,0,80,0,0
116337,-47.6190476190476,4,1,0,80,0,0
116387,-83.3333333333333,4,1,0,80,0,0

[HitObjects]
256,192,1212,5,4,0:0:0:0:
256,192,1818,1,0,0:0:0:0:
256,224,2272,1,2,0:0:0:0:
256,192,2424,1,0,0:0:0:0:
256,224,2727,1,2,0:0:0:0:
256,224,3030,1,0,0:0:0:0:
256,192,3333,1,2,0:0:0:0:
256,192,3484,1,2,0:0:0:0:
256,160,3636,1,0,0:0:0:0:
256,192,3939,1,2,0:0:0:0:
256,192,4242,1,0,0:0:0:0:
224,192,4545,1,2,0:0:0:0:
256,224,4696,1,2,0:0:0:0:
256,224,4848,1,0,0:0:0:0:
288,160,4999,1,2,0:0:0:0:
256,224,5302,1,2,0:0:0:0:
256,224,5454,1,0,0:0:0:0:
256,224,5605,1,2,0:0:0:0:
256,224,5757,1,0,0:0:0:0:
256,224,5908,1,0,0:0:0:0:
256,224,6060,1,6,0:0:0:0:
256,224,6666,1,6,0:0:0:0:
256,192,7272,1,6,0:0:0:0:
256,192,7878,1,6,0:0:0:0:
256,224,8484,1,0,0:0:0:0:
256,224,8636,1,0,0:0:0:0:
256,224,8787,1,0,0:0:0:0:
256,192,8939,1,2,0:0:0:0:
256,224,9090,1,0,0:0:0:0:
256,224,9242,1,0,0:0:0:0:
256,224,9393,1,2,0:0:0:0:
256,192,9545,1,2,0:0:0:0:
288,224,9621,1,2,0:0:0:0:
256,192,9696,1,0,0:0:0:0:
256,192,9848,1,0,0:0:0:0:
256,224,9924,1,0,0:0:0:0:
256,224,9999,1,2,0:0:0:0:
256,192,10151,1,2,0:0:0:0:
256,192,10227,1,2,0:0:0:0:
256,192,10302,1,0,0:0:0:0:
256,192,10378,1,2,0:0:0:0:
256,192,10454,1,0,0:0:0:0:
288,224,10530,1,0,0:0:0:0:
256,192,10605,1,2,0:0:0:0:
288,192,10908,1,4,0:0:0:0:
288,192,11060,1,2,0:0:0:0:
288,192,11136,1,2,0:0:0:0:
288,192,11212,1,0,0:0:0:0:
288,192,11363,1,2,0:0:0:0:
288,192,11515,1,0,0:0:0:0:
288,192,11590,1,0,0:0:0:0:
288,192,11666,1,2,0:0:0:0:
288,192,11742,1,0,0:0:0:0:
288,192,11818,1,2,0:0:0:0:
288,192,11969,1,0,0:0:0:0:
288,192,12045,1,0,0:0:0:0:
288,192,12121,1,2,0:0:0:0:
288,192,12272,1,2,0:0:0:0:
288,192,12348,1,0,0:0:0:0:
288,192,12424,1,2,0:0:0:0:
256,192,12575,1,2,0:0:0:0:
256,192,12727,1,0,0:0:0:0:
256,160,12802,1,0,0:0:0:0:
256,192,12878,1,2,0:0:0:0:
256,192,13030,1,2,0:0:0:0:
256,160,13181,1,0,0:0:0:0:
256,192,13333,1,2,0:0:0:0:
256,192,13484,1,2,0:0:0:0:
256,192,13560,1,2,0:0:0:0:
256,192,13636,1,0,0:0:0:0:
256,160,13787,1,2,0:0:0:0:
256,192,13939,1,0,0:0:0:0:
256,192,14015,1,2,0:0:0:0:
256,192,14090,1,2,0:0:0:0:
256,192,14242,1,2,0:0:0:0:
256,192,14393,1,2,0:0:0:0:
256,192,14469,1,0,0:0:0:0:
256,192,14545,1,2,0:0:0:0:
256,192,14621,1,2,0:0:0:0:
256,192,14772,1,2,0:0:0:0:
256,192,14848,1,0,0:0:0:0:
256,160,14999,1,2,0:0:0:0:
256,192,15151,1,0,0:0:0:0:
256,192,15227,1,0,0:0:0:0:
256,192,15302,1,0,0:0:0:0:
256,192,15378,1,2,0:0:0:0:
256,192,15454,1,0,0:0:0:0:
256,160,15605,1,2,0:0:0:0:
256,160,15757,1,0,0:0:0:0:
256,160,15833,1,0,0:0:0:0:
256,192,15908,1,2,0:0:0:0:
256,192,15984,1,2,0:0:0:0:
256,192,16060,1,0,0:0:0:0:
256,192,16136,1,0,0:0:0:0:
256,192,16211,1,2,0:0:0:0:
256,192,16287,1,2,0:0:0:0:
256,192,16363,1,0,0:0:0:0:
256,192,16439,1,0,0:0:0:0:
256,192,16515,1,0,0:0:0:0:
256,192,16590,1,2,0:0:0:0:
256,192,16666,1,0,0:0:0:0:
256,160,16818,1,2,0:0:0:0:
256,160,16969,1,0,0:0:0:0:
256,160,17045,1,0,0:0:0:0:
256,160,17121,1,2,0:0:0:0:
256,160,17196,1,2,0:0:0:0:
256,160,17272,1,0,0:0:0:0:
256,160,17348,1,2,0:0:0:0:
256,160,17424,1,0,0:0:0:0:
256,128,17499,1,0,0:0:0:0:
256,160,17575,1,2,0:0:0:0:
256,160,17651,1,2,0:0:0:0:
256,160,17727,1,2,0:0:0:0:
256,160,17802,1,0,0:0:0:0:
256,160,17878,1,2,0:0:0:0:
256,128,17954,1,2,0:0:0:0:
256,128,18030,1,2,0:0:0:0:
224,96,18105,1,0,0:0:0:0:
224,160,18181,1,2,0:0:0:0:
288,224,18232,1,2,0:0:0:0:
288,224,18282,1,2,0:0:0:0:
256,192,18333,1,0,0:0:0:0:
288,224,18408,1,0,0:0:0:0:
256,192,18484,1,2,0:0:0:0:
256,192,18636,1,0,0:0:0:0:
256,192,18712,1,0,0:0:0:0:
256,192,18787,1,2,0:0:0:0:
256,192,18939,1,2,0:0:0:0:
256,192,19015,1,0,0:0:0:0:
256,192,19090,1,2,0:0:0:0:
256,192,19242,1,2,0:0:0:0:
256,224,19393,1,0,0:0:0:0:
224,224,19444,1,0,0:0:0:0:
224,224,19494,1,0,0:0:0:0:
224,224,19545,1,0,0:0:0:0:
224,224,19595,1,0,0:0:0:0:
224,224,19646,1,0,0:0:0:0:
224,224,19696,1,0,0:0:0:0:
224,224,19747,1,0,0:0:0:0:
224,224,19797,1,0,0:0:0:0:
224,224,19848,1,0,0:0:0:0:
224,224,19898,1,0,0:0:0:0:
224,224,19949,1,0,0:0:0:0:
224,224,19999,1,2,0:0:0:0:
224,192,20151,1,0,0:0:0:0:
224,192,20302,1,2,0:0:0:0:
320,96,20454,1,2,0:0:0:0:
256,160,20504,1,2,0:0:0:0:
288,192,20605,1,4,0:0:0:0:
256,192,20908,1,4,0:0:0:0:
288,224,21211,1,4,0:0:0:0:
288,224,21515,1,4,0:0:0:0:
288,224,21818,1,6,0:0:0:0:
288,224,21969,1,2,0:0:0:0:
288,256,22045,1,2,0:0:0:0:
256,192,22196,1,2,0:0:0:0:
256,160,22272,1,0,0:0:0:0:
256,192,22348,1,0,0:0:0:0:
256,160,22424,1,2,0:0:0:0:
256,192,22499,1,2,0:0:0:0:
256,192,22575,1,0,0:0:0:0:
256,192,22626,1,0,0:0:0:0:
256,192,22676,1,0,0:0:0:0:
256,192,22727,1,2,0:0:0:0:
288,160,22802,1,2,0:0:0:0:
288,224,22878,1,2,0:0:0:0:
288,160,22954,1,2,0:0:0:0:
288,160,23030,1,0,0:0:0:0:
224,192,23257,1,0,0:0:0:0:
256,192,23333,1,2,0:0:0:0:
256,192,23408,1,0,0:0:0:0:
224,192,23560,1,0,0:0:0:0:
224,192,23636,1,2,0:0:0:0:
224,160,23787,1,2,0:0:0:0:
224,160,23939,1,2,0:0:0:0:
224,160,24090,1,0,0:0:0:0:
224,160,24242,1,2,0:0:0:0:
224,160,24318,1,2,0:0:0:0:
224,160,24393,1,2,0:0:0:0:
224,192,24469,1,2,0:0:0:0:
224,192,24545,1,0,0:0:0:0:
224,192,24696,1,0,0:0:0:0:
224,192,24848,1,2,0:0:0:0:
224,192,24999,1,0,0:0:0:0:
224,192,25075,1,0,0:0:0:0:
224,192,25151,1,2,0:0:0:0:
224,192,25454,1,2,0:0:0:0:
224,192,25605,1,2,0:0:0:0:
224,192,25757,1,0,0:0:0:0:
192,192,25908,1,0,0:0:0:0:
192,160,25959,1,0,0:0:0:0:
192,160,26009,1,0,0:0:0:0:
192,160,26060,1,2,0:0:0:0:
192,160,26211,1,0,0:0:0:0:
192,160,26363,1,2,0:0:0:0:
192,160,26515,1,2,0:0:0:0:
192,128,26666,1,0,0:0:0:0:
192,128,26818,1,0,0:0:0:0:
192,128,26893,1,2,0:0:0:0:
192,128,26969,1,2,0:0:0:0:
192,128,27121,1,0,0:0:0:0:
192,128,27272,1,6,0:0:0:0:
192,128,27424,1,6,0:0:0:0:
224,128,27575,1,6,0:0:0:0:
224,160,27727,1,0,0:0:0:0:
224,160,27802,1,0,0:0:0:0:
224,160,27878,1,0,0:0:0:0:
192,160,28030,1,2,0:0:0:0:
192,160,28333,1,2,0:0:0:0:
192,160,28484,1,0,0:0:0:0:
192,160,28560,1,0,0:0:0:0:
192,160,28636,1,2,0:0:0:0:
224,192,28787,1,0,0:0:0:0:
192,160,28939,1,2,0:0:0:0:
224,192,29015,1,0,0:0:0:0:
224,192,29090,1,2,0:0:0:0:
192,224,29242,1,2,0:0:0:0:
224,192,29393,1,0,0:0:0:0:
224,192,29444,1,0,0:0:0:0:
224,192,29494,1,0,0:0:0:0:
224,192,29545,1,0,0:0:0:0:
224,192,29595,1,0,0:0:0:0:
224,192,29646,1,0,0:0:0:0:
224,192,29696,1,2,0:0:0:0:
224,192,29848,1,0,0:0:0:0:
128,192,29999,2,0,L|224:192,3,70
256,224,30302,1,0,0:0:0:0:
256,224,30454,1,0,0:0:0:0:
256,224,30605,1,2,0:0:0:0:
224,160,30681,1,2,0:0:0:0:
256,160,30757,1,2,0:0:0:0:
256,160,30833,1,0,0:0:0:0:
256,160,30908,1,2,0:0:0:0:
256,192,30959,1,0,0:0:0:0:
256,192,31009,1,0,0:0:0:0:
256,192,31060,1,0,0:0:0:0:
320,128,31136,1,0,0:0:0:0:
320,128,31211,1,2,0:0:0:0:
256,192,31363,1,2,0:0:0:0:
256,192,31414,1,2,0:0:0:0:
256,192,31464,1,2,0:0:0:0:
256,192,31515,1,0,0:0:0:0:
256,192,31666,1,0,0:0:0:0:
256,192,31818,1,2,0:0:0:0:
320,160,31969,1,2,0:0:0:0:
288,160,32121,1,0,0:0:0:0:
256,128,32196,1,0,0:0:0:0:
256,128,32272,1,0,0:0:0:0:
256,128,32348,1,0,0:0:0:0:
256,128,32424,1,2,0:0:0:0:
288,160,32727,1,4,0:0:0:0:
256,192,32878,1,2,0:0:0:0:
256,192,33030,1,0,0:0:0:0:
256,192,33105,1,0,0:0:0:0:
256,192,33181,1,2,0:0:0:0:
256,192,33333,1,0,0:0:0:0:
256,192,33484,1,2,0:0:0:0:
256,192,33560,1,0,0:0:0:0:
256,192,33636,1,0,0:0:0:0:
224,192,33712,1,2,0:0:0:0:
256,192,33787,1,2,0:0:0:0:
224,192,33939,1,2,0:0:0:0:
224,192,34090,1,0,0:0:0:0:
224,192,34166,1,0,0:0:0:0:
224,192,34242,1,2,0:0:0:0:
224,192,34292,1,2,0:0:0:0:
224,192,34343,1,2,0:0:0:0:
224,192,34393,1,2,0:0:0:0:
224,192,34444,1,2,0:0:0:0:
224,192,34494,1,2,0:0:0:0:
224,192,34545,1,0,0:0:0:0:
224,192,34696,1,0,0:0:0:0:
256,160,34848,1,2,0:0:0:0:
256,160,35151,1,2,0:0:0:0:
224,128,35302,1,0,0:0:0:0:
256,160,35454,1,2,0:0:0:0:
256,192,35605,1,2,0:0:0:0:
256,160,35681,1,0,0:0:0:0:
256,224,35757,1,0,0:0:0:0:
256,224,35833,1,2,0:0:0:0:
256,192,35908,1,2,0:0:0:0:
256,224,36060,1,2,0:0:0:0:
256,224,36212,1,0,0:0:0:0:
256,256,36262,1,0,0:0:0:0:
256,224,36313,1,2,0:0:0:0:
256,224,36363,1,2,0:0:0:0:
256,192,36439,1,0,0:0:0:0:
256,192,36590,1,2,0:0:0:0:
256,192,36666,1,0,0:0:0:0:
256,192,36742,1,0,0:0:0:0:
256,192,36893,1,0,0:0:0:0:
256,192,36969,1,2,0:0:0:0:
256,192,37045,1,2,0:0:0:0:
256,192,37121,1,0,0:0:0:0:
256,192,37196,1,0,0:0:0:0:
256,192,37272,1,2,0:0:0:0:
256,192,37424,1,2,0:0:0:0:
256,192,37499,1,2,0:0:0:0:
256,192,37575,1,0,0:0:0:0:
288,192,37727,1,2,0:0:0:0:
288,192,37878,1,0,0:0:0:0:
288,192,38030,1,2,0:0:0:0:
256,160,38105,1,0,0:0:0:0:
288,224,38257,1,0,0:0:0:0:
288,224,38333,1,2,0:0:0:0:
288,224,38484,1,2,0:0:0:0:
288,192,38560,1,0,0:0:0:0:
288,224,38636,1,0,0:0:0:0:
288,192,38712,1,0,0:0:0:0:
256,192,38787,1,2,0:0:0:0:
256,224,38939,1,2,0:0:0:0:
256,224,39090,1,0,0:0:0:0:
224,192,39242,1,2,0:0:0:0:
224,192,39318,1,0,0:0:0:0:
224,192,39469,1,0,0:0:0:0:
224,192,39545,1,2,0:0:0:0:
160,224,39621,1,0,0:0:0:0:
192,224,39696,1,2,0:0:0:0:
192,224,39848,1,2,0:0:0:0:
256,224,39924,1,2,0:0:0:0:
256,224,39974,1,2,0:0:0:0:
256,224,40024,1,2,0:0:0:0:
256,256,40075,1,2,0:0:0:0:
192,224,40151,1,0,0:0:0:0:
256,224,40227,1,0,0:0:0:0:
256,224,40302,1,2,0:0:0:0:
256,224,40454,1,2,0:0:0:0:
256,224,40605,1,2,0:0:0:0:
288,192,40656,1,0,0:0:0:0:
288,192,40706,1,0,0:0:0:0:
288,192,40757,1,2,0:0:0:0:
320,192,40833,1,0,0:0:0:0:
256,160,40984,1,0,0:0:0:0:
256,192,41060,1,2,0:0:0:0:
288,256,41212,1,0,0:0:0:0:
288,224,41287,1,0,0:0:0:0:
288,224,41363,1,2,0:0:0:0:
288,224,41439,1,2,0:0:0:0:
288,224,41515,1,2,0:0:0:0:
288,224,41590,1,0,0:0:0:0:
288,224,41666,1,2,0:0:0:0:
288,224,41742,1,0,0:0:0:0:
320,192,41818,1,2,0:0:0:0:
320,192,41868,1,2,0:0:0:0:
320,224,41919,1,2,0:0:0:0:
320,224,41969,1,2,0:0:0:0:
320,224,42020,1,2,0:0:0:0:
320,224,42070,1,2,0:0:0:0:
320,224,42121,1,0,0:0:0:0:
320,192,42272,1,0,0:0:0:0:
288,224,42424,1,0,0:0:0:0:
288,224,42575,1,2,0:0:0:0:
288,192,42727,1,0,0:0:0:0:
256,224,42803,1,0,0:0:0:0:
288,224,42878,1,2,0:0:0:0:
256,224,43030,1,0,0:0:0:0:
288,224,43181,1,2,0:0:0:0:
256,224,43257,1,0,0:0:0:0:
256,224,43408,1,0,0:0:0:0:
288,224,43484,1,2,0:0:0:0:
256,224,43636,1,0,0:0:0:0:
288,224,43787,1,2,0:0:0:0:
288,224,43939,1,0,0:0:0:0:
288,224,44015,1,0,0:0:0:0:
288,224,44090,1,2,0:0:0:0:
288,224,44242,1,0,0:0:0:0:
288,224,44393,1,2,0:0:0:0:
288,224,44469,1,0,0:0:0:0:
256,224,44621,1,0,0:0:0:0:
288,224,44696,1,2,0:0:0:0:
256,224,44848,1,0,0:0:0:0:
288,224,44999,1,2,0:0:0:0:
256,192,45151,1,0,0:0:0:0:
256,224,45227,1,0,0:0:0:0:
288,224,45302,1,2,0:0:0:0:
288,192,45454,1,0,0:0:0:0:
288,224,45605,1,2,0:0:0:0:
288,192,45681,1,0,0:0:0:0:
288,192,45833,1,0,0:0:0:0:
288,224,45908,1,2,0:0:0:0:
288,192,46060,1,0,0:0:0:0:
288,224,46212,1,2,0:0:0:0:
288,192,46363,1,0,0:0:0:0:
288,192,46440,1,0,0:0:0:0:
288,224,46516,1,2,0:0:0:0:
288,192,46668,1,0,0:0:0:0:
288,224,46818,1,2,0:0:0:0:
288,192,46892,1,0,0:0:0:0:
288,192,47044,1,0,0:0:0:0:
288,224,47120,1,2,0:0:0:0:
288,192,47272,1,0,0:0:0:0:
288,224,47423,1,2,0:0:0:0:
288,192,47575,1,0,0:0:0:0:
288,192,47651,1,0,0:0:0:0:
288,224,47727,1,2,0:0:0:0:
288,192,47878,1,0,0:0:0:0:
288,224,48029,1,2,0:0:0:0:
288,192,48105,1,0,0:0:0:0:
271,215,48181,1,0,0:0:0:0:
288,192,48257,1,0,0:0:0:0:
288,224,48332,1,2,0:0:0:0:
256,160,48484,1,0,0:0:0:0:
288,224,48635,1,2,0:0:0:0:
256,192,48787,1,0,0:0:0:0:
256,192,48863,1,0,0:0:0:0:
288,256,48938,1,2,0:0:0:0:
256,160,49090,1,0,0:0:0:0:
288,256,49241,1,2,0:0:0:0:
256,160,49318,1,0,0:0:0:0:
276,229,49393,1,0,0:0:0:0:
256,160,49469,1,0,0:0:0:0:
288,256,49544,1,2,0:0:0:0:
256,160,49696,1,0,0:0:0:0:
288,256,49848,1,2,0:0:0:0:
256,160,50000,1,0,0:0:0:0:
256,160,50075,1,0,0:0:0:0:
288,256,50150,1,2,0:0:0:0:
256,160,50302,1,0,0:0:0:0:
288,256,50453,1,2,0:0:0:0:
256,160,50529,1,0,0:0:0:0:
276,232,50605,1,0,0:0:0:0:
256,192,50681,1,0,0:0:0:0:
288,256,50757,1,2,0:0:0:0:
288,256,50908,1,4,0:0:0:0:
256,128,51212,1,0,0:0:0:0:
256,192,51363,1,2,0:0:0:0:
256,128,51439,1,2,0:0:0:0:
256,128,51515,1,0,0:0:0:0:
288,224,51590,1,0,0:0:0:0:
256,192,51666,1,2,0:0:0:0:
256,128,51742,1,0,0:0:0:0:
256,128,51818,1,2,0:0:0:0:
384,160,51868,1,2,0:0:0:0:
352,160,51919,1,2,0:0:0:0:
352,160,51969,1,0,0:0:0:0:
352,160,52020,1,0,0:0:0:0:
256,160,52070,1,0,0:0:0:0:
256,160,52121,1,2,0:0:0:0:
288,160,52424,1,2,0:0:0:0:
256,160,53030,1,2,0:0:0:0:
256,160,53333,1,0,0:0:0:0:
256,160,53636,1,2,0:0:0:0:
256,160,54242,1,2,0:0:0:0:
256,160,54545,1,0,0:0:0:0:
256,224,54696,1,0,0:0:0:0:
256,160,54848,1,2,0:0:0:0:
256,192,55454,1,2,0:0:0:0:
256,192,55757,1,0,0:0:0:0:
256,192,56060,1,2,0:0:0:0:
256,192,56363,1,4,0:0:0:0:
256,192,56590,1,4,0:0:0:0:
256,192,56818,1,4,0:0:0:0:
256,192,56969,1,4,0:0:0:0:
256,192,57272,1,2,0:0:0:0:
256,192,57424,1,0,0:0:0:0:
256,224,57727,1,0,0:0:0:0:
256,192,57878,1,2,0:0:0:0:
288,192,58030,1,2,0:0:0:0:
288,224,58181,1,0,0:0:0:0:
256,192,58484,1,0,0:0:0:0:
288,192,58636,1,2,0:0:0:0:
288,224,58787,1,0,0:0:0:0:
288,224,58939,1,0,0:0:0:0:
288,224,59090,1,2,0:0:0:0:
288,224,59242,1,2,0:0:0:0:
288,224,59318,1,2,0:0:0:0:
288,224,59393,1,0,0:0:0:0:
256,224,59545,1,0,0:0:0:0:
256,192,59621,1,0,0:0:0:0:
256,192,59696,1,0,0:0:0:0:
256,192,59848,1,0,0:0:0:0:
256,192,59924,1,0,0:0:0:0:
256,192,59999,1,2,0:0:0:0:
256,192,60151,1,0,0:0:0:0:
256,192,60227,1,2,0:0:0:0:
256,192,60302,1,2,0:0:0:0:
256,192,60454,1,2,0:0:0:0:
256,192,60530,1,0,0:0:0:0:
256,192,60605,1,2,0:0:0:0:
288,160,60656,1,2,0:0:0:0:
288,160,60706,1,2,0:0:0:0:
288,160,60757,1,0,0:0:0:0:
288,160,60833,1,0,0:0:0:0:
288,160,60908,1,2,0:0:0:0:
288,160,60959,1,2,0:0:0:0:
288,160,61009,1,2,0:0:0:0:
288,160,61060,1,0,0:0:0:0:
288,160,61136,1,0,0:0:0:0:
288,160,61211,1,2,0:0:0:0:
320,192,61287,1,0,0:0:0:0:
256,192,61439,1,0,0:0:0:0:
256,192,61515,1,2,0:0:0:0:
256,192,61565,1,0,0:0:0:0:
256,192,61616,1,0,0:0:0:0:
256,192,61666,1,0,0:0:0:0:
256,192,61717,1,0,0:0:0:0:
256,192,61767,1,0,0:0:0:0:
256,192,61818,1,2,0:0:0:0:
256,192,62045,1,0,0:0:0:0:
256,192,62121,1,2,0:0:0:0:
256,192,62272,1,0,0:0:0:0:
256,224,62348,1,0,0:0:0:0:
256,224,62424,1,2,0:0:0:0:
320,224,62575,1,0,0:0:0:0:
320,224,62626,1,0,0:0:0:0:
224,160,62676,1,0,0:0:0:0:
256,224,62727,1,2,0:0:0:0:
256,64,62878,1,0,0:0:0:0:
256,192,62916,1,0,0:0:0:0:
256,192,62954,1,0,0:0:0:0:
256,192,62992,1,0,0:0:0:0:
256,224,63030,1,2,0:0:0:0:
288,224,63105,1,2,0:0:0:0:
288,224,63181,1,0,0:0:0:0:
288,224,63257,1,0,0:0:0:0:
288,224,63333,1,0,0:0:0:0:
288,224,63408,1,2,0:0:0:0:
288,224,63484,1,0,0:0:0:0:
288,224,63560,1,0,0:0:0:0:
288,224,63636,1,2,0:0:0:0:
288,224,63712,1,0,0:0:0:0:
288,224,63787,1,2,0:0:0:0:
288,224,63863,1,2,0:0:0:0:
288,224,63939,1,0,0:0:0:0:
256,224,64015,1,2,0:0:0:0:
256,224,64090,1,2,0:0:0:0:
256,192,64166,1,2,0:0:0:0:
288,224,64242,1,4,0:0:0:0:
288,224,64469,1,0,0:0:0:0:
288,224,64696,1,2,0:0:0:0:
288,224,64923,1,0,0:0:0:0:
320,192,65037,1,2,0:0:0:0:
256,224,65151,1,2,0:0:0:0:
224,192,65207,1,0,0:0:0:0:
256,224,65264,1,0,0:0:0:0:
352,224,65321,1,0,0:0:0:0:
288,224,65378,1,0,0:0:0:0:
288,192,65492,1,0,0:0:0:0:
288,224,65605,1,2,0:0:0:0:
288,224,65832,1,2,0:0:0:0:
224,192,65946,1,0,0:0:0:0:
288,224,66060,1,2,0:0:0:0:
256,192,66117,1,2,0:0:0:0:
256,192,66173,1,0,0:0:0:0:
256,192,66287,1,0,0:0:0:0:
288,224,66514,1,2,0:0:0:0:
288,224,66628,1,0,0:0:0:0:
256,224,66742,1,2,0:0:0:0:
320,128,66855,1,0,0:0:0:0:
288,160,66931,1,2,0:0:0:0:
288,192,67006,1,0,0:0:0:0:
288,192,67082,1,0,0:0:0:0:
256,192,67196,1,2,0:0:0:0:
224,192,67310,1,0,0:0:0:0:
224,192,67423,1,2,0:0:0:0:
224,128,67651,1,2,0:0:0:0:
256,192,67802,1,0,0:0:0:0:
256,192,67878,1,2,0:0:0:0:
256,192,67954,1,0,0:0:0:0:
256,192,68029,1,0,0:0:0:0:
256,192,68105,1,2,0:0:0:0:
256,192,68219,1,0,0:0:0:0:
256,192,68332,1,2,0:0:0:0:
256,192,68503,1,2,0:0:0:0:
288,192,68560,1,2,0:0:0:0:
288,192,68617,1,2,0:0:0:0:
288,192,68673,1,2,0:0:0:0:
288,192,68730,1,0,0:0:0:0:
256,192,68957,1,2,0:0:0:0:
256,192,69242,1,0,0:0:0:0:
320,192,69469,1,2,0:0:0:0:
352,160,69582,1,0,0:0:0:0:
288,160,69696,1,2,0:0:0:0:
288,160,69753,1,0,0:0:0:0:
288,160,69810,1,0,0:0:0:0:
288,160,69867,1,0,0:0:0:0:
288,160,69923,1,2,0:0:0:0:
224,160,70037,1,2,0:0:0:0:
256,192,70151,1,2,0:0:0:0:
256,192,70378,1,2,0:0:0:0:
256,192,70454,5,0,0:0:0:0:
256,192,70529,1,0,0:0:0:0:
256,192,70605,1,2,0:0:0:0:
256,160,70719,1,0,0:0:0:0:
256,160,70832,1,2,0:0:0:0:
256,160,70946,1,2,0:0:0:0:
256,160,71060,1,0,0:0:0:0:
256,160,71173,1,2,0:0:0:0:
256,160,71514,1,6,0:0:0:0:
224,192,71742,1,0,0:0:0:0:
256,192,71969,1,2,0:0:0:0:
256,192,72196,1,0,0:0:0:0:
288,192,72272,1,0,0:0:0:0:
288,192,72348,1,0,0:0:0:0:
288,192,72423,1,2,0:0:0:0:
288,224,72537,1,2,0:0:0:0:
288,224,72651,1,0,0:0:0:0:
288,224,72878,1,2,0:0:0:0:
288,224,73105,1,0,0:0:0:0:
320,224,73162,1,0,0:0:0:0:
320,224,73219,1,0,0:0:0:0:
320,224,73276,1,0,0:0:0:0:
320,224,73332,1,2,0:0:0:0:
288,224,73446,1,2,0:0:0:0:
288,224,73560,1,0,0:0:0:0:
288,224,73787,1,2,0:0:0:0:
256,192,73901,1,0,0:0:0:0:
256,192,74014,1,0,0:0:0:0:
256,192,74090,1,0,0:0:0:0:
288,224,74166,1,2,0:0:0:0:
288,224,74242,1,2,0:0:0:0:
288,224,74355,1,2,0:0:0:0:
288,224,74469,1,0,0:0:0:0:
288,224,74696,1,2,0:0:0:0:
288,224,74923,1,0,0:0:0:0:
256,192,75037,1,0,0:0:0:0:
288,224,75151,1,2,0:0:0:0:
256,192,75264,1,2,0:0:0:0:
256,192,75378,1,0,0:0:0:0:
256,192,75454,1,0,0:0:0:0:
256,192,75529,1,0,0:0:0:0:
256,192,75605,1,2,0:0:0:0:
256,192,75719,1,0,0:0:0:0:
256,192,75832,1,2,0:0:0:0:
256,192,75889,1,2,0:0:0:0:
288,192,75946,1,2,0:0:0:0:
288,192,76003,1,2,0:0:0:0:
288,192,76060,1,0,0:0:0:0:
256,192,76173,1,2,0:0:0:0:
320,128,76287,1,0,0:0:0:0:
320,128,76514,1,2,0:0:0:0:
256,192,76742,1,0,0:0:0:0:
256,192,76798,1,0,0:0:0:0:
256,192,76855,1,0,0:0:0:0:
288,224,76969,1,6,0:0:0:0:
288,224,77120,1,6,0:0:0:0:
288,224,77272,1,6,0:0:0:0:
288,224,77423,1,4,0:0:0:0:
288,224,77575,1,4,0:0:0:0:
288,224,77726,1,4,0:0:0:0:
288,224,77878,1,6,0:0:0:0:
288,224,78029,1,4,0:0:0:0:
288,224,78181,1,4,0:0:0:0:
288,224,78332,1,6,0:0:0:0:
288,224,78787,1,6,0:0:0:0:
256,224,79014,1,0,0:0:0:0:
256,192,79242,1,2,0:0:0:0:
256,192,79469,1,0,0:0:0:0:
288,224,79582,1,0,0:0:0:0:
288,224,79696,1,2,0:0:0:0:
288,192,79772,1,0,0:0:0:0:
288,192,79848,1,0,0:0:0:0:
288,192,79923,1,0,0:0:0:0:
288,192,80075,1,0,0:0:0:0:
288,192,80151,1,2,0:0:0:0:
320,192,80378,1,2,0:0:0:0:
224,128,80435,1,2,0:0:0:0:
256,192,80492,1,2,0:0:0:0:
256,192,80548,1,2,0:0:0:0:
256,192,80605,1,0,0:0:0:0:
256,192,80719,1,0,0:0:0:0:
256,96,80832,1,0,0:0:0:0:
256,96,80908,1,2,0:0:0:0:
256,96,80984,1,2,0:0:0:0:
256,96,81060,1,0,0:0:0:0:
256,128,81173,1,0,0:0:0:0:
224,128,81287,1,2,0:0:0:0:
256,128,81401,1,0,0:0:0:0:
256,128,81514,1,2,0:0:0:0:
288,192,81571,1,0,0:0:0:0:
288,192,81628,1,2,0:0:0:0:
288,192,81685,1,2,0:0:0:0:
288,192,81742,1,2,0:0:0:0:
288,192,81855,1,0,0:0:0:0:
288,128,81969,1,2,0:0:0:0:
320,160,82082,1,0,0:0:0:0:
320,160,82423,1,6,0:0:0:0:
320,160,82651,1,0,0:0:0:0:
320,160,82878,1,2,0:0:0:0:
320,160,82992,1,0,0:0:0:0:
320,160,83048,1,0,0:0:0:0:
320,160,83105,1,2,0:0:0:0:
320,160,83162,1,0,0:0:0:0:
320,160,83219,1,2,0:0:0:0:
320,160,83332,1,2,0:0:0:0:
320,128,83446,1,0,0:0:0:0:
320,128,83560,1,0,0:0:0:0:
320,128,83617,1,0,0:0:0:0:
320,128,83673,1,0,0:0:0:0:
320,128,83787,1,2,0:0:0:0:
320,128,84014,1,2,0:0:0:0:
384,192,84071,1,2,0:0:0:0:
320,192,84128,1,0,0:0:0:0:
288,192,84185,1,0,0:0:0:0:
288,192,84242,1,2,0:0:0:0:
352,192,84469,1,2,0:0:0:0:
352,192,84582,1,2,0:0:0:0:
352,192,84696,1,2,0:0:0:0:
416,128,84772,1,0,0:0:0:0:
416,128,84848,1,0,0:0:0:0:
416,128,84923,1,2,0:0:0:0:
416,128,85037,1,0,0:0:0:0:
352,192,85151,1,2,0:0:0:0:
288,224,85264,1,0,0:0:0:0:
288,224,85378,1,2,0:0:0:0:
288,224,85492,1,2,0:0:0:0:
288,224,85605,1,0,0:0:0:0:
288,224,85719,1,2,0:0:0:0:
256,192,86060,1,6,0:0:0:0:
288,192,86287,1,0,0:0:0:0:
256,192,86401,1,2,0:0:0:0:
256,192,86514,1,2,0:0:0:0:
224,192,86742,1,0,0:0:0:0:
256,192,86855,1,0,0:0:0:0:
256,192,86969,1,2,0:0:0:0:
192,160,87082,1,0,0:0:0:0:
192,160,87310,1,0,0:0:0:0:
192,160,87423,1,2,0:0:0:0:
224,192,87537,1,0,0:0:0:0:
224,192,87878,1,6,0:0:0:0:
224,192,88105,1,0,0:0:0:0:
224,192,88219,1,0,0:0:0:0:
224,192,88332,1,2,0:0:0:0:
288,160,88446,1,0,0:0:0:0:
288,192,88503,1,0,0:0:0:0:
288,192,88560,1,0,0:0:0:0:
288,192,88673,1,0,0:0:0:0:
288,192,88787,1,2,0:0:0:0:
288,160,89014,1,0,0:0:0:0:
288,192,89128,1,0,0:0:0:0:
288,192,89242,1,2,0:0:0:0:
288,192,89355,1,0,0:0:0:0:
288,192,89696,1,6,0:0:0:0:
288,192,89923,1,0,0:0:0:0:
288,192,90037,1,0,0:0:0:0:
288,192,90151,1,2,0:0:0:0:
288,192,90264,1,2,0:0:0:0:
288,192,90378,1,0,0:0:0:0:
288,192,90492,1,0,0:0:0:0:
288,192,90605,1,6,0:0:0:0:
256,160,90832,1,0,0:0:0:0:
288,192,90946,1,0,0:0:0:0:
256,192,91060,1,2,0:0:0:0:
256,96,91173,1,2,0:0:0:0:
256,96,91287,1,2,0:0:0:0:
256,96,91401,1,0,0:0:0:0:
256,96,91514,1,6,0:0:0:0:
256,128,91742,1,0,0:0:0:0:
256,128,91855,1,0,0:0:0:0:
256,96,91969,1,6,0:0:0:0:
256,128,92196,1,0,0:0:0:0:
256,128,92272,1,0,0:0:0:0:
256,128,92348,1,0,0:0:0:0:
256,96,92423,1,6,0:0:0:0:
256,192,92651,1,0,0:0:0:0:
256,160,92707,1,0,0:0:0:0:
256,160,92764,1,0,0:0:0:0:
256,96,92878,1,6,0:0:0:0:
288,160,93105,1,0,0:0:0:0:
288,192,93162,1,0,0:0:0:0:
288,192,93219,1,0,0:0:0:0:
288,192,93276,1,0,0:0:0:0:
288,192,93332,1,6,0:0:0:0:
256,192,94392,1,0,0:0:0:0:
288,192,94544,1,6,0:0:0:0:
288,224,94695,1,0,0:0:0:0:
288,192,94847,1,6,0:0:0:0:
288,224,94998,1,0,0:0:0:0:
288,192,95150,1,6,0:0:0:0:
288,224,95301,1,0,0:0:0:0:
288,192,95453,1,6,0:0:0:0:
288,192,95604,1,6,0:0:0:0:
288,192,95756,1,4,0:0:0:0:
288,224,95907,1,2,0:0:0:0:
288,224,95983,1,2,0:0:0:0:
288,224,96059,1,0,0:0:0:0:
288,224,96210,1,2,0:0:0:0:
288,224,96362,1,0,0:0:0:0:
288,224,96438,1,2,0:0:0:0:
288,224,96513,1,2,0:0:0:0:
288,224,96589,1,0,0:0:0:0:
288,224,96665,1,2,0:0:0:0:
256,192,96816,1,0,0:0:0:0:
256,192,96968,1,2,0:0:0:0:
256,192,97119,1,2,0:0:0:0:
256,192,97195,1,0,0:0:0:0:
256,192,97271,1,0,0:0:0:0:
256,192,97422,1,2,0:0:0:0:
256,192,97498,1,0,0:0:0:0:
256,192,97574,1,0,0:0:0:0:
256,192,97650,1,0,0:0:0:0:
256,192,97725,1,2,0:0:0:0:
256,160,97877,1,2,0:0:0:0:
256,160,97953,1,0,0:0:0:0:
256,160,98104,1,0,0:0:0:0:
256,160,98180,1,2,0:0:0:0:
256,160,98332,1,0,0:0:0:0:
256,160,98407,1,0,0:0:0:0:
256,160,98483,1,2,0:0:0:0:
256,160,98559,1,0,0:0:0:0:
256,192,98710,1,0,0:0:0:0:
256,192,98786,1,2,0:0:0:0:
256,192,98938,1,2,0:0:0:0:
256,192,99013,1,0,0:0:0:0:
256,192,99089,1,2,0:0:0:0:
256,192,99241,1,2,0:0:0:0:
256,192,99316,1,0,0:0:0:0:
256,192,99392,1,0,0:0:0:0:
256,192,99468,1,0,0:0:0:0:
256,192,99544,1,2,0:0:0:0:
256,192,99619,1,2,0:0:0:0:
256,192,99695,1,0,0:0:0:0:
256,192,99771,1,2,0:0:0:0:
256,192,99847,1,2,0:0:0:0:
256,192,99922,1,2,0:0:0:0:
256,192,99998,1,0,0:0:0:0:
256,192,100150,1,2,0:0:0:0:
256,192,100301,1,2,0:0:0:0:
256,192,100453,1,0,0:0:0:0:
256,192,100604,1,0,0:0:0:0:
256,192,100680,1,0,0:0:0:0:
256,192,100756,1,2,0:0:0:0:
256,192,100832,1,2,0:0:0:0:
256,192,100907,1,0,0:0:0:0:
256,192,100983,1,2,0:0:0:0:
256,192,101059,1,0,0:0:0:0:
256,192,101135,1,2,0:0:0:0:
256,192,101210,1,0,0:0:0:0:
256,192,101286,1,0,0:0:0:0:
512,288,101362,1,2,0:0:0:0:
512,288,101438,1,0,0:0:0:0:
256,192,101513,1,2,0:0:0:0:
256,192,101589,1,2,0:0:0:0:
256,192,101665,1,0,0:0:0:0:
256,192,101741,1,2,0:0:0:0:
256,192,101816,1,0,0:0:0:0:
256,192,101892,1,2,0:0:0:0:
480,288,101968,1,0,0:0:0:0:
480,288,102044,1,0,0:0:0:0:
480,288,102119,1,2,0:0:0:0:
480,288,102195,1,2,0:0:0:0:
480,288,102271,1,0,0:0:0:0:
480,288,102347,1,0,0:0:0:0:
480,288,102422,1,0,0:0:0:0:
480,288,102498,1,2,0:0:0:0:
480,288,102574,1,2,0:0:0:0:
480,288,102650,1,2,0:0:0:0:
480,288,102725,1,0,0:0:0:0:
352,224,102801,1,2,0:0:0:0:
352,224,102877,1,0,0:0:0:0:
352,224,102953,1,2,0:0:0:0:
352,224,103028,1,0,0:0:0:0:
256,192,103104,12,0,104241,0:0:0:0:
288,192,104847,5,4,0:0:0:0:
288,192,104998,1,4,0:0:0:0:
288,192,105150,1,4,0:0:0:0:
288,192,105301,1,4,0:0:0:0:
288,192,105453,1,6,0:0:0:0:
288,192,105604,1,0,0:0:0:0:
288,192,105756,1,6,0:0:0:0:
256,160,105907,1,0,0:0:0:0:
256,160,105983,1,0,0:0:0:0:
256,192,106059,1,2,0:0:0:0:
256,192,106210,1,2,0:0:0:0:
256,192,106286,1,0,0:0:0:0:
256,192,106362,1,2,0:0:0:0:
256,192,106513,1,0,0:0:0:0:
256,192,106665,1,2,0:0:0:0:
256,192,106715,1,0,0:0:0:0:
256,192,106766,1,0,0:0:0:0:
256,192,106816,1,0,0:0:0:0:
256,192,106892,1,0,0:0:0:0:
256,192,106968,1,2,0:0:0:0:
256,192,107119,1,2,0:0:0:0:
256,192,107271,1,0,0:0:0:0:
256,192,107347,1,0,0:0:0:0:
256,192,107422,1,0,0:0:0:0:
256,192,107574,1,2,0:0:0:0:
256,192,107650,1,0,0:0:0:0:
256,192,107801,1,0,0:0:0:0:
256,192,107877,1,2,0:0:0:0:
256,192,107953,1,2,0:0:0:0:
256,192,108028,1,0,0:0:0:0:
256,192,108104,1,2,0:0:0:0:
256,192,108180,1,0,0:0:0:0:
256,192,108332,1,2,0:0:0:0:
224,192,108407,1,0,0:0:0:0:
224,192,108483,1,2,0:0:0:0:
224,192,108559,1,2,0:0:0:0:
224,192,108635,1,0,0:0:0:0:
224,192,108710,1,0,0:0:0:0:
224,192,108786,1,2,0:0:0:0:
256,128,108938,1,0,0:0:0:0:
256,128,109089,1,2,0:0:0:0:
224,192,109165,1,2,0:0:0:0:
256,160,109241,1,0,0:0:0:0:
256,160,109291,1,0,0:0:0:0:
256,160,109342,1,0,0:0:0:0:
256,160,109392,1,2,0:0:0:0:
256,192,109468,1,2,0:0:0:0:
256,192,109544,1,2,0:0:0:0:
256,192,109619,1,0,0:0:0:0:
256,192,109695,1,2,0:0:0:0:
224,192,109847,1,0,0:0:0:0:
224,192,109922,1,2,0:0:0:0:
224,192,109998,1,2,0:0:0:0:
224,192,110150,1,2,0:0:0:0:
224,192,110301,1,0,0:0:0:0:
224,192,110377,1,0,0:0:0:0:
320,160,110453,1,0,0:0:0:0:
256,192,110528,1,0,0:0:0:0:
352,192,110604,1,2,0:0:0:0:
256,192,110680,1,0,0:0:0:0:
256,192,110756,1,0,0:0:0:0:
256,192,110832,1,0,0:0:0:0:
256,192,110907,1,2,0:0:0:0:
256,192,110983,1,2,0:0:0:0:
256,192,111059,1,0,0:0:0:0:
256,192,111135,1,0,0:0:0:0:
256,192,111210,1,2,0:0:0:0:
256,192,111286,1,2,0:0:0:0:
256,192,111362,1,2,0:0:0:0:
256,192,111438,1,0,0:0:0:0:
224,192,111513,1,2,0:0:0:0:
224,192,111589,1,2,0:0:0:0:
256,192,111665,1,2,0:0:0:0:
256,192,111741,1,2,0:0:0:0:
224,192,111816,1,0,0:0:0:0:
256,224,111968,1,2,0:0:0:0:
256,192,112119,1,0,0:0:0:0:
256,224,112195,1,2,0:0:0:0:
256,192,112271,1,0,0:0:0:0:
256,224,112347,1,0,0:0:0:0:
256,224,112422,1,2,0:0:0:0:
256,224,112498,1,2,0:0:0:0:
256,224,112574,1,2,0:0:0:0:
256,224,112650,1,0,0:0:0:0:
256,224,112725,1,2,0:0:0:0:
256,192,112776,1,2,0:0:0:0:
256,192,112826,1,2,0:0:0:0:
256,192,112877,1,0,0:0:0:0:
320,160,112953,1,0,0:0:0:0:
320,160,113028,1,2,0:0:0:0:
320,160,113180,1,0,0:0:0:0:
320,160,113256,1,0,0:0:0:0:
320,160,113332,1,2,0:0:0:0:
288,160,113407,1,2,0:0:0:0:
288,160,113483,1,0,0:0:0:0:
256,160,113635,1,2,0:0:0:0:
256,160,113710,1,0,0:0:0:0:
256,160,113786,1,2,0:0:0:0:
256,160,113862,1,2,0:0:0:0:
256,160,113938,1,0,0:0:0:0:
224,128,113988,1,0,0:0:0:0:
256,128,114039,1,0,0:0:0:0:
256,128,114089,1,2,0:0:0:0:
288,160,114165,1,0,0:0:0:0:
288,160,114241,1,2,0:0:0:0:
288,128,114291,1,0,0:0:0:0:
288,128,114342,1,0,0:0:0:0:
288,128,114392,1,2,0:0:0:0:
288,128,114468,1,0,0:0:0:0:
288,128,114544,1,2,0:0:0:0:
320,96,114594,1,2,0:0:0:0:
320,96,114645,1,2,0:0:0:0:
320,96,114695,1,0,0:0:0:0:
384,64,114771,1,2,0:0:0:0:
384,64,114847,1,0,0:0:0:0:
352,96,114897,1,0,0:0:0:0:
352,128,114948,1,2,0:0:0:0:
352,128,114998,1,0,0:0:0:0:
352,128,115049,1,0,0:0:0:0:
352,128,115099,1,0,0:0:0:0:
352,128,115150,1,2,0:0:0:0:
320,160,115301,1,0,0:0:0:0:
288,160,115377,1,0,0:0:0:0:
288,160,115453,1,6,0:0:0:0:
256,192,115604,1,0,0:0:0:0:
288,192,115655,1,0,0:0:0:0:
256,192,115705,1,0,0:0:0:0:
256,192,115756,1,6,0:0:0:0:
256,192,115907,1,0,0:0:0:0:
320,96,115945,1,0,0:0:0:0:
320,96,115983,1,0,0:0:0:0:
320,96,116059,1,6,0:0:0:0:
288,192,116210,1,0,0:0:0:0:
288,192,116248,1,0,0:0:0:0:
288,192,116286,1,0,0:0:0:0:
288,192,116324,1,0,0:0:0:0:
288,192,116362,1,6,0:0:0:0:
