osu file format v14

[General]
AudioFilename: funkotsusaishin.mp3
AudioLeadIn: 0
PreviewTime: 96948
Countdown: 0
SampleSet: Soft
StackLeniency: 0.4
Mode: 0
LetterboxInBreaks: 0
WidescreenStoryboard: 1

[Editor]
Bookmarks: 11060,23181,42575,52272,64393,78938,95907,105604
DistanceSpacing: 0.1
BeatDivisor: 8
GridSize: 32
TimelineZoom: 2.2

[Metadata]
Title:Funkotsu Saishin Casino
TitleUnicode:粉骨砕身カジノゥ
Artist:Morimori Atsushi
ArtistUnicode:モリモリあつし
Creator:SuperBox
Version:papapa's Insane
Source:Muse Dash
Tags:FA osu! featured artist instrumental electronic newspaper cup 2020 npc mapping contest PeroPeroGames video game taito groove coaster marvelous inc. wacca Cytus II Rayark Acylica papapa213 110 Pata-Mon
BeatmapID:2452654
BeatmapSetID:1153959

[Difficulty]
HPDrainRate:6
CircleSize:3.7
OverallDifficulty:8
ApproachRate:9
SliderMultiplier:1.8
SliderTickRate:1

[Events]
//Background and Video events
0,0,"bg.jpg",0,0
//Break Periods
2,53513,54834
2,56240,56955
//Storyboard Layer 0 (Background)
//Storyboard Layer 1 (Fail)
//Storyboard Layer 2 (Pass)
//Storyboard Layer 3 (Foreground)
//Storyboard Layer 4 (Overlay)
//Storyboard Sound Samples

[TimingPoints]
1192,303.030303030303,4,2,2,100,1,0
2404,-100,4,2,2,50,0,0
10585,-66.6666666666667,4,2,2,60,0,0
11798,-166.666666666667,4,2,2,60,0,0
12101,-83.3333333333333,4,2,1,80,0,0
16949,-76.9230769230769,4,2,1,60,0,0
20357,-76.9230769230769,4,2,0,80,0,0
20434,-76.9230769230769,4,2,1,80,0,0
20509,-76.9230769230769,4,2,0,80,0,0
20585,-76.9230769230769,4,2,1,80,0,0
23161,-83.3333333333333,4,2,0,60,0,0
24222,-100,4,2,1,80,0,0
28919,-71.4285714285714,4,2,0,60,0,0
29070,-100,4,2,1,70,0,0
31191,-142.857142857143,4,2,1,70,0,0
31495,-100,4,2,1,60,0,0
32404,-100,4,2,1,70,0,0
32707,-76.9230769230769,4,2,1,60,0,0
33010,-71.4285714285714,4,2,1,70,0,0
33313,-83.3333333333333,4,2,1,70,0,0
33691,-76.9230769230769,4,2,0,60,0,0
33919,-90.9090909090909,4,2,1,70,0,0
38767,-83.3333333333333,4,2,1,60,0,0
42404,-75.7575757575758,4,2,1,60,0,0
43616,-75.7575757575758,4,2,2,70,0,0
43767,-100,4,2,2,70,0,0
60585,-83.3333333333333,4,2,2,60,0,0
62404,-100,4,2,2,60,0,0
63010,-83.3333333333333,4,2,2,80,0,0
64222,-100,4,2,0,60,0,0
64525,-100,4,2,2,80,0,0
65434,454.545454545455,4,2,0,60,1,0
70888,-100,4,2,1,60,0,0
72706,-71.4285714285714,4,2,0,60,0,0
73464,-100,4,2,0,60,0,0
78161,-83.3333333333333,4,2,0,60,0,0
83615,-71.4285714285714,4,2,0,60,0,0
84070,-83.3333333333333,4,2,0,60,0,0
87252,-71.4285714285714,4,2,0,80,0,0
88161,-71.4285714285714,4,2,0,60,0,0
88615,-83.3333333333333,4,2,0,60,0,0
89070,-71.4285714285714,4,2,0,60,0,0
89979,-83.3333333333333,4,2,0,60,0,0
90888,-71.4285714285714,4,2,0,60,0,0
94524,303.030303030303,4,2,0,60,1,0
94524,-200,4,2,0,60,0,0
95584,-100,4,2,0,60,0,0
95887,-100,4,2,1,80,0,0
96948,-100,4,2,2,80,0,0
101493,-166.666666666667,4,2,2,60,0,0
101796,-83.3333333333333,4,2,0,60,0,0
105433,-66.6666666666667,4,2,0,60,0,0
106645,-166.666666666667,4,2,0,60,0,0
106948,-83.3333333333334,4,2,1,60,0,0
111796,-76.9230769230769,4,2,1,60,0,0
116342,-66.6666666666667,4,2,0,60,0,0
117554,-166.666666666667,4,2,1,80,0,0

[Colours]
Combo1 : 249,247,149
Combo2 : 216,147,225
Combo3 : 202,70,94
Combo4 : 69,214,87
Combo5 : 74,219,219

[HitObjects]
5,81,2404,5,0,3:0:0:0:
5,81,2707,1,0,3:0:0:0:
5,81,3010,5,0,3:0:0:0:
58,20,3161,1,0,3:0:0:0:
138,5,3313,1,0,3:0:0:0:
202,53,3464,1,0,3:0:0:0:
212,133,3616,1,0,3:0:0:0:
212,133,3919,1,0,3:0:0:0:
212,133,4222,5,0,3:0:0:0:
290,114,4373,1,0,3:0:0:0:
207,125,4525,1,0,3:0:0:0:
259,186,4676,1,0,3:0:0:0:
339,177,4828,1,0,3:0:0:0:
339,177,5131,1,0,3:0:0:0:
339,177,5434,5,0,3:0:0:0:
313,253,5585,1,0,3:0:0:0:
240,289,5737,1,0,3:0:0:0:
163,262,5888,1,0,3:0:0:0:
131,187,6040,1,0,3:0:0:0:
131,187,6343,1,0,3:0:0:0:
131,187,6646,5,0,3:0:0:0:
163,262,6798,2,0,L|168:310,1,45,8|0,3:0|2:0,2:0:0:0:
88,255,6949,2,0,L|93:303,1,45,8|0,3:0|2:0,2:0:0:0:
14,246,7101,1,0,2:0:0:0:
131,187,7252,5,4,2:0:0:0:
98,118,7404,1,2,2:0:0:0:
98,118,7479,1,2,2:0:0:0:
98,118,7555,1,8,2:0:0:0:
55,179,7707,1,0,2:0:0:0:
14,53,7858,5,4,2:0:0:0:
147,31,8010,1,4,2:0:0:0:
20,60,8161,1,8,2:0:0:0:
154,39,8313,1,0,2:0:0:0:
98,118,8464,5,4,2:0:0:0:
226,185,8616,1,2,2:0:0:0:
226,185,8692,1,2,2:0:0:0:
226,185,8768,1,8,2:0:0:0:
188,111,8919,1,0,2:0:0:0:
265,258,9070,5,4,2:0:0:0:
306,187,9222,1,4,2:0:0:0:
184,254,9373,5,8,2:0:0:0:
269,111,9525,1,0,2:0:0:0:
265,258,9676,5,12,2:0:0:0:
372,241,9828,1,4,2:0:0:0:
419,144,9979,1,8,2:0:0:0:
248,224,10131,5,4,2:0:0:0:
372,241,10282,1,8,2:0:0:0:
455,137,10434,1,4,2:3:0:0:
455,137,10510,1,4,2:3:0:0:
455,137,10585,2,0,B|486:80|467:33|467:33|451:73,1,135.000005149842,8|0,2:0|3:0,2:0:0:0:
377,161,10813,5,0,3:0:0:0:
377,161,10888,2,0,B|441:161|417:221|521:199,1,135.000005149842,4|0,2:0|2:0,2:0:0:0:
384,82,11116,1,0,3:0:0:0:
384,82,11192,2,0,B|312:74|328:137|244:121,1,135.000005149842,4|0,2:0|3:0,2:0:0:0:
264,42,11495,1,8,2:0:0:0:
183,153,11646,5,8,3:0:0:0:
183,153,11798,2,0,B|167:124|167:124|184:78,1,80.9999975280763,8|0,3:0|2:0,2:0:0:0:
192,84,12101,6,0,L|54:64,1,107.999996704102,4|0,1:0|1:0,2:0:0:0:
26,144,12404,1,8,1:0:0:0:
26,144,12555,1,0,1:0:0:0:
105,227,12707,1,0,3:0:0:0:
105,227,12782,1,0,1:0:0:0:
105,227,12858,2,0,P|103:191|90:156,1,53.9999983520508,0|0,1:0|2:0,2:0:0:0:
24,222,13010,2,0,B|7:252|7:252|-1:337,1,107.999996704102,8|0,1:0|1:0,2:0:0:0:
175,384,13313,6,0,L|232:377,1,53.9999983520508,0|0,3:0|2:0,2:0:0:0:
238,369,13464,2,0,L|295:362,1,53.9999983520508,0|0,1:0|2:0,2:0:0:0:
302,359,13616,2,0,L|316:251,1,107.999996704102,8|0,1:0|1:0,2:0:0:0:
280,174,13919,2,0,B|253:197|253:197|213:190|213:190|197:125,1,107.999996704102,0|0,3:0|1:0,2:0:0:0:
315,251,14222,2,0,P|387:227|349:191,1,107.999996704102,8|0,1:0|1:0,2:0:0:0:
232,280,14525,5,0,3:0:0:0:
288,181,14676,1,0,1:0:0:0:
288,181,14752,1,0,1:0:0:0:
288,181,14828,1,8,1:0:0:0:
133,215,14979,1,0,1:0:0:0:
131,47,15131,1,0,3:0:0:0:
89,138,15282,1,0,1:0:0:0:
89,138,15434,2,0,L|207:120,1,107.999996704102,8|0,1:0|1:0,2:0:0:0:
288,30,15737,6,0,B|328:31|328:31|351:54|351:54|426:63,1,107.999996704102,0|0,3:0|1:0,2:0:0:0:
441,116,15964,1,0,1:0:0:0:
441,116,16040,2,0,P|464:68|454:15,1,107.999996704102,8|0,1:0|1:0,2:0:0:0:
357,136,16343,2,0,L|363:250,1,107.999996704102,0|0,3:0|1:0,2:0:0:0:
432,301,16646,2,0,P|469:298|511:277,1,53.9999983520508,8|0,1:0|1:0,2:0:0:0:
347,324,16798,2,0,P|331:354|322:404,1,53.9999983520508,8|0,1:0|1:0,2:0:0:0:
362,243,16949,6,0,P|347:220|316:200,3,58.4999973220826,0|0|0|0,3:0|3:0|3:0|3:0,2:0:0:0:
246,176,17252,2,0,B|188:188|142:243,1,116.999994644165,8|0,1:0|1:0,2:0:0:0:
50,212,17555,2,0,B|85:155|85:155|34:158,1,116.999994644165,8|0,1:0|1:0,2:0:0:0:
260,33,17858,2,0,B|221:79|221:79|277:86,1,116.999994644165,8|0,1:0|1:0,2:0:0:0:
210,242,18161,6,0,P|217:275|236:302,3,58.4999973220826,0|0|0|0,3:0|3:0|3:0|3:0,2:0:0:0:
292,352,18464,2,0,P|381:356|428:318,1,116.999994644165,8|0,1:0|1:0,2:0:0:0:
397,239,18767,2,0,B|431:192|431:192|449:268,1,116.999994644165,8|0,1:0|1:0,2:0:0:0:
281,244,19070,2,0,B|246:199|246:199|231:268,1,116.999994644165,8|0,1:0|1:0,2:0:0:0:
233,257,19298,1,0,3:0:0:0:
233,257,19373,5,8,1:0:0:0:
349,176,19525,1,8,1:0:0:0:
228,135,19676,1,0,3:0:0:0:
257,275,19828,5,8,1:0:0:0:
364,161,19980,1,8,1:0:0:0:
219,111,20131,1,0,3:0:0:0:
257,275,20282,6,0,L|334:276,1,58.4999973220826,8|0,1:0|2:0,2:0:0:0:
364,161,20434,2,0,L|287:162,1,58.4999973220826,0|0,3:0|2:0,2:0:0:0:
159,216,20585,5,8,1:0:0:0:
159,216,20737,1,0,1:0:0:0:
73,101,20888,1,8,1:0:0:0:
73,101,21040,1,0,1:0:0:0:
219,111,21191,5,8,1:0:0:0:
159,216,21343,2,0,L|167:284,1,58.4999973220826,0|0,1:0|2:0,2:0:0:0:
73,101,21495,2,0,L|0:57,1,58.4999973220826,8|0,1:0|2:0,2:0:0:0:
143,136,21646,1,0,1:0:0:0:
61,333,21798,6,0,P|46:282|107:261,1,116.999994644165,8|0,1:0|3:0,3:0:0:0:
94,256,22025,1,0,3:0:0:0:
94,256,22101,2,0,P|122:211|178:242,1,116.999994644165,8|0,1:0|3:0,3:0:0:0:
173,230,22328,1,0,3:0:0:0:
173,230,22404,2,0,P|219:205|252:259,1,116.999994644165,8|0,1:0|3:0,3:0:0:0:
254,247,22631,1,0,3:0:0:0:
254,247,22707,2,0,P|306:248|308:312,1,116.999994644165,8|0,1:0|3:0,3:0:0:0:
170,361,23010,5,6,1:0:0:0:
170,361,23161,2,0,B|229:148|229:148|219:145|219:145|309:163|309:163|299:161|299:161|331:56|331:56|420:35|420:35|385:158,1,647.99998022461,6|0,1:0|2:0,2:0:0:0:
178,26,24222,6,0,P|120:1|70:4,1,90,4|0,1:0|1:0,2:0:0:0:
88,9,24449,2,0,L|104:150,1,135,0|2,1:0|1:0,2:0:0:0:
85,221,24828,2,0,L|-8:191,1,90,0|0,1:0|2:0,2:0:0:0:
169,198,25131,1,2,1:0:0:0:
169,198,25282,1,2,1:0:0:0:
146,279,25434,5,0,1:0:0:0:
145,283,25510,1,0,1:0:0:0:
144,287,25585,1,0,1:0:0:0:
143,291,25661,1,0,1:0:0:0:
142,294,25737,2,0,B|129:348|129:348|122:325|70:305,1,90,2|2,1:0|1:0,2:0:0:0:
57,384,26040,1,0,1:0:0:0:
34,285,26191,1,0,2:0:0:0:
204,384,26343,2,0,L|305:373,1,90,2|0,1:0|2:0,2:0:0:0:
370,337,26646,6,0,P|380:315|384:287,1,45,0|0,1:0|2:0,2:0:0:0:
390,287,26798,2,0,P|387:262|377:236,1,45,0|0,1:0|2:0,2:0:0:0:
313,193,26949,1,2,1:0:0:0:
299,282,27101,1,2,1:0:0:0:
299,282,27176,1,0,1:0:0:0:
299,282,27252,2,0,P|259:263|235:224,2,90,0|0|2,1:0|1:0|1:0,2:0:0:0:
394,165,27707,6,0,P|424:115|406:29,1,135,0|0,1:0|2:0,2:0:0:0:
408,34,28010,1,0,1:0:0:0:
329,0,28161,1,2,1:0:0:0:
329,0,28313,1,2,1:0:0:0:
337,89,28464,6,0,L|271:81,1,45,0|0,1:0|2:0,2:0:0:0:
284,91,28616,2,0,L|218:83,1,45,0|0,1:0|2:0,2:0:0:0:
222,118,28767,6,0,L|225:170,1,45,2|0,1:0|2:0,2:0:0:0:
295,224,28919,2,0,B|304:204|304:204|302:184|302:184|317:158,1,62.9999980773926,0|0,2:0|2:0,2:0:0:0:
325,168,29070,6,0,P|336:220|336:280,1,90,2|0,1:0|1:0,2:0:0:0:
261,297,29373,1,0,2:0:0:0:
165,242,29525,2,0,P|149:299|146:337,1,90,2|0,1:0|2:0,2:0:0:0:
261,297,29828,2,0,P|277:354|280:392,2,90,2|0|0,1:0|1:0|2:0,2:0:0:0:
165,242,30282,6,0,P|149:299|146:337,1,90,2|0,1:0|1:0,2:0:0:0:
65,366,30585,2,0,P|61:337|53:312,3,45,0|0|0|0,2:0|2:0|2:0|2:0,2:0:0:0:
83,235,30888,6,0,P|80:212|75:191,1,45,2|0,1:0|1:0,2:0:0:0:
165,242,31040,2,0,P|185:220|199:198,1,45,0|0,1:0|1:0,2:0:0:0:
187,132,31191,6,0,B|156:137|143:149|143:149|132:123|91:110,1,94.499997116089,4|0,1:0|2:0,2:0:0:0:
94,107,31495,6,0,L|33:113,1,45,2|0,1:0|2:0,2:0:0:0:
80,27,31646,2,0,L|125:23,1,45,2|0,1:0|2:0,2:0:0:0:
187,132,31798,1,0,1:0:0:0:
191,133,31873,1,0,1:0:0:0:
195,134,31949,1,0,1:0:0:0:
199,135,32025,1,0,1:0:0:0:
203,136,32101,2,0,L|312:126,2,90,2|2|0,1:0|1:0|1:0,2:0:0:0:
313,53,32555,5,0,2:0:0:0:
313,53,32631,1,0,2:0:0:0:
313,53,32707,2,0,B|343:55|357:83|357:83|388:54|450:77,1,116.999994644165,2|2,1:0|1:0,2:0:0:0:
512,132,33010,2,2,B|482:134|463:163|463:163|437:133|369:153,1,125.999996154785,2|2,1:0|1:0,1:0:0:0:
334,198,33313,6,0,P|320:228|319:260,1,53.9999983520508,2|0,1:0|2:0,2:0:0:0:
398,275,33464,2,0,P|411:244|413:213,1,53.9999983520508,2|0,1:0|2:0,2:0:0:0:
497,341,33616,5,4,1:0:0:0:
497,341,33691,2,0,B|454:337|454:337|417:358|417:358|348:350,1,116.999994644165,0|0,2:0|2:0,2:0:0:0:
375,357,33919,6,0,B|337:325|337:325|256:341,1,99.0000030212403,2|2,1:0|1:0,2:0:0:0:
183,362,34222,1,0,2:0:0:0:
134,275,34373,2,0,L|241:249,1,99.0000030212403,2|0,1:0|1:0,2:0:0:0:
183,362,34676,1,2,1:0:0:0:
134,275,34828,2,0,B|85:265|85:265|47:297,1,99.0000030212403,0|0,1:0|2:0,2:0:0:0:
183,362,35131,6,0,B|231:352|231:352|269:384,1,99.0000030212403,2|0,1:0|1:0,2:0:0:0:
375,357,35434,2,0,L|357:300,3,49.5000015106202,0|0|0|0,2:0|2:0|2:0|2:0,2:0:0:0:
355,276,35737,2,0,B|393:244|393:244|441:253,1,99.0000030212403,2|2,1:0|1:0,2:0:0:0:
493,173,36040,2,0,L|508:53,1,99.0000030212403,0|2,1:0|1:0,2:0:0:0:
417,27,36343,6,0,B|379:59|379:59|298:43,1,99.0000030212403,2|2,1:0|1:0,2:0:0:0:
225,22,36646,1,0,1:0:0:0:
171,121,36797,2,0,L|278:110,1,99.0000030212403,2|0,1:0|2:0,2:0:0:0:
225,22,37100,1,2,1:0:0:0:
157,110,37252,2,0,B|108:119|108:119|70:87,1,99.0000030212403,2|0,1:0|1:0,2:0:0:0:
243,188,37555,6,0,B|291:197|291:197|329:165,1,99.0000030212403,2|2,1:0|1:0,2:0:0:0:
151,222,37858,2,0,L|140:279,3,49.5000015106202,0|0|0|0,2:0|2:0|2:0|2:0,2:0:0:0:
135,302,38161,2,0,B|97:334|97:334|48:324,1,99.0000030212403,2|2,1:0|1:0,2:0:0:0:
174,381,38464,2,0,L|292:367,1,99.0000030212403,0|2,1:0|1:0,2:0:0:0:
362,321,38767,6,0,B|322:283|322:283|342:218,1,107.999996704102,2|2,1:0|1:0,2:0:0:0:
363,140,39070,1,0,1:0:0:0:
468,114,39222,2,0,L|491:236,1,107.999996704102,2|0,1:0|2:0,2:0:0:0:
363,140,39525,2,0,B|352:87|352:87|394:41,2,107.999996704102,2|2|0,1:0|1:0|1:0,2:0:0:0:
150,321,39979,6,0,B|190:283|190:283|170:218,1,107.999996704102,2|2,1:0|1:0,2:0:0:0:
149,140,40282,1,0,1:0:0:0:
44,114,40434,2,0,L|21:236,1,107.999996704102,2|0,1:0|2:0,2:0:0:0:
149,140,40737,2,0,B|160:87|160:87|118:41,2,107.999996704102,2|2|0,1:0|1:0|1:0,2:0:0:0:
254,191,41191,5,2,1:0:0:0:
270,296,41343,1,2,1:0:0:0:
270,296,41419,2,0,B|221:324|221:324|197:275,1,107.999996704102,0|0,2:0|1:0,2:0:0:0:
196,273,41646,1,2,1:0:0:0:
254,191,41798,5,2,1:0:0:0:
339,126,41949,1,2,1:0:0:0:
339,126,42025,2,0,B|384:153|384:153|349:212,1,107.999996704102,0|0,2:0|2:0,2:0:0:0:
352,207,42252,1,2,1:0:0:0:
159,151,42404,6,0,B|159:98|159:98|220:93|220:93|340:119|340:119|385:154|385:154|366:200|366:200|278:299|278:299|227:328|227:328|182:240,1,593.999998187256,2|2,1:0|1:0,2:0:0:0:
254,191,43313,1,4,1:0:0:0:
254,191,43616,5,0,2:0:0:0:
240,279,43767,2,0,L|257:171,1,90,0|4,3:0|2:3,2:0:0:0:
248,288,44070,2,0,L|265:180,1,90,0|4,3:0|2:3,2:0:0:0:
256,297,44373,2,0,L|273:189,1,90,0|4,3:0|2:3,2:0:0:0:
264,306,44676,2,0,L|281:198,1,90,0|4,3:0|2:3,2:0:0:0:
453,362,44979,6,0,L|436:254,1,90,0|4,3:0|2:3,2:0:0:0:
445,371,45282,2,0,L|428:264,1,90,0|4,3:0|2:3,2:0:0:0:
436,381,45585,1,0,3:0:0:0:
356,244,45737,6,0,P|387:201|435:185,1,90,6|8,2:3|2:0,2:0:0:0:
512,159,45964,1,8,2:0:0:0:
512,159,46040,2,0,P|465:125|449:82,1,90,6|0,2:3|3:0,2:0:0:0:
453,13,46267,1,0,2:0:0:0:
453,13,46343,2,0,P|430:14|408:19,3,45,6|0|0|0,2:3|2:0|3:0|2:0,2:0:0:0:
374,90,46646,2,0,P|351:88|329:83,3,45,6|0|0|0,2:3|2:0|3:0|2:0,2:0:0:0:
253,112,46949,2,0,P|247:90|247:67,3,45,6|0|0|0,2:3|2:0|3:0|2:0,2:0:0:0:
317,156,47252,6,0,P|317:190|299:251,1,90,6|0,2:3|3:0,2:0:0:0:
337,312,47479,1,8,2:0:0:0:
337,312,47555,2,0,P|294:298|249:297,1,90,6|0,2:3|3:0,2:0:0:0:
185,332,47782,1,8,2:0:0:0:
185,332,47858,2,0,P|198:289|199:244,1,90,6|0,2:3|3:0,2:0:0:0:
166,177,48085,1,8,2:0:0:0:
166,177,48161,2,0,P|157:131|162:95,3,45,6|0|8|8,2:3|2:0|2:0|2:0,2:0:0:0:
123,250,48464,6,0,P|90:216|80:183,3,45,6|0|0|0,2:3|2:0|3:0|2:0,2:0:0:0:
47,154,48767,2,0,P|35:108|43:75,3,45,6|0|0|0,2:3|2:0|3:0|2:0,2:0:0:0:
166,177,49070,6,0,P|194:140|201:106,3,45,6|0|0|0,2:3|2:0|3:0|2:0,2:0:0:0:
230,73,49373,2,0,P|236:26|224:-5,3,45,6|0|0|0,2:3|2:0|3:0|2:0,2:0:0:0:
47,154,49676,6,0,P|35:108|43:75,3,45,6|0|0|0,2:3|2:0|3:0|2:0,2:0:0:0:
14,42,49979,2,0,P|27:-2|50:-27,3,45,6|0|0|0,2:3|2:0|3:0|2:0,2:0:0:0:
236,28,50282,6,0,P|236:51|230:73,3,45,6|0|0|0,2:3|2:0|3:0|2:0,2:0:0:0:
193,142,50585,2,0,P|182:161|166:177,3,45,6|0|0|0,2:3|2:0|3:0|2:0,2:0:0:0:
120,96,50888,6,0,P|163:61|208:56,1,90,6|0,2:3|3:0,2:0:0:0:
193,142,51116,1,8,2:0:0:0:
193,142,51191,2,0,P|141:122|114:85,1,90,6|8,2:3|2:0,2:0:0:0:
354,153,51495,2,0,P|311:188|266:193,1,90,6|0,2:3|3:0,2:0:0:0:
281,107,51723,1,8,2:0:0:0:
281,107,51798,2,0,P|332:126|359:163,1,90,6|8,2:3|2:0,2:0:0:0:
356,252,52101,5,6,2:3:0:0:
278,193,52252,1,8,2:0:0:0:
431,201,52404,1,6,2:3:0:0:
431,201,52479,1,2,2:3:0:0:
431,201,52555,1,8,2:0:0:0:
436,304,52707,5,6,2:3:0:0:
509,260,52858,1,8,2:0:0:0:
364,260,53010,1,6,2:3:0:0:
364,260,53085,1,8,2:0:0:0:
364,260,53161,1,8,2:0:0:0:
435,384,53313,5,12,2:0:0:0:
435,384,55434,5,4,2:0:0:0:
435,384,56040,1,4,2:0:0:0:
435,384,57555,6,4,L|412:242,2,135,4|4|4,2:0|2:0|2:0,2:0:0:0:
347,352,58161,6,0,P|323:338|294:330,3,45,12|0|0|0,2:0|2:0|2:0|2:0,2:0:0:0:
230,316,58464,2,0,P|202:315|173:323,3,45,0|0|0|0,3:0|2:0|2:0|2:0,2:0:0:0:
78,332,58767,6,0,P|91:307|112:286,3,45,8|0|0|0,2:0|2:0|2:0|2:0,2:0:0:0:
161,242,59070,2,0,P|185:227|214:219,3,45,0|0|0|0,3:0|2:0|2:0|2:0,2:0:0:0:
298,257,59373,6,0,P|289:230|273:205,3,45,8|0|0|0,2:0|2:0|2:0|2:0,2:0:0:0:
235,151,59676,2,0,P|214:132|187:118,3,45,0|0|0|0,3:0|2:0|2:0|2:0,2:0:0:0:
97,92,59979,6,0,P|94:45|120:-16,3,90,8|8|0|0,2:0|2:0|3:0|3:0,2:0:0:0:
199,123,60585,2,0,P|228:82|236:18,3,107.999996704102,8|0|8|0,2:0|2:0|2:0|2:0,2:0:0:0:
33,201,61191,6,0,P|9:178|-3:147,3,53.9999983520508,0|0|0|0,2:0|2:0|2:0|2:0,2:0:0:0:
114,171,61495,2,0,P|116:138|105:106,3,53.9999983520508,0|0|0|0,2:0|2:0|2:0|2:0,2:0:0:0:
198,222,61798,2,0,L|184:335,1,107.999996704102,8|0,2:0|2:0,2:0:0:0:
58,384,62101,6,0,B|31:364|31:364|124:336,1,107.999996704102,2|0,2:0|2:0,2:0:0:0:
252,377,62404,6,0,B|378:366|391:277|327:179|237:276|281:315,1,270,0|0,2:0|2:0,2:0:0:0:
463,325,63010,6,0,P|507:275|483:246,1,107.999996704102,8|0,2:0|3:0,2:0:0:0:
490,250,63237,1,0,3:0:0:0:
490,250,63313,2,0,P|446:200|470:171,1,107.999996704102,8|0,2:0|3:0,2:0:0:0:
462,175,63540,1,0,3:0:0:0:
462,175,63616,2,0,P|506:125|482:96,1,107.999996704102,8|0,2:0|3:0,2:0:0:0:
489,100,63843,1,0,3:0:0:0:
489,100,63919,2,0,P|445:50|469:21,1,107.999996704102,8|0,2:0|3:0,2:0:0:0:
351,23,64222,6,0,L|287:33,1,45,8|0,2:0|3:0,2:0:0:0:
232,59,64373,2,0,L|168:69,1,45,0|0,3:0|3:0,2:0:0:0:
123,120,64525,1,8,2:0:0:0:
123,124,64601,1,0,3:0:0:0:
123,128,64676,1,0,3:0:0:0:
123,132,64752,1,0,3:0:0:0:
121,139,64828,6,0,L|185:149,1,45,8|0,2:0|3:0,2:0:0:0:
241,145,64979,2,0,L|305:155,1,45,0|0,3:0|3:0,2:0:0:0:
350,206,65131,1,8,2:0:0:0:
350,210,65207,1,8,2:0:0:0:
350,214,65282,1,8,2:0:0:0:
350,218,65358,1,8,2:0:0:0:
349,227,65434,6,0,L|228:245,1,90,4|0,2:0|2:0,2:0:0:0:
116,384,65888,2,0,L|112:304,1,60,0|0,1:0|2:0,2:0:0:0:
192,290,66115,1,2,2:0:0:0:
192,290,66191,2,0,P|223:315|275:323,2,90,2|2|2,2:0|2:0|2:0,2:0:0:0:
354,167,66911,1,2,2:0:0:0:
354,167,67024,2,0,L|369:85,1,60,2|0,2:0|2:0,2:0:0:0:
417,40,67252,6,0,L|457:32,2,22.5,0|0|0,1:0|2:0|2:0,2:0:0:0:
338,35,67479,2,0,L|235:20,1,90,2|0,2:0|2:0,2:0:0:0:
89,128,67934,6,0,P|107:166|107:208,1,60,2|0,2:0|2:0,2:0:0:0:
18,248,68161,2,0,P|19:213|40:173,2,45,2|2|0,2:0|2:0|2:0,2:0:0:0:
142,335,68615,2,0,P|141:300|88:261,1,90,2|2,2:0|2:0,2:0:0:0:
282,354,69070,6,0,L|276:313,4,22.5,0|0|0|0|0,1:0|2:0|2:0|2:0|2:0,2:0:0:0:
424,384,69524,1,0,2:0:0:0:
364,263,69752,2,0,L|359:305,4,22.5,2|0|0|0|0,2:0|2:0|2:0|2:0|2:0,2:0:0:0:
458,178,70206,1,2,2:0:0:0:
377,16,70434,2,0,L|296:26,1,60,2|0,2:0|2:0,2:0:0:0:
251,84,70661,2,0,L|191:76,1,60,2|0,2:0|2:0,2:0:0:0:
125,28,70888,5,0,1:0:0:0:
125,28,71115,2,0,L|61:40,2,45,0|0|0,1:0|1:0|1:0,2:0:0:0:
229,0,71570,1,0,1:0:0:0:
102,144,71797,1,0,3:0:0:0:
87,167,71911,1,0,1:0:0:0:
75,190,72024,6,0,L|76:243,1,45,0|0,1:0|1:0,2:0:0:0:
113,306,72252,2,0,P|44:289|-4:311,1,90,0|0,1:0|1:0,2:0:0:0:
106,384,72706,6,0,B|166:272|166:272|279:354,1,251.999992309571,4|0,2:0|2:0,2:0:0:0:
469,286,73388,5,2,2:0:0:0:
469,286,73464,2,0,P|452:240|417:204,2,90,2|2|2,2:0|2:0|2:0,2:0:0:0:
230,188,74184,1,2,2:0:0:0:
230,188,74297,2,0,L|148:210,1,60,2|0,2:0|2:0,2:0:0:0:
116,268,74524,6,0,L|120:305,4,22.5,0|0|0|0|0,1:0|2:0|2:0|2:0|2:0,2:0:0:0:
144,117,74979,2,0,L|59:103,1,60,2|0,2:0|2:0,2:0:0:0:
0,43,75206,2,0,L|78:29,1,60,2|0,2:0|2:0,2:0:0:0:
84,107,75434,2,0,P|81:144|64:183,2,45,2|0|0,2:0|2:0|2:0,2:0:0:0:
201,249,75888,2,0,P|190:212|200:155,1,90,2|0,2:0|2:0,2:0:0:0:
360,100,76343,6,0,L|366:140,4,22.5,0|0|0|0|0,1:0|2:0|2:0|2:0|2:0,2:0:0:0:
193,45,76797,1,2,2:0:0:0:
310,188,77024,2,0,L|302:222,4,22.5,2|0|0|0|0,2:0|2:0|2:0|2:0|2:0,2:0:0:0:
423,53,77479,1,2,2:0:0:0:
477,227,77706,2,0,L|485:306,1,60,2|0,2:0|2:0,2:0:0:0:
413,336,77934,2,0,P|380:317|335:309,1,60,2|0,2:0|2:0,2:0:0:0:
283,346,78161,6,0,P|250:364|194:366,2,71.9999978027344,0|0|0,1:0|1:0|1:0,2:0:0:0:
338,229,78615,2,0,P|375:227|426:251,2,71.9999978027344,0|0|0,1:0|1:0|1:0,2:0:0:0:
248,138,79070,2,0,P|210:136|159:160,1,71.9999978027344,0|0,1:2|1:0,2:0:0:0:
88,59,79373,1,0,1:0:0:0:
88,59,79524,1,0,1:0:0:0:
74,283,79979,6,0,P|28:262|55:193,1,107.999996704102,4|0,1:0|2:0,2:0:0:0:
205,210,80434,6,0,L|211:275,1,53.9999983520508,0|0,1:0|1:0,2:0:0:0:
153,329,80661,2,0,B|142:384,1,53.9999983520508,0|0,1:0|2:0,2:0:0:0:
209,263,80888,2,0,P|262:263|305:294,2,107.999996704102,8|0|0,2:0|2:0|1:0,2:0:0:0:
237,344,81570,1,0,2:0:0:0:
357,374,81797,6,0,P|400:342|453:342,1,107.999996704102,0|0,3:0|2:0,2:0:0:0:
502,201,82252,2,0,L|513:126,1,53.9999983520508,0|0,1:0|2:0,2:0:0:0:
416,203,82479,2,0,L|423:256,1,53.9999983520508,0|0,1:0|2:0,2:0:0:0:
431,115,82706,5,8,1:2:0:0:
413,102,82820,1,0,1:0:0:0:
395,89,82934,1,0,1:0:0:0:
377,76,83047,1,0,1:0:0:0:
359,63,83161,2,0,L|289:68,2,53.9999983520508,0|0|0,1:0|1:0|1:0,2:0:0:0:
263,138,83615,6,0,B|209:170|209:170|153:101,1,125.999996154785,0|0,3:0|2:0,2:0:0:0:
87,33,84070,6,0,L|159:45,1,53.9999983520508,0|0,1:0|1:0,2:0:0:0:
169,120,84297,2,0,L|97:132,1,53.9999983520508,0|0,1:0|2:0,2:0:0:0:
48,178,84524,2,0,L|60:250,1,53.9999983520508,8|0,2:0|2:0,2:0:0:0:
132,263,84751,2,0,L|144:191,1,53.9999983520508,0|0,1:0|2:0,2:0:0:0:
221,192,84979,2,0,L|237:350,1,107.999996704102,0|0,1:0|2:0,2:0:0:0:
61,321,85434,5,0,1:0:0:0:
61,321,85661,2,0,L|-6:303,2,53.9999983520508,0|0|0,1:0|1:0|1:0,2:0:0:0:
241,383,86115,1,0,1:0:0:0:
437,292,86343,5,0,3:0:0:0:
451,276,86456,1,0,1:0:0:0:
465,259,86570,6,0,L|461:200,1,53.9999983520508,0|0,1:0|1:0,2:0:0:0:
389,162,86797,2,0,P|447:123|490:130,1,107.999996704102,0|0,2:0|1:0,2:0:0:0:
367,241,87252,6,0,B|321:124|321:124|185:213,1,251.999992309571,4|8,1:0|1:2,2:0:0:0:
325,96,87934,5,0,2:0:0:0:
165,54,88161,1,8,1:2:0:0:
154,51,88274,1,0,1:0:0:0:
143,48,88388,1,0,1:0:0:0:
215,194,88615,2,0,L|200:314,1,107.999996704102,8|0,1:2|2:0,2:0:0:0:
49,349,89070,6,0,B|95:232|95:232|231:321,1,251.999992309571,8|8,1:2|1:2,2:0:0:0:
81,199,89752,5,0,2:0:0:0:
131,377,89979,2,0,L|206:388,1,53.9999983520508,8|0,1:2|1:0,2:0:0:0:
254,291,90206,2,0,L|200:300,1,53.9999983520508,0|0,1:0|2:0,2:0:0:0:
280,372,90434,2,0,L|394:381,1,107.999996704102,8|0,1:2|1:0,2:0:0:0:
466,220,90888,6,0,B|360:289|360:289|314:172,1,251.999992309571,8|8,1:2|1:2,2:0:0:0:
310,160,91456,1,0,2:0:0:0:
306,147,91570,1,0,1:0:0:0:
60,123,91797,6,0,B|165:192|165:192|211:75,1,251.999992309571,8|8,1:2|1:2,2:0:0:0:
216,63,92365,1,0,2:0:0:0:
220,50,92479,1,0,1:0:0:0:
457,31,92706,6,0,P|454:104|407:139,1,125.999996154785,8|0,1:2|1:0,2:0:0:0:
373,61,93047,1,0,1:0:0:0:
373,61,93161,2,0,P|330:104|333:165,1,125.999996154785,8|0,1:2|1:0,2:0:0:0:
417,135,93502,1,0,1:0:0:0:
417,135,93615,2,0,P|414:208|367:243,1,125.999996154785,8|0,1:2|1:2,2:0:0:0:
332,166,93956,1,0,1:2:0:0:
332,166,94070,2,0,P|289:209|292:270,1,125.999996154785,8|0,1:2|1:2,2:0:0:0:
350,353,94524,6,0,P|246:273|99:277,1,270,4|0,1:2|2:0,2:0:0:0:
130,384,95584,6,0,P|145:354|142:318,1,45,0|0,1:0|2:0,2:0:0:0:
35,255,95736,2,0,P|36:299|64:335,1,90,0|0,1:0|1:0,2:0:0:0:
191,276,95963,1,0,1:0:0:0:
191,276,96039,2,0,P|182:232|150:202,1,90,0|0,1:0|1:0,2:0:0:0:
150,353,96342,6,0,L|249:361,1,90,8|0,1:2|1:0,2:0:0:0:
314,273,96569,1,0,1:0:0:0:
314,273,96645,2,0,L|240:279,1,45,0|0,1:0|1:0,2:0:0:0:
326,352,96796,2,0,L|407:359,1,45,0|0,1:0|2:0,2:0:0:0:
463,196,96948,5,4,1:0:0:0:
499,276,97099,2,0,L|486:324,2,45,0|0|8,2:0|2:0|2:0,2:0:0:0:
417,124,97402,1,0,2:0:0:0:
381,204,97554,2,0,L|394:252,2,45,0|0|0,2:0|2:0|2:0,2:0:0:0:
455,46,97857,1,8,2:0:0:0:
455,46,98008,1,0,2:0:0:0:
281,97,98160,5,0,2:0:0:0:
193,114,98311,2,0,L|139:96,2,45,0|0|8,2:0|2:0|2:0,2:0:0:0:
83,19,98614,1,0,2:0:0:0:
24,166,98766,5,2,2:0:0:0:
91,214,98917,1,2,2:0:0:0:
169,194,99069,1,10,2:0:0:0:
193,114,99220,1,2,2:0:0:0:
91,214,99372,5,0,2:0:0:0:
65,293,99524,2,0,L|78:344,2,45,0|0|8,2:0|2:0|2:0,2:0:0:0:
24,166,99827,1,0,2:0:0:0:
169,194,99978,1,0,2:0:0:0:
65,293,100130,1,0,2:0:0:0:
24,166,100281,1,8,2:0:0:0:
24,166,100433,1,0,2:0:0:0:
169,194,100584,6,0,L|277:186,1,90,0|0,2:0|2:0,2:0:0:0:
209,268,100811,1,2,2:0:0:0:
209,268,100887,2,0,L|317:260,1,90,10|0,2:0|2:0,2:0:0:0:
249,342,101114,1,2,2:0:0:0:
249,342,101190,1,2,2:0:0:0:
375,286,101342,5,8,3:0:0:0:
375,286,101493,2,0,B|385:240|385:240|364:214,1,80.9999975280763,8|0,3:0|2:0,2:0:0:0:
357,206,101796,6,0,P|384:197|409:175,3,53.9999983520508,0|0|8|0,3:0|2:0|2:0|2:0,2:0:0:0:
440,108,102099,2,0,P|441:79|429:48,3,53.9999983520508,0|0|8|0,3:0|2:0|2:0|2:0,2:0:0:0:
357,17,102402,6,0,P|340:40|311:56,3,53.9999983520508,0|0|8|0,3:0|2:0|2:0|2:0,2:0:0:0:
237,66,102705,2,0,P|209:58|183:37,3,53.9999983520508,0|0|8|0,3:0|2:0|2:0|2:0,2:0:0:0:
107,22,103008,6,0,P|104:48|112:74,3,53.9999983520508,0|0|8|0,3:0|2:0|2:0|2:0,2:0:0:0:
172,132,103311,2,0,P|174:158|166:184,3,53.9999983520508,0|0|8|0,3:0|2:0|2:0|2:0,2:0:0:0:
39,241,103614,6,0,P|60:225|87:219,3,53.9999983520508,0|0|8|0,3:0|2:0|2:0|2:0,2:0:0:0:
159,269,103917,2,0,P|183:280|201:299,3,53.9999983520508,0|0|8|8,3:0|2:0|2:0|2:0,2:0:0:0:
134,346,104220,5,8,2:0:0:0:
39,241,104372,1,0,3:0:0:0:
166,184,104524,1,8,2:0:0:0:
134,346,104675,5,0,3:0:0:0:
55,217,104827,1,8,2:0:0:0:
197,194,104978,1,8,2:0:0:0:
138,261,105130,5,8,2:0:0:0:
138,261,105281,1,8,2:0:0:0:
262,377,105433,6,0,B|345:402|317:316|433:357,1,135.000005149842,4|0,1:0|2:0,2:0:0:0:
465,372,105660,1,0,1:0:0:0:
465,372,105736,2,0,P|405:314|416:251,1,135.000005149842,4|0,1:0|2:0,2:0:0:0:
488,292,106039,1,0,1:0:0:0:
348,201,106190,1,8,2:0:0:0:
348,201,106342,1,8,2:0:0:0:
490,128,106493,5,2,2:0:0:0:
490,128,106569,1,2,2:0:0:0:
490,128,106645,2,0,B|439:113|439:113|410:129,1,80.9999975280763,8|0,3:0|2:0,2:0:0:0:
407,134,106948,6,0,P|413:63|383:24,1,107.999996704102,4|0,2:0|2:0,2:0:0:0:
311,10,107251,1,0,3:0:0:0:
311,10,107402,1,0,1:0:0:0:
245,75,107554,2,0,L|119:59,1,107.999996704102,8|0,1:0|1:0,2:0:0:0:
49,0,107857,6,0,L|57:68,1,53.9999983520508,0|0,3:0|2:0,2:0:0:0:
47,66,108008,2,0,L|55:134,1,53.9999983520508,0|0,1:0|2:0,2:0:0:0:
49,132,108160,2,0,L|180:152,1,107.999996704102,8|0,1:0|1:0,2:0:0:0:
185,257,108463,2,0,B|158:234|158:234|118:241|118:241|102:271,1,107.999996704102,0|0,3:0|1:0,2:0:0:0:
230,181,108766,2,0,P|302:205|264:241,1,107.999996704102,8|0,1:0|1:0,2:0:0:0:
185,257,109069,5,0,3:0:0:0:
254,357,109220,1,0,1:0:0:0:
254,357,109295,1,0,1:0:0:0:
254,357,109371,1,8,1:0:0:0:
163,337,109524,1,0,2:0:0:0:
334,326,109675,1,0,3:0:0:0:
418,359,109827,1,0,1:0:0:0:
418,359,109978,2,0,P|448:303|451:251,1,107.999996704102,8|0,1:0|1:0,2:0:0:0:
425,66,110281,6,0,L|430:190,1,107.999996704102,0|0,3:0|1:0,2:0:0:0:
451,259,110508,1,0,1:0:0:0:
451,259,110584,2,0,P|383:214|310:212,1,107.999996704102,8|0,1:0|1:0,2:0:0:0:
343,132,110811,1,0,1:0:0:0:
343,132,110887,2,0,P|265:156|217:211,1,107.999996704102,0|0,3:0|1:0,2:0:0:0:
283,249,111114,1,0,2:0:0:0:
283,249,111190,2,0,P|307:277|348:298,1,53.9999983520508,8|0,1:0|2:0,2:0:0:0:
194,241,111342,2,0,P|160:245|114:267,1,53.9999983520508,8|0,1:0|2:0,2:0:0:0:
245,171,111493,6,0,P|254:145|253:111,3,53.9999983520508,0|0|0|0,3:0|3:0|3:0|3:0,3:0:0:0:
172,131,111796,2,0,P|93:146|34:196,1,116.999994644165,8|0,1:0|1:0,2:0:0:0:
0,101,112099,2,0,B|-2:44|-2:44|74:67,1,116.999994644165,8|0,1:0|1:0,2:0:0:0:
200,46,112402,2,0,B|179:-6|179:-6|119:46,1,116.999994644165,8|0,1:0|1:0,2:0:0:0:
334,83,112705,6,0,P|343:108|338:142,3,58.4999973220826,0|0|0|0,3:0|3:0|3:0|3:0,3:0:0:0:
316,228,113008,2,0,P|385:227|436:176,1,116.999994644165,8|0,1:0|1:0,2:0:0:0:
500,315,113311,2,0,B|462:339|462:339|370:299,1,116.999994644165,8|0,1:0|1:0,2:0:0:0:
302,357,113614,2,0,B|346:363|346:363|414:289,1,116.999994644165,8|0,1:0|1:0,2:0:0:0:
395,309,113842,1,0,3:0:0:0:
395,309,113917,5,8,1:0:0:0:
290,230,114069,1,8,1:0:0:0:
185,323,114220,1,0,3:0:0:0:
387,340,114372,5,8,1:0:0:0:
290,230,114524,1,8,1:0:0:0:
153,281,114675,1,0,1:0:0:0:
147,284,114751,1,0,1:0:0:0:
141,287,114827,2,0,L|14:266,1,116.999994644165,8|0,1:0|1:0,2:0:0:0:
16,149,115130,5,8,1:0:0:0:
16,149,115281,1,0,1:0:0:0:
111,198,115433,1,8,1:0:0:0:
111,198,115584,1,0,3:0:0:0:
181,128,115736,5,8,1:0:0:0:
263,183,115887,1,0,3:0:0:0:
330,100,116039,2,0,B|345:15|345:15|305:42,1,116.999994644165,8|0,1:0|3:0,2:0:0:0:
263,183,116342,6,0,B|345:193|309:125|436:149,1,135.000005149842,8|0,1:0|2:0,2:0:0:0:
382,222,116569,1,2,2:0:0:0:
382,222,116645,2,0,B|304:241|340:173|258:183,1,135.000005149842,8|0,1:0|2:0,2:0:0:0:
258,261,116872,1,2,2:0:0:0:
258,261,116948,2,0,B|340:271|304:203|431:227,1,135.000005149842,8|0,1:0|2:0,2:0:0:0:
377,300,117175,1,2,2:0:0:0:
377,300,117251,2,0,B|298:318|334:250|252:260,1,135.000005149842,8|0,1:0|2:0,2:0:0:0:
252,339,117478,1,2,2:0:0:0:
252,339,117554,6,0,B|317:354|346:308|378:294|378:294|447:257|503:326|457:387|400:363,1,323.999990112305,10|0,2:0|2:0,2:0:0:0:
