osu file format v14

[General]
AudioFilename: funkotsusaishin.mp3
AudioLeadIn: 0
PreviewTime: 96948
Countdown: 0
SampleSet: Soft
StackLeniency: 0.4
Mode: 0
LetterboxInBreaks: 0
WidescreenStoryboard: 1

[Editor]
DistanceSpacing: 1
BeatDivisor: 2
GridSize: 16
TimelineZoom: 1.6

[Metadata]
Title:Funkotsu Saishin Casino
TitleUnicode:粉骨砕身カジノゥ
Artist:Morimori Atsushi
ArtistUnicode:モリモリあつし
Creator:SuperBox
Version:Easy
Source:Muse Dash
Tags:FA osu! featured artist instrumental electronic newspaper cup 2020 npc mapping contest PeroPeroGames video game taito groove coaster marvelous inc. wacca Cytus II Rayark Acylica papapa213 110 Pata-Mon
BeatmapID:2413569
BeatmapSetID:1153959

[Difficulty]
HPDrainRate:3
CircleSize:3
OverallDifficulty:2
ApproachRate:4
SliderMultiplier:0.799999999999999
SliderTickRate:1

[Events]
//Background and Video events
0,0,"bg.jpg",0,0
//Break Periods
//Storyboard Layer 0 (Background)
//Storyboard Layer 1 (Fail)
//Storyboard Layer 2 (Pass)
//Storyboard Layer 3 (Foreground)
//Storyboard Layer 4 (Overlay)
//Storyboard Sound Samples

[TimingPoints]
1192,303.030303030303,4,2,23,50,1,0
7252,-100,4,2,23,70,0,0
11646,-100,4,2,23,90,0,0
19373,-100,4,2,23,70,0,0
20888,-100,4,2,23,90,0,0
21797,-100,4,2,23,80,0,0
23010,-100,4,2,23,90,0,0
23388,-100,4,2,23,70,0,0
24222,-100,4,2,23,90,0,0
52252,-100,4,2,23,70,0,0
52707,-100,4,2,23,90,0,0
52858,-100,4,2,23,70,0,0
53314,-100,4,2,23,90,0,0
62101,-100,4,2,23,90,0,1
62138,-100,4,2,23,90,0,0
63010,-100,4,2,23,80,0,0
64222,-133.333333333333,4,2,23,80,0,1
65434,454.545454545455,4,2,23,90,1,0
66343,-100,4,2,23,70,0,0
79979,-100,4,2,23,80,0,0
80888,-100,4,2,23,70,0,0
82365,-100,4,2,23,50,0,0
82706,-100,4,2,23,70,0,0
83615,-100,4,2,23,80,0,0
84070,-100,4,2,23,70,0,0
84184,-100,4,2,23,50,0,0
84297,-100,4,2,23,70,0,0
87252,-100,4,2,23,80,0,0
87706,-100,4,2,23,50,0,0
88274,-100,4,2,23,70,0,0
88615,-100,4,2,23,50,0,0
89070,-100,4,2,23,80,0,0
89979,-100,4,2,23,50,0,0
90093,-100,4,2,23,70,0,0
90433,-100,4,2,23,50,0,0
90888,-100,4,2,23,80,0,0
94524,303.030303030303,4,2,23,80,1,1
94524,-153.846153846154,4,2,23,80,0,1
95584,-153.846153846154,4,2,23,70,0,1
96948,-100,4,2,23,70,0,0
101342,-100,4,2,23,90,0,0
106645,-100,4,2,23,90,0,1
113917,-100,4,2,23,70,0,1
116304,-100,4,2,23,70,0,0
116342,-100,4,2,23,90,0,1
116380,-100,4,2,23,90,0,0
116645,-100,4,2,23,90,0,1
116683,-100,4,2,23,90,0,0
116948,-100,4,2,23,90,0,1
116986,-100,4,2,23,90,0,0
117251,-100,4,2,23,90,0,1
117289,-100,4,2,23,90,0,0
117554,-100,4,2,23,5,0,0
120887,-100,4,2,23,5,0,0

[Colours]
Combo1 : 249,247,149
Combo2 : 216,147,225
Combo3 : 202,70,94
Combo4 : 69,214,87
Combo5 : 74,219,219

[HitObjects]
51,240,2404,6,0,L|146:221,1,79.9999999999999,6|0,2:0|2:0,2:0:0:0:
207,205,3010,2,0,P|124:190|72:126,1,160,2|2,2:0|2:0,2:0:0:0:
87,56,3919,1,0,2:0:0:0:
145,0,4222,2,0,L|308:38,1,160,2|2,2:0|2:0,2:0:0:0:
378,56,5131,5,0,2:0:0:0:
457,54,5434,2,0,P|445:135|439:219,1,160,2|2,2:0|2:0,2:0:0:0:
449,292,6343,1,0,2:0:0:0:
399,354,6646,2,0,L|218:322,1,160,2|6,2:0|3:2,2:0:0:0:
141,201,7858,5,2,3:2:0:0:
175,44,8464,1,2,3:2:0:0:
250,184,9070,1,2,3:2:0:0:
221,341,9676,6,0,B|145:323|145:323|105:252|105:252|27:230,1,240,2|2,3:2|3:2,2:0:0:0:
39,151,10888,1,2,3:0:0:0:
20,72,11192,1,2,2:3:0:0:
76,14,11495,2,0,L|168:29,1,79.9999999999999,2|0,2:3|3:2,2:0:0:0:
217,77,12101,6,0,L|230:167,2,79.9999999999999,6|0|2,3:2|1:2|1:0,2:0:0:0:
265,13,13010,1,2,1:0:0:0:
319,71,13313,1,2,3:2:0:0:
396,49,13616,2,0,P|469:79|492:157,1,160,2|2,1:2|1:0,2:0:0:0:
436,207,14525,2,0,L|351:199,2,79.9999999999999,2|2|2,3:2|1:2|1:0,2:0:0:0:
491,264,15434,1,2,1:0:0:0:
474,342,15737,1,2,3:2:0:0:
234,321,16646,1,2,1:0:0:0:
206,246,16949,6,0,P|123:251|34:258,1,160,6|2,3:2|1:0,2:0:0:0:
5,187,17858,1,2,1:0:0:0:
50,120,18161,2,0,L|217:142,1,160,6|2,3:2|1:0,2:0:0:0:
278,101,19070,1,2,1:0:0:0:
319,169,19373,1,6,3:2:0:0:
388,208,19676,2,0,L|485:191,2,79.9999999999999,2|2|2,1:2|1:0|1:0,2:0:0:0:
362,283,20585,1,2,3:2:0:0:
282,284,20888,1,2,1:2:0:0:
222,337,21191,2,0,P|136:320|93:245,1,160,2|6,2:0|1:2,2:0:0:0:
78,185,22101,6,0,L|83:87,1,79.9999999999999,6|6,1:2|1:2,2:0:0:0:
89,25,22707,1,6,1:2:0:0:
168,34,23010,2,0,B|269:9|285:142|397:85,1,240,6|2,1:2|2:3,2:0:0:0:
452,41,24222,5,6,3:2:0:0:
495,108,24525,2,0,L|474:293,1,160,0|2,1:2|1:2,2:0:0:0:
454,343,25434,2,0,P|376:342|346:251,1,160,2|2,3:2|1:2,2:0:0:0:
356,197,26343,1,2,1:2:0:0:
360,117,26646,2,0,L|260:136,1,79.9999999999999,2|2,3:2|1:2,2:0:0:0:
201,127,27252,2,0,P|170:84|175:-1,2,120,2|2|2,1:2|2:1|1:2,2:0:0:0:
241,195,28464,2,0,L|236:280,1,79.9999999999999,2|2,1:0|1:2,2:1:0:0:
187,338,29070,6,0,L|56:329,2,120,6|2|0,3:2|3:2|2:0,2:0:0:0:
265,355,30282,1,2,3:2:0:0:
323,300,30585,2,0,B|387:305|387:305|427:298|427:298|496:299,1,160,2|2,1:2|2:0,2:0:0:0:
477,219,31495,2,0,P|485:135|428:57,1,160,2|2,3:2|1:2,2:0:0:0:
372,46,32404,1,2,1:2:0:0:
303,86,32707,2,0,L|323:176,2,79.9999999999999,2|2|2,1:2|1:2|1:2,2:0:0:0:
283,8,33616,1,2,2:0:0:0:
209,39,33919,6,0,P|147:36|65:27,2,120,6|2|0,3:2|3:2|2:0,2:0:0:0:
255,104,35131,1,2,3:2:0:0:
215,173,35434,2,0,L|24:157,1,160,2|2,1:2|1:2,2:0:0:0:
17,230,36343,2,0,P|19:290|31:361,2,120,6|2|0,3:2|3:2|2:0,2:0:0:0:
5,150,37555,1,2,3:2:0:0:
45,81,37858,2,0,L|236:97,1,160,2|2,1:2|1:2,2:0:0:0:
275,57,38767,6,0,P|331:62|419:69,2,120,6|2|0,3:2|3:2|2:0,2:0:0:0:
195,55,39979,2,0,P|191:115|185:197,2,120,6|2|0,3:2|3:2|2:0,2:0:0:0:
115,43,41191,5,6,3:2:0:0:
104,202,41798,1,6,3:2:0:0:
263,213,42404,1,2,2:0:0:0:
263,213,43616,5,4,3:2:0:0:
263,213,44828,1,0,3:2:0:0:
263,213,46040,6,0,P|347:227|449:198,1,160,0|0,3:2|3:2,2:0:0:0:
473,153,46949,1,0,3:2:0:0:
473,73,47252,2,0,L|232:68,1,240,0|0,3:2|3:2,2:0:0:0:
157,95,48464,6,0,P|181:179|174:268,1,160,4|0,3:2|3:2,2:0:0:0:
48,348,49676,2,0,P|24:281|21:185,1,160,0|0,3:2|3:2,2:0:0:0:
70,40,50888,2,0,L|232:55,1,160,4|0,3:2|3:2,2:0:0:0:
256,192,52101,12,6,53314,3:2:0:0:
256,192,54525,5,2,2:0:0:0:
256,192,55737,1,2,2:0:0:0:
256,192,56949,1,2,2:0:0:0:
256,192,58161,1,2,3:2:0:0:
256,192,59373,2,0,P|292:213|419:84,1,240,2|2,3:2|3:2,2:0:0:0:
402,32,60585,6,0,L|238:40,2,160,2|2|2,3:2|3:2|3:2,2:0:0:0:
482,36,62101,2,0,B|493:99|441:125|454:201,1,160,2|0,2:0|2:0,2:0:0:0:
452,270,63010,5,6,1:2:0:0:
377,241,63313,1,6,1:2:0:0:
302,212,63616,1,6,1:2:0:0:
228,179,63919,1,6,1:2:0:0:
152,152,64222,2,0,P|140:298|215:332,1,240.000009155273,6|6,1:2|3:2,2:0:0:0:
390,275,66343,6,0,L|399:166,1,79.9999999999999,2|0,3:2|3:2,2:0:0:0:
328,127,67252,1,2,3:2:0:0:
153,140,68161,2,0,L|160:230,1,79.9999999999999,2|0,3:2|3:2,2:0:0:0:
160,315,69070,1,2,3:2:0:0:
334,313,69979,2,0,L|327:223,1,79.9999999999999,2|0,3:2|3:2,2:0:0:0:
284,147,70888,2,0,B|196:140|153:57|153:57|60:50,1,240,2|0,1:2|3:2,2:0:0:0:
16,123,72706,6,0,P|12:169|16:209,1,79.9999999999999,6|0,3:2|3:2,2:0:0:0:
96,253,73615,1,2,3:2:0:0:
252,205,74524,2,0,P|245:168|249:118,1,79.9999999999999,2|0,3:2|3:2,2:0:0:0:
338,94,75434,1,2,3:2:0:0:
464,186,76343,2,0,P|461:224|444:271,1,79.9999999999999,6|0,3:2|3:2,2:0:0:0:
359,300,77252,1,2,3:2:0:0:
201,235,78161,2,0,B|197:137|268:93|268:93|272:18,1,240,2|0,3:2|3:2,2:0:0:0:
363,47,79979,5,6,3:2:0:0:
207,159,80888,1,2,3:2:0:0:
141,88,81342,1,2,3:2:0:0:
44,86,81797,2,0,L|27:171,2,79.9999999999999,2|0|0,3:2|3:2|3:2,2:0:0:0:
234,65,83615,5,6,3:2:0:0:
319,109,84070,2,0,L|425:98,2,79.9999999999999,2|0|0,3:2|3:2|3:2,2:0:0:0:
244,169,85434,2,0,L|145:152,1,79.9999999999999,2|0,1:2|1:2,2:0:0:0:
69,148,86343,2,0,P|52:186|54:238,1,79.9999999999999,2|0,1:2|3:2,2:0:0:0:
83,314,87252,5,6,3:2:0:0:
178,301,87706,1,6,3:2:0:0:
272,284,88161,2,0,L|371:268,1,79.9999999999999,6|4,3:2|3:2,2:0:0:0:
431,323,89070,1,6,3:2:0:0:
499,143,89979,2,0,P|461:147|420:138,1,79.9999999999999,6|4,3:2|3:2,2:0:0:0:
346,76,90888,5,6,3:2:0:0:
253,101,91343,1,2,3:2:0:0:
161,128,91797,2,0,L|65:104,1,79.9999999999999,6|0,3:2|3:2,2:0:0:0:
10,171,92706,6,0,L|32:263,1,79.9999999999999,6|6,1:2|1:2,2:0:0:0:
124,258,93615,2,0,L|145:348,1,79.9999999999999,6|6,1:2|3:2,2:0:0:0:
234,363,94524,2,0,P|376:307|373:112,1,363.999983337403,6|2,1:2|3:2,2:0:0:0:
333,50,96948,6,0,P|220:42|88:32,1,240,6|2,3:2|2:0,2:0:0:0:
15,47,98160,1,2,2:0:0:0:
260,149,99372,2,0,L|345:157,2,79.9999999999999,2|2|2,2:0|2:0|2:0,2:0:0:0:
198,98,100281,1,2,2:0:0:0:
118,93,100584,2,0,P|35:197|80:296,1,240,2|2,2:0|1:2,2:0:0:0:
128,339,101796,6,0,P|206:338|290:336,1,160,2|2,3:2|3:2,2:0:0:0:
367,335,102705,1,2,3:2:0:0:
441,305,103008,2,0,P|421:228|419:138,1,160,2|2,3:2|3:2,2:0:0:0:
442,71,103917,1,2,3:2:0:0:
384,14,104220,5,2,1:2:0:0:
308,41,104523,2,0,L|211:24,2,79.9999999999999,2|2|2,3:2|3:2|1:2,2:0:0:0:
348,110,105433,1,2,2:0:0:0:
505,135,106039,1,2,3:2:0:0:
495,214,106342,1,2,3:2:0:0:
472,290,106645,6,0,L|493:379,2,79.9999999999999,2|6|2,3:2|1:2|3:1,2:0:0:0:
393,276,107554,1,2,1:0:0:0:
413,198,107857,1,2,3:2:0:0:
356,141,108160,2,0,P|277:181|194:171,1,160,2|2,1:2|1:0,2:0:0:0:
132,148,109069,2,0,L|115:61,2,79.9999999999999,2|2|2,3:2|1:2|3:1,2:0:0:0:
138,227,109978,1,2,1:0:0:0:
147,306,110281,2,0,P|258:329|393:359,1,240,2|2,3:2|1:0,2:0:0:0:
459,337,111493,6,0,P|494:267|453:186,1,160,6|2,3:2|3:1,2:0:0:0:
391,165,112402,1,2,1:0:0:0:
314,144,112705,2,0,L|274:310,1,160,2|2,3:2|3:1,2:0:0:0:
202,329,113614,1,2,1:0:0:0:
135,284,113917,1,2,3:2:0:0:
151,205,114220,2,0,L|66:181,2,79.9999999999999,2|2|2,1:2|3:1|1:0,2:0:0:0:
228,225,115129,1,2,3:1:0:0:
251,148,115433,2,0,L|278:52,2,79.9999999999999,2|2|2,1:0|3:1|3:2,2:1:0:0:
311,200,116342,5,6,1:2:0:0:
385,227,116645,1,6,1:2:0:0:
461,202,116948,1,6,1:2:0:0:
479,124,117251,1,6,1:2:0:0:
256,192,117554,12,0,120887,2:0:0:0:
