osu file format v14

[General]
AudioFilename: funkotsusaishin.mp3
AudioLeadIn: 0
PreviewTime: 96948
Countdown: 0
SampleSet: Soft
StackLeniency: 0.7
Mode: 0
LetterboxInBreaks: 0
WidescreenStoryboard: 1

[Editor]
Bookmarks: 79847
DistanceSpacing: 1.5
BeatDivisor: 4
GridSize: 8
TimelineZoom: 1.6

[Metadata]
Title:Funkotsu Saishin Casino
TitleUnicode:粉骨砕身カジノゥ
Artist:Morimori Atsushi
ArtistUnicode:モリモリあつし
Creator:SuperBox
Version:110's Normal
Source:Muse Dash
Tags:FA osu! featured artist instrumental electronic newspaper cup 2020 npc mapping contest PeroPeroGames video game taito groove coaster marvelous inc. wacca Cytus II Rayark Acylica papapa213 110 Pata-Mon
BeatmapID:2453609
BeatmapSetID:1153959

[Difficulty]
HPDrainRate:3
CircleSize:3.5
OverallDifficulty:4
ApproachRate:6
SliderMultiplier:0.899999999999999
SliderTickRate:1

[Events]
//Background and Video events
0,0,"bg.jpg",0,0
//Break Periods
//Storyboard Layer 0 (Background)
//Storyboard Layer 1 (Fail)
//Storyboard Layer 2 (Pass)
//Storyboard Layer 3 (Foreground)
//Storyboard Layer 4 (Overlay)
//Storyboard Sound Samples

[TimingPoints]
1192,303.030303030303,4,2,23,50,1,0
7252,-100,4,2,23,70,0,0
11646,-100,4,2,23,90,0,0
19373,-100,4,2,23,70,0,0
20888,-100,4,2,23,90,0,0
21798,-100,4,2,23,80,0,0
23010,-100,4,2,23,90,0,0
23388,-100,4,2,23,70,0,0
24222,-100,4,2,23,90,0,0
30055,-100,4,2,23,70,0,0
30282,-100,4,2,23,90,0,0
34904,-100,4,2,23,70,0,0
35131,-100,4,2,23,90,0,0
37328,-100,4,2,23,70,0,0
37555,-100,4,2,23,90,0,0
39752,-100,4,2,23,70,0,0
39979,-100,4,2,23,90,0,0
40964,-100,4,2,23,70,0,0
41191,-100,4,2,23,90,0,0
52252,-100,4,2,23,70,0,0
52707,-100,4,2,23,90,0,0
52858,-100,4,2,23,70,0,0
53313,-100,4,2,23,90,0,0
62101,-100,4,2,23,90,0,1
62138,-100,4,2,23,90,0,0
63010,-100,4,2,23,80,0,0
64222,-133.333333333333,4,2,23,80,0,1
65434,454.545454545455,4,2,23,90,1,0
65888,-100,4,2,23,70,0,0
79979,-100,4,2,23,80,0,0
80434,-100,4,2,23,70,0,0
82365,-100,4,2,23,50,0,0
82706,-100,4,2,23,70,0,0
83615,-100,4,2,23,80,0,0
84070,-100,4,2,23,70,0,0
86911,-100,4,2,23,90,0,0
87252,-100,4,2,23,80,0,0
87706,-100,4,2,23,50,0,0
89070,-100,4,2,23,80,0,0
89297,-100,4,2,23,100,0,0
89524,-100,4,2,23,50,0,0
90888,-100,4,2,23,80,0,0
94524,303.030303030303,4,2,23,80,1,1
95584,-100,4,2,23,70,0,1
96948,-100,4,2,23,70,0,0
101341,-100,4,2,23,90,0,0
106645,-100,4,2,23,90,0,1
112175,-100,4,2,23,70,0,1
112402,-100,4,2,23,90,0,1
113387,-100,4,2,23,70,0,1
113614,-100,4,2,23,90,0,1
113690,-100,4,2,23,70,0,1
116304,-100,4,2,23,70,0,0
116342,-100,4,2,23,90,0,1
116380,-100,4,2,23,90,0,0
116645,-100,4,2,23,90,0,1
116683,-100,4,2,23,90,0,0
116948,-100,4,2,23,90,0,1
116986,-100,4,2,23,90,0,0
117251,-100,4,2,23,90,0,1
117289,-100,4,2,23,90,0,0

[Colours]
Combo1 : 249,247,149
Combo2 : 216,147,225
Combo3 : 202,70,94
Combo4 : 69,214,87
Combo5 : 74,219,219

[HitObjects]
19,205,2404,6,0,L|6:109,1,89.9999999999999,6|0,2:0|2:0,2:0:0:0:
80,55,3010,2,0,B|108:84|108:84|206:70|206:70|221:30,1,180,2|2,2:0|2:0,2:0:0:0:
307,8,3919,1,0,2:0:0:0:
300,97,4222,2,0,B|314:135|314:135|412:149|412:149|440:120,1,180,2|2,2:0|2:0,2:0:0:0:
500,187,5131,5,0,2:0:0:0:
508,276,5434,2,0,B|493:314|493:314|395:328|395:328|367:299,1,180,2|2,2:0|2:0,2:0:0:0:
282,269,6343,1,0,2:0:0:0:
314,185,6646,1,2,2:0:0:0:
398,215,6949,1,8,2:1:0:0:
367,299,7252,6,0,L|168:326,1,180,6|2,3:2|3:2,2:0:0:0:
140,247,8161,1,2,2:0:0:0:
158,160,8464,6,0,L|336:135,1,180,2|2,3:2|3:2,2:0:0:0:
371,222,9373,1,2,2:0:0:0:
465,216,9676,5,2,3:2:0:0:
488,125,9979,1,2,3:2:0:0:
409,75,10282,1,2,3:2:0:0:
336,134,10585,1,2,3:2:0:0:
371,222,10888,6,0,L|360:314,1,89.9999999999999,2|2,3:0|2:3,2:0:0:0:
296,375,11495,2,0,L|242:367,1,45,2|0,2:3|3:2,2:0:0:0:
213,344,11798,2,0,L|151:347,1,45,0|0,3:2|2:0,2:0:0:0:
127,325,12101,6,0,P|88:317|27:313,1,89.9999999999999,6|0,3:2|1:2,2:0:0:0:
2,230,12707,1,2,1:0:0:0:
66,167,13010,1,2,1:0:0:0:
143,212,13313,6,0,P|189:215|250:208,1,89.9999999999999,2|2,3:2|1:2,2:0:0:0:
310,165,13919,1,2,1:0:0:0:
286,78,14222,1,2,1:0:0:0:
367,39,14525,6,0,L|474:44,1,89.9999999999999,2|2,3:2|1:2,2:0:0:0:
482,132,15131,2,0,L|392:127,1,89.9999999999999,2|2,1:0|1:0,2:1:0:0:
310,165,15737,2,0,P|299:210|305:254,1,89.9999999999999,2|2,3:2|1:2,2:0:0:0:
394,257,16343,1,2,1:0:0:0:
460,317,16646,1,2,1:0:0:0:
383,363,16949,6,0,P|334:347|241:361,1,135,6|0,3:2|3:2,2:0:0:0:
207,349,17555,1,2,1:0:0:0:
40,382,18161,6,0,L|61:243,1,135,6|2,3:2|3:2,2:0:0:0:
46,205,18767,1,2,1:0:0:0:
76,45,19373,5,6,3:2:0:0:
153,67,19676,1,2,1:2:0:0:
234,57,19979,2,0,B|305:79|282:26|373:58,1,135,2|0,1:0|2:1,2:1:0:0:
395,23,20585,5,2,3:2:0:0:
464,79,20888,1,2,1:2:0:0:
441,166,21191,2,0,L|382:172,1,45,2|2,2:0|3:2,2:0:0:0:
350,174,21495,2,0,L|291:180,1,45,2|2,3:2|2:0,2:0:0:0:
285,219,21798,6,0,P|280:264|291:310,1,89.9999999999999,6|6,1:2|1:2,2:0:0:0:
368,350,22404,2,0,P|373:305|363:261,1,89.9999999999999,6|6,1:2|1:2,2:0:0:0:
350,174,23010,6,0,P|270:281|115:281,1,270,6|2,1:2|2:3,2:0:0:0:
52,296,24222,6,0,L|32:206,1,89.9999999999999,6|0,3:2|1:2,2:0:0:0:
35,118,24828,2,0,B|103:123|103:123|151:178,1,135,2|2,1:0|2:0,2:1:0:0:
190,161,25434,6,0,L|209:98,1,45,2|2,3:2|2:0,2:0:0:0:
244,100,25737,2,0,L|260:46,1,45,2|2,1:2|3:2,2:0:0:0:
301,59,26040,2,0,L|313:7,2,45,2|0|2,1:2|3:2|1:2,2:0:0:0:
335,142,26646,5,2,3:2:0:0:
277,213,26949,2,0,P|221:196|133:187,1,135,2|2,1:2|3:2,2:0:0:0:
116,221,27555,2,0,L|106:282,1,45,2|2,1:2|2:1,2:0:0:0:
87,304,27858,6,0,P|40:291|-11:284,1,89.9999999999999,0|2,3:1|1:2,2:0:0:0:
25,181,28464,2,0,L|15:137,2,45,2|2|2,1:0|3:1|1:2,2:1:0:0:
116,221,29070,6,0,L|132:316,1,89.9999999999999,6|0,3:2|1:2,2:0:0:0:
161,344,29525,1,2,3:2:0:0:
250,337,29828,2,0,L|233:242,1,89.9999999999999,2|0,3:2|2:0,2:0:0:0:
196,223,30282,2,0,L|297:204,1,89.9999999999999,2|2,3:2|1:2,2:0:0:0:
373,190,30888,2,0,L|362:134,1,45,2|2,1:2|3:2,2:0:0:0:
359,100,31191,1,2,2:0:0:0:
366,10,31495,6,0,P|306:16|264:8,1,89.9999999999999,2|2,3:2|1:2,2:0:0:0:
196,51,32101,2,0,P|136:45|94:53,1,89.9999999999999,2|2,1:2|1:2,2:0:0:0:
49,118,32707,5,2,1:2:0:0:
41,207,33010,1,2,1:2:0:0:
93,280,33313,1,2,1:2:0:0:
181,296,33616,1,2,2:0:0:0:
253,349,33919,6,0,L|361:337,1,89.9999999999999,6|0,3:2|1:2,2:0:0:0:
380,361,34373,1,2,3:2:0:0:
469,372,34676,2,0,L|481:264,1,89.9999999999999,2|0,3:2|2:0,2:0:0:0:
498,241,35131,2,0,L|408:250,1,89.9999999999999,2|2,3:2|1:2,2:0:0:0:
318,251,35737,2,0,L|327:189,1,45,2|2,1:2|3:2,2:0:0:0:
333,162,36040,1,2,1:2:0:0:
243,166,36343,6,0,P|191:159|150:166,1,89.9999999999999,6|0,3:2|1:2,2:0:0:0:
123,197,36798,1,2,3:2:0:0:
50,144,37101,2,0,P|57:92|50:51,1,89.9999999999999,2|0,3:2|2:0,2:0:0:0:
18,25,37555,2,0,P|70:32|111:25,1,89.9999999999999,2|2,3:2|1:2,2:0:0:0:
193,2,38161,2,0,L|204:57,1,45,2|2,1:2|3:2,2:0:0:0:
211,90,38464,1,2,1:2:0:0:
300,85,38767,6,0,L|407:78,1,89.9999999999999,6|0,3:2|1:2,2:0:0:0:
434,87,39222,1,2,3:2:0:0:
380,159,39525,2,0,L|290:164,1,89.9999999999999,2|0,3:2|2:0,2:0:0:0:
247,179,39979,2,0,L|157:184,1,89.9999999999999,6|0,3:2|1:2,2:0:0:0:
117,205,40434,1,2,3:2:0:0:
145,290,40737,6,0,L|234:284,1,89.9999999999999,2|0,3:2|2:0,2:0:0:0:
278,295,41191,2,0,L|367:289,1,89.9999999999999,6|0,3:2|2:0,2:0:0:0:
409,306,41646,2,0,L|460:303,1,45,2|6,3:2|3:2,2:0:0:0:
496,317,41949,1,0,1:2:0:0:
504,182,42404,6,0,B|471:131|471:131|319:262|319:262|283:201,1,315,2|2,3:2|3:2,2:0:0:0:
252,191,43616,5,4,3:2:0:0:
281,106,43919,1,0,3:2:0:0:
235,28,44222,1,0,3:2:0:0:
145,17,44525,1,0,3:2:0:0:
69,67,44828,6,0,L|83:158,1,89.9999999999999,0|0,3:2|3:2,2:0:0:0:
16,217,45434,2,0,L|30:308,1,89.9999999999999,0|0,3:2|3:2,2:0:0:0:
115,331,46040,5,0,3:2:0:0:
204,314,46343,1,0,3:2:0:0:
294,327,46646,1,0,3:2:0:0:
365,383,46949,1,0,3:2:0:0:
436,328,47252,6,0,L|425:228,1,89.9999999999999,0|0,3:2|3:2,2:0:0:0:
377,163,47858,1,0,3:2:0:0:
459,127,48161,1,0,3:2:0:0:
493,43,48464,1,4,3:2:0:0:
412,3,48767,1,0,3:2:0:0:
322,11,49070,1,0,3:2:0:0:
247,61,49373,1,0,3:2:0:0:
165,22,49676,6,0,P|124:27|79:49,1,89.9999999999999,0|0,3:2|3:2,2:0:0:0:
130,122,50282,2,0,P|189:130|223:156,1,89.9999999999999,0|0,3:2|3:2,2:0:0:0:
303,140,50888,5,4,3:2:0:0:
268,223,51191,1,0,3:2:0:0:
188,266,51495,1,0,3:2:0:0:
98,258,51798,1,0,3:2:0:0:
129,342,52101,6,0,P|216:339|409:359,1,270,2|2,3:0|2:3,2:0:0:0:
485,377,53313,5,6,3:2:0:0:
485,377,54525,1,2,2:0:0:0:
506,17,55737,5,2,2:0:0:0:
506,17,56949,1,2,2:0:0:0:
459,190,57555,2,0,L|381:197,2,67.4999999999999,2|2|2,3:2|3:2|3:2,2:0:0:0:
503,185,58161,5,2,3:2:0:0:
468,102,58464,2,0,P|420:89|373:91,1,89.9999999999999,2|2,1:2|3:2,2:0:0:0:
293,115,59070,1,2,1:2:0:0:
296,204,59373,5,2,3:2:0:0:
213,167,59676,2,0,P|168:156|123:155,1,89.9999999999999,2|2,1:2|3:2,2:0:0:0:
36,172,60282,1,2,3:2:0:0:
12,258,60585,1,2,3:2:0:0:
67,328,60888,1,2,3:2:0:0:
137,272,61191,1,2,3:2:0:0:
191,344,61495,1,2,3:2:0:0:
280,341,61798,6,0,P|329:334|388:335,1,89.9999999999999,2|2,3:2|2:0,2:0:0:0:
455,306,62404,2,0,P|450:342|450:383,2,67.4999999999999,2|0|0,2:0|2:0|2:0,2:0:0:0:
490,278,63010,5,6,1:2:0:0:
509,190,63313,1,6,1:2:0:0:
479,104,63616,1,6,1:2:0:0:
414,40,63919,1,6,1:2:0:0:
326,20,64222,6,0,B|288:44|244:32|244:32|247:49|229:71|199:83|162:77|147:61|145:45|145:45|119:58|77:60,1,270.000010299683,6|6,1:2|3:0,2:0:0:0:
27,142,65888,6,0,L|33:234,1,89.9999999999999,2|0,1:2|2:0,2:0:0:0:
38,285,66570,2,0,L|43:340,1,45,2|2,1:2|3:2,2:0:0:0:
152,349,67252,5,2,3:2:0:0:
152,349,67706,2,0,L|258:339,1,89.9999999999999,2|0,1:2|2:0,2:0:0:0:
295,335,68388,2,0,L|344:330,1,45,2|2,1:2|3:2,2:0:0:0:
449,355,69070,1,2,3:2:0:0:
449,355,69524,6,0,B|456:309|456:309|434:268,1,89.9999999999999,2|0,1:2|2:0,2:0:0:0:
401,228,70206,2,0,L|408:178,1,45,2|2,1:2|3:2,2:0:0:0:
502,132,70888,6,0,L|513:84,1,45,2|0,1:2|1:2,2:0:0:0:
508,34,71343,2,0,L|419:50,1,89.9999999999999,2|0,1:2|1:2,2:0:0:0:
375,81,72024,2,0,P|358:83|331:80,1,45,2|2,3:2|3:2,2:0:0:0:
242,16,72706,6,0,P|205:30|150:24,1,89.9999999999999,6|0,3:2|1:2,2:0:0:0:
52,59,73615,2,0,P|32:62|-2:59,2,45,2|0|0,3:2|1:2|3:2,2:0:0:0:
141,120,74524,6,0,P|150:167|150:216,1,89.9999999999999,2|0,3:2|1:2,2:0:0:0:
75,287,75434,2,0,P|55:290|21:287,2,45,10|0|0,3:2|1:2|3:2,2:0:0:0:
179,316,76343,6,0,L|275:311,1,89.9999999999999,6|0,3:2|1:2,2:0:0:0:
372,342,77252,2,0,P|353:366|343:385,2,45,2|0|0,3:2|1:2|3:2,2:0:0:0:
475,310,78161,6,0,B|523:250,1,59.9999999999999,2|0,3:2|3:2,2:0:0:0:
505,227,78615,2,0,B|452:184,1,59.9999999999999,2|0,3:2|3:2,2:0:0:0:
430,165,79070,2,0,P|392:186|336:173,1,89.9999999999999,2|0,3:2|3:2,2:0:0:0:
255,237,79979,5,6,3:2:0:0:
228,341,80434,1,2,3:2:0:0:
146,270,80888,1,2,3:2:0:0:
79,355,81343,1,2,3:2:0:0:
8,273,81797,6,0,L|20:212,1,45,2|0,3:2|2:0,2:0:0:0:
61,198,82252,2,0,L|73:142,1,45,2|0,3:2|2:0,2:0:0:0:
79,100,82706,2,0,P|30:84|13:30,1,89.9999999999999,2|0,3:2|3:2,2:0:0:0:
112,9,83615,5,6,3:2:0:0:
216,37,84070,1,2,3:2:0:0:
250,139,84524,1,2,3:2:0:0:
324,60,84979,1,2,3:2:0:0:
428,31,85434,6,0,P|481:38|510:60,1,89.9999999999999,2|0,1:2|1:2,2:0:0:0:
466,158,86343,2,0,L|332:167,1,135,2|0,1:2|2:0,2:0:0:0:
286,197,87252,5,6,3:2:0:0:
200,130,87706,1,6,3:2:0:0:
110,190,88161,1,6,3:2:0:0:
142,292,88615,1,6,3:2:0:0:
250,293,89070,6,0,P|295:287|344:284,1,89.9999999999999,6|4,3:2|3:2,2:0:0:0:
447,287,89979,1,6,3:2:0:0:
475,182,90434,1,6,3:2:0:0:
367,175,90888,6,0,L|266:186,1,89.9999999999999,6|0,3:2|3:2,2:0:0:0:
175,148,91797,2,0,L|74:159,1,89.9999999999999,6|0,3:2|3:2,2:0:0:0:
60,52,92706,6,0,L|149:42,1,89.9999999999999,6|6,1:2|1:2,2:0:0:0:
257,37,93615,2,0,B|262:85,1,45,6|2,1:2|3:2,2:0:0:0:
261,135,94070,1,6,3:2:0:0:
261,135,94524,6,0,P|343:212|274:345,1,270,6|0,1:2|2:0,2:0:0:0:
242,335,95584,6,0,L|195:348,1,45,2|2,1:2|3:2,2:0:0:0:
113,376,96039,1,2,3:2:0:0:
58,305,96342,1,2,3:2:0:0:
108,231,96645,1,2,3:2:0:0:
194,256,96948,6,0,P|241:259|284:246,1,89.9999999999999,6|2,3:2|2:0,2:0:0:0:
363,284,97554,2,0,P|391:246|405:203,1,89.9999999999999,2|2,2:0|2:0,2:0:0:0:
490,187,98160,5,2,2:0:0:0:
510,99,98463,1,2,2:0:0:0:
420,99,98766,1,2,2:0:0:0:
354,37,99069,1,2,2:0:0:0:
264,31,99372,6,0,L|162:43,1,89.9999999999999,2|2,2:0|2:0,2:0:0:0:
132,121,99978,2,0,L|225:134,1,89.9999999999999,2|2,2:0|2:0,2:0:0:0:
313,120,100584,5,2,2:0:0:0:
313,120,100887,1,2,2:0:0:0:
284,205,101190,2,0,P|262:209|236:222,2,45,2|2|2,2:0|1:2|1:2,2:0:0:0:
372,188,101796,6,0,B|399:173|433:176|433:176|461:191|489:219,1,135,2|2,3:2|2:0,2:0:0:0:
493,264,102402,2,0,B|465:292|437:307|437:307|403:310|375:295,1,135,2|2,3:2|2:0,2:0:0:0:
331,307,103008,6,0,B|306:273|306:273|262:250|215:292,1,135,2|2,3:2|2:0,2:0:0:0:
207,320,103614,2,0,B|164:357|120:334|120:334|97:300,1,135,2|2,3:2|2:0,2:0:0:0:
98,255,104220,5,2,1:2:0:0:
157,187,104524,1,2,3:2:0:0:
96,120,104827,2,0,P|73:120|51:114,1,45,2|2,3:2|3:2,2:0:0:0:
34,72,105130,2,0,P|37:41|46:21,1,45,2|2,1:2|3:2,2:0:0:0:
84,12,105433,6,0,P|131:19|180:32,1,89.9999999999999,2|2,2:0|2:0,2:0:0:0:
237,91,106039,2,0,L|289:89,1,45,2|2,3:2|3:2,2:0:0:0:
322,70,106342,2,0,L|375:66,1,45,2|2,3:2|3:2,2:0:0:0:
406,88,106645,6,0,L|466:86,2,45,2|0|6,3:2|2:0|1:2,2:0:0:0:
363,167,107251,2,0,L|264:170,1,89.9999999999999,2|2,3:1|1:0,2:1:0:0:
183,170,107857,1,2,3:2:0:0:
152,254,108160,1,2,1:2:0:0:
213,319,108463,2,0,L|260:313,1,45,2|0,3:1|2:1,2:1:0:0:
289,345,108766,2,0,L|336:339,1,45,2|0,1:0|2:1,2:1:0:0:
370,365,109069,6,0,P|411:351|469:355,1,89.9999999999999,2|2,3:2|1:2,2:0:0:0:
500,274,109675,2,0,P|459:260|401:264,1,89.9999999999999,2|2,3:1|1:0,2:1:0:0:
343,203,110281,1,2,3:2:0:0:
343,203,110584,5,2,1:2:0:0:
356,114,110887,1,2,3:1:0:0:
370,25,111190,1,2,1:0:0:0:
283,50,111493,6,0,P|238:55|182:41,1,89.9999999999999,6|2,3:2|1:2,2:0:0:0:
110,78,112099,2,0,P|137:111|191:132,1,89.9999999999999,2|2,3:1|1:0,2:0:0:0:
268,143,112705,2,0,P|248:188|210:215,1,89.9999999999999,2|2,3:2|1:2,2:0:0:0:
126,207,113311,2,0,L|82:217,1,45,2|2,3:1|3:2,2:0:0:0:
62,257,113614,2,0,L|18:267,1,45,2|2,1:0|3:2,2:0:0:0:
7,310,113917,6,0,P|35:351|87:367,1,89.9999999999999,2|2,3:2|1:2,2:0:0:0:
160,374,114524,2,0,P|195:359|235:300,1,89.9999999999999,2|2,3:1|1:0,2:1:0:0:
220,231,115130,5,2,3:1:0:0:
290,174,115433,1,2,1:0:0:0:
375,203,115736,1,2,3:1:0:0:
390,291,116039,1,2,3:2:0:0:
318,345,116342,6,0,B|285:349|285:349|259:346|259:346|222:352,1,89.9999999999999,6|6,1:2|1:2,2:0:0:0:
155,298,116948,2,0,B|151:268|151:268|154:242|154:242|150:209,1,89.9999999999999,6|6,1:2|1:2,2:0:0:0:
215,146,117554,6,0,B|252:152|252:152|287:143|287:143|350:80|289:-7|201:29,1,270,6|0,1:2|2:0,2:0:0:0:
