osu file format v14

[General]
AudioFilename: audio.mp3
AudioLeadIn: 0
PreviewTime: 39202
Countdown: 0
SampleSet: Normal
StackLeniency: 0.7
Mode: 1
LetterboxInBreaks: 0
WidescreenStoryboard: 0

[Editor]
DistanceSpacing: 1
BeatDivisor: 4
GridSize: 32
TimelineZoom: 3.199999

[Metadata]
Title:Applique
TitleUnicode:Appliqué
Artist:Morimori Atsushi
ArtistUnicode:モリモリあつし
Creator:Shinsekai-
Version:Ura Oni
Source:SOUND VOLTEX II -infinite infection-
Tags:Ayyri SDVX MÚSECA MUSECA Le Fruit Défendu Defendu Sequel タイムカプセル Character Theme First Song Contest 第一回ボルテキャラテーマ曲コンテスト Time Capsule
BeatmapID:961414
BeatmapSetID:447879

[Difficulty]
HPDrainRate:6
CircleSize:2
OverallDifficulty:7
ApproachRate:10
SliderMultiplier:1.4
SliderTickRate:1

[Events]
//Background and Video events
0,0,"Konachan.com_-_217995_hatsune_miku_long_hair_rella_thighhighs_twintails_vocaloid.jpg",0,-55
//Break Periods
//Storyboard Layer 0 (Background)
//Storyboard Layer 1 (Fail)
//Storyboard Layer 2 (Pass)
//Storyboard Layer 3 (Foreground)
//Storyboard Sound Samples

[TimingPoints]
631,267.857142857143,3,1,0,20,1,0
631,-133.333333333333,3,1,0,20,0,0
12416,-125,3,1,0,25,0,0
12550,-121.951219512195,3,1,0,30,0,0
12684,-119.047619047619,3,1,0,35,0,0
12818,-116.279069767442,3,1,0,40,0,0
12952,-113.636363636364,3,1,0,45,0,0
13086,-111.111111111111,3,1,0,50,0,0
13153,-108.695652173913,3,1,0,50,0,0
13220,-106.382978723404,3,1,0,50,0,0
13287,-104.166666666667,3,1,0,50,0,0
13354,-102.040816326531,3,1,0,50,0,0
13488,-100,3,1,0,80,0,0
25809,-99.009900990099,3,1,0,80,0,0
25876,-98.0392156862745,3,1,0,80,0,0
25943,-97.0873786407767,3,1,0,80,0,0
26010,-96.1538461538461,3,1,0,80,0,0
26077,-95.2380952380952,3,1,0,80,0,0
26144,-94.3396226415094,3,1,0,80,0,0
26211,-93.4579439252336,3,1,0,80,0,0
26345,-91.743119266055,3,1,0,80,0,1
26613,-90.9090909090909,3,1,0,80,0,1
39202,-100,3,1,0,80,0,0
39403,-105.263157894737,3,1,0,75,0,0
39671,-111.111111111111,3,1,0,70,0,0
39939,-117.647058823529,3,1,0,65,0,0
40206,-125,3,1,0,60,0,0
40474,-133.333333333333,3,1,0,60,0,0
51189,-100,3,1,0,80,0,0
77773,-100,3,1,0,80,0,1
90631,-100,3,1,0,80,0,0
90898,-105.263157894737,3,1,0,68,0,0
91166,-111.111111111111,3,1,0,66,0,0
91434,-117.647058823529,3,1,0,64,0,0
91702,-125,3,1,0,62,0,0
91970,-133.333333333333,3,1,0,50,0,0
102684,-100,3,1,0,60,0,0
103488,-100,3,1,0,80,0,1
113131,-100,3,1,0,80,0,0
115541,-142.857142857143,3,1,0,80,0,0
116345,-125,3,1,0,80,0,0
117148,-111.111111111111,3,1,0,80,0,0
117952,-50,3,1,0,80,0,0

[HitObjects]
256,192,631,5,8,0:0:0:0:
256,192,764,1,0,0:0:0:0:
256,192,1032,1,0,0:0:0:0:
256,192,1166,1,0,0:0:0:0:
256,192,1434,1,8,0:0:0:0:
256,192,1702,1,0,0:0:0:0:
256,192,1970,1,0,0:0:0:0:
256,192,2238,1,8,0:0:0:0:
256,192,2773,1,0,0:0:0:0:
256,192,3041,1,8,0:0:0:0:
256,192,3309,1,0,0:0:0:0:
256,192,3577,1,0,0:0:0:0:
256,192,3845,1,8,0:0:0:0:
256,192,4381,1,0,0:0:0:0:
256,192,4648,1,8,0:0:0:0:
256,192,4849,1,8,0:0:0:0:
256,192,4916,1,8,0:0:0:0:
256,192,5184,1,0,0:0:0:0:
256,192,5452,1,8,0:0:0:0:
256,192,5720,1,0,0:0:0:0:
256,192,5988,1,0,0:0:0:0:
256,192,6256,1,8,0:0:0:0:
256,192,6523,1,0,0:0:0:0:
256,192,6791,1,0,0:0:0:0:
256,192,7059,1,8,0:0:0:0:
256,192,7461,1,0,0:0:0:0:
256,192,7595,1,0,0:0:0:0:
256,192,7863,1,8,0:0:0:0:
256,192,8131,1,0,0:0:0:0:
256,192,8398,1,0,0:0:0:0:
256,192,8666,1,8,0:0:0:0:
256,192,9202,1,8,0:0:0:0:
256,192,9336,1,0,0:0:0:0:
256,192,9470,1,8,0:0:0:0:
256,192,10006,1,0,0:0:0:0:
256,192,10139,1,0,0:0:0:0:
256,192,10273,1,8,0:0:0:0:
256,192,10675,1,0,0:0:0:0:
256,192,10943,1,0,0:0:0:0:
256,192,11077,1,8,0:0:0:0:
256,192,11345,1,0,0:0:0:0:
256,192,11613,1,0,0:0:0:0:
256,192,11881,1,8,0:0:0:0:
256,192,12416,1,0,0:0:0:0:
256,192,12550,1,0,0:0:0:0:
256,192,12684,1,8,0:0:0:0:
256,192,12818,1,0,0:0:0:0:
256,192,12952,1,0,0:0:0:0:
256,192,13086,1,0,0:0:0:0:
256,192,13153,1,0,0:0:0:0:
256,192,13220,1,0,0:0:0:0:
256,192,13287,1,0,0:0:0:0:
256,192,13354,1,0,0:0:0:0:
256,192,13488,1,12,0:0:0:0:
256,192,13756,1,0,0:0:0:0:
256,192,13822,1,0,0:0:0:0:
256,192,13889,1,8,0:0:0:0:
256,192,13956,1,0,0:0:0:0:
256,192,14023,1,8,0:0:0:0:
256,192,14090,1,8,0:0:0:0:
256,192,14157,1,0,0:0:0:0:
256,192,14291,1,12,0:0:0:0:
256,192,14559,1,8,0:0:0:0:
256,192,14693,1,0,0:0:0:0:
256,192,14760,1,0,0:0:0:0:
256,192,14827,1,8,0:0:0:0:
256,192,14894,1,8,0:0:0:0:
256,192,14961,1,0,0:0:0:0:
256,192,15095,1,12,0:0:0:0:
256,192,15363,1,8,0:0:0:0:
256,192,15430,1,8,0:0:0:0:
256,192,15497,1,0,0:0:0:0:
256,192,15631,1,8,0:0:0:0:
256,192,15697,1,8,0:0:0:0:
256,192,15764,1,0,0:0:0:0:
256,192,15898,1,12,0:0:0:0:
256,192,16166,1,8,0:0:0:0:
256,192,16233,1,8,0:0:0:0:
256,192,16300,1,0,0:0:0:0:
256,192,16367,1,0,0:0:0:0:
256,192,16434,1,8,0:0:0:0:
256,192,16568,1,0,0:0:0:0:
256,192,16702,1,12,0:0:0:0:
256,192,16970,1,8,0:0:0:0:
256,192,17037,1,0,0:0:0:0:
256,192,17104,1,0,0:0:0:0:
256,192,17238,1,8,0:0:0:0:
256,192,17305,1,8,0:0:0:0:
256,192,17372,1,0,0:0:0:0:
256,192,17506,1,12,0:0:0:0:
256,192,17773,1,0,0:0:0:0:
224,192,17840,1,0,0:0:0:0:
224,192,17907,1,8,0:0:0:0:
256,192,18041,1,8,0:0:0:0:
256,192,18108,1,8,0:0:0:0:
256,192,18175,1,0,0:0:0:0:
256,192,18309,1,12,0:0:0:0:
256,192,18577,1,8,0:0:0:0:
256,192,18644,1,8,0:0:0:0:
256,192,18711,1,0,0:0:0:0:
256,192,18845,1,8,0:0:0:0:
256,192,18912,1,8,0:0:0:0:
256,192,18979,1,0,0:0:0:0:
256,192,19113,1,12,0:0:0:0:
256,192,19381,1,0,0:0:0:0:
256,192,19447,1,8,0:0:0:0:
256,192,19515,1,0,0:0:0:0:
256,192,19581,1,0,0:0:0:0:
256,192,19648,1,8,0:0:0:0:
256,192,19715,1,8,0:0:0:0:
256,192,19782,1,0,0:0:0:0:
256,192,19916,1,12,0:0:0:0:
256,192,20184,1,0,0:0:0:0:
256,192,20452,1,0,0:0:0:0:
256,192,20720,1,12,0:0:0:0:
256,192,20988,1,0,0:0:0:0:
256,192,21256,1,0,0:0:0:0:
256,192,21523,1,12,0:0:0:0:
256,192,21791,1,0,0:0:0:0:
256,192,21925,1,12,0:0:0:0:
256,192,22193,1,0,0:0:0:0:
256,192,22327,1,12,0:0:0:0:
256,192,22863,1,8,0:0:0:0:
256,192,22997,1,0,0:0:0:0:
256,192,23131,1,12,0:0:0:0:
256,192,23264,1,0,0:0:0:0:
256,192,23398,1,0,0:0:0:0:
256,192,23465,1,0,0:0:0:0:
256,192,23532,1,8,0:0:0:0:
256,192,23666,1,0,0:0:0:0:
256,192,23800,1,8,0:0:0:0:
256,192,23867,1,8,0:0:0:0:
256,192,23934,1,0,0:0:0:0:
256,192,24068,1,0,0:0:0:0:
256,192,24202,1,8,0:0:0:0:
256,192,24336,1,0,0:0:0:0:
256,192,24470,1,8,0:0:0:0:
256,192,24604,1,0,0:0:0:0:
256,192,24671,1,0,0:0:0:0:
256,192,24738,1,8,0:0:0:0:
256,192,25006,1,0,0:0:0:0:
256,192,25273,1,8,0:0:0:0:
256,192,25407,1,8,0:0:0:0:
256,192,25541,1,0,0:0:0:0:
256,192,25675,1,0,0:0:0:0:
256,192,25742,1,0,0:0:0:0:
256,192,25809,1,8,0:0:0:0:
256,192,25876,1,0,0:0:0:0:
256,192,25943,1,0,0:0:0:0:
256,192,26010,1,0,0:0:0:0:
256,192,26077,1,8,0:0:0:0:
256,192,26144,1,8,0:0:0:0:
256,192,26211,1,8,0:0:0:0:
256,192,26345,1,4,0:0:0:0:
256,192,26613,1,8,0:0:0:0:
256,192,26680,1,8,0:0:0:0:
256,192,26747,1,0,0:0:0:0:
256,192,26814,1,0,0:0:0:0:
256,192,26881,1,8,0:0:0:0:
256,192,26947,1,0,0:0:0:0:
256,192,27014,1,8,0:0:0:0:
256,192,27081,1,8,0:0:0:0:
256,192,27148,1,0,0:0:0:0:
256,192,27282,1,8,0:0:0:0:
256,192,27349,1,8,0:0:0:0:
256,192,27416,1,8,0:0:0:0:
256,192,27550,1,0,0:0:0:0:
256,192,27617,1,0,0:0:0:0:
256,192,27684,1,8,0:0:0:0:
256,192,27818,1,8,0:0:0:0:
256,192,27952,1,0,0:0:0:0:
256,192,28086,1,0,0:0:0:0:
256,192,28153,1,0,0:0:0:0:
256,192,28220,1,8,0:0:0:0:
256,192,28354,1,0,0:0:0:0:
256,192,28421,1,0,0:0:0:0:
256,192,28488,1,8,0:0:0:0:
256,192,28555,1,0,0:0:0:0:
256,192,28622,1,8,0:0:0:0:
256,192,28756,1,8,0:0:0:0:
256,192,28889,1,0,0:0:0:0:
256,192,29023,1,0,0:0:0:0:
256,192,29157,1,0,0:0:0:0:
256,192,29224,1,0,0:0:0:0:
256,192,29291,1,8,0:0:0:0:
256,192,29425,1,8,0:0:0:0:
256,192,29559,1,0,0:0:0:0:
256,192,29693,1,0,0:0:0:0:
256,192,29760,1,0,0:0:0:0:
256,192,29827,1,8,0:0:0:0:
256,192,29961,1,0,0:0:0:0:
256,192,30095,1,8,0:0:0:0:
256,192,30162,1,8,0:0:0:0:
256,192,30229,1,0,0:0:0:0:
256,192,30296,1,0,0:0:0:0:
256,192,30363,1,8,0:0:0:0:
256,192,30497,1,0,0:0:0:0:
256,192,30564,1,0,0:0:0:0:
256,192,30631,1,8,0:0:0:0:
256,192,30764,1,0,0:0:0:0:
256,192,30831,1,0,0:0:0:0:
256,192,30898,1,8,0:0:0:0:
256,192,31032,1,8,0:0:0:0:
256,192,31166,1,0,0:0:0:0:
256,192,31434,1,8,0:0:0:0:
256,192,31702,1,8,0:0:0:0:
256,192,31836,1,8,0:0:0:0:
256,192,31970,1,0,0:0:0:0:
256,192,32104,1,8,0:0:0:0:
256,192,32171,1,0,0:0:0:0:
256,192,32238,1,8,0:0:0:0:
256,192,32372,1,0,0:0:0:0:
256,192,32506,1,8,0:0:0:0:
256,192,32572,1,8,0:0:0:0:
256,192,32639,1,8,0:0:0:0:
256,192,32773,1,4,0:0:0:0:
256,192,33041,1,0,0:0:0:0:
256,192,33309,1,0,0:0:0:0:
256,192,33577,1,12,0:0:0:0:
256,192,33845,1,0,0:0:0:0:
256,192,34113,1,0,0:0:0:0:
256,192,34381,1,12,0:0:0:0:
256,192,34648,1,0,0:0:0:0:
256,192,34782,1,12,0:0:0:0:
256,192,35050,1,0,0:0:0:0:
256,192,35184,1,12,0:0:0:0:
256,192,35720,1,8,0:0:0:0:
256,192,35854,1,8,0:0:0:0:
256,192,35988,1,4,0:0:0:0:
256,192,36122,1,8,0:0:0:0:
256,192,36256,1,0,0:0:0:0:
256,192,36322,1,0,0:0:0:0:
256,192,36389,1,8,0:0:0:0:
256,192,36456,1,8,0:0:0:0:
256,192,36523,1,0,0:0:0:0:
256,192,36657,1,8,0:0:0:0:
256,192,36791,1,4,0:0:0:0:
256,192,36925,1,0,0:0:0:0:
256,192,37059,1,8,0:0:0:0:
256,192,37126,1,8,0:0:0:0:
256,192,37193,1,0,0:0:0:0:
256,192,37260,1,0,0:0:0:0:
256,192,37327,1,8,0:0:0:0:
256,192,37461,1,8,0:0:0:0:
256,192,37595,1,4,0:0:0:0:
256,192,37729,1,0,0:0:0:0:
256,192,37863,1,8,0:0:0:0:
256,192,37997,1,0,0:0:0:0:
256,192,38064,1,0,0:0:0:0:
256,192,38131,1,8,0:0:0:0:
256,192,38264,1,0,0:0:0:0:
256,192,38398,1,8,0:0:0:0:
256,192,38465,1,0,0:0:0:0:
256,192,38532,1,0,0:0:0:0:
256,192,38599,1,0,0:0:0:0:
256,192,38666,1,8,0:0:0:0:
256,192,38711,1,8,0:0:0:0:
256,192,38756,1,8,0:0:0:0:
256,192,38800,1,0,0:0:0:0:
256,192,38934,1,8,0:0:0:0:
256,192,38979,1,8,0:0:0:0:
256,192,39023,1,8,0:0:0:0:
256,192,39068,1,0,0:0:0:0:
256,192,39202,1,12,0:0:0:0:
256,192,39470,1,8,0:0:0:0:
256,192,39738,1,0,0:0:0:0:
256,192,40006,1,8,0:0:0:0:
256,192,40273,1,8,0:0:0:0:
256,192,40541,1,0,0:0:0:0:
256,192,40809,1,8,0:0:0:0:
256,192,41077,1,0,0:0:0:0:
256,192,41345,1,0,0:0:0:0:
256,192,41613,1,8,0:0:0:0:
256,192,41881,1,0,0:0:0:0:
256,192,42148,1,0,0:0:0:0:
256,192,42416,1,8,0:0:0:0:
256,192,42684,1,0,0:0:0:0:
256,192,42952,1,0,0:0:0:0:
256,192,43220,1,8,0:0:0:0:
256,192,43488,1,8,0:0:0:0:
256,192,43756,1,0,0:0:0:0:
256,192,44023,1,8,0:0:0:0:
256,192,44291,1,0,0:0:0:0:
256,192,44559,1,0,0:0:0:0:
256,192,44827,1,8,0:0:0:0:
256,192,45095,1,0,0:0:0:0:
256,192,45363,1,0,0:0:0:0:
256,192,45497,1,0,0:0:0:0:
256,192,45631,1,8,0:0:0:0:
256,192,45898,1,8,0:0:0:0:
256,192,46166,1,0,0:0:0:0:
256,192,46434,1,8,0:0:0:0:
256,192,46702,1,8,0:0:0:0:
256,192,46970,1,0,0:0:0:0:
256,192,47238,1,8,0:0:0:0:
256,192,47506,1,0,0:0:0:0:
256,192,47773,1,8,0:0:0:0:
256,192,48041,1,8,0:0:0:0:
256,192,48309,1,0,0:0:0:0:
256,192,48577,1,8,0:0:0:0:
256,192,48845,1,8,0:0:0:0:
256,192,49113,1,0,0:0:0:0:
256,192,49381,1,8,0:0:0:0:
256,192,49648,1,8,0:0:0:0:
256,192,49916,1,0,0:0:0:0:
256,192,50184,1,8,0:0:0:0:
256,192,50452,1,4,0:0:0:0:
256,192,50988,1,4,0:0:0:0:
256,192,51256,1,8,0:0:0:0:
256,192,51322,1,8,0:0:0:0:
256,192,51389,1,8,0:0:0:0:
256,192,51456,1,8,0:0:0:0:
256,192,51523,1,8,0:0:0:0:
256,192,51590,1,8,0:0:0:0:
256,192,51657,1,8,0:0:0:0:
256,192,51724,1,8,0:0:0:0:
256,192,51791,1,8,0:0:0:0:
256,192,51858,1,8,0:0:0:0:
256,192,51925,1,8,0:0:0:0:
256,192,51992,1,8,0:0:0:0:
256,192,52059,1,0,0:0:0:0:
256,192,52327,1,0,0:0:0:0:
256,192,52595,1,8,0:0:0:0:
256,192,52662,1,8,0:0:0:0:
256,192,52729,1,8,0:0:0:0:
256,192,52796,1,8,0:0:0:0:
256,192,52863,1,0,0:0:0:0:
256,192,53131,1,0,0:0:0:0:
256,192,53398,1,0,0:0:0:0:
256,192,53465,1,0,0:0:0:0:
256,192,53532,1,0,0:0:0:0:
256,192,53599,1,0,0:0:0:0:
256,192,53666,1,8,0:0:0:0:
256,192,53934,1,0,0:0:0:0:
256,192,54202,1,8,0:0:0:0:
256,192,54269,1,8,0:0:0:0:
256,192,54336,1,8,0:0:0:0:
256,192,54403,1,8,0:0:0:0:
256,192,54470,1,0,0:0:0:0:
256,192,54604,1,0,0:0:0:0:
256,192,54738,1,8,0:0:0:0:
256,192,54872,1,0,0:0:0:0:
256,192,55006,1,8,0:0:0:0:
256,192,55073,1,0,0:0:0:0:
256,192,55140,1,0,0:0:0:0:
256,192,55207,1,0,0:0:0:0:
256,192,55274,1,8,0:0:0:0:
256,192,55541,1,0,0:0:0:0:
256,192,55809,1,0,0:0:0:0:
256,192,55876,1,8,0:0:0:0:
256,192,55943,1,8,0:0:0:0:
256,192,56010,1,8,0:0:0:0:
256,192,56077,1,0,0:0:0:0:
256,192,56345,1,0,0:0:0:0:
256,192,56613,1,8,0:0:0:0:
256,192,56680,1,0,0:0:0:0:
256,192,56747,1,0,0:0:0:0:
256,192,56814,1,0,0:0:0:0:
256,192,56881,1,8,0:0:0:0:
256,192,57014,1,8,0:0:0:0:
256,192,57149,1,8,0:0:0:0:
256,192,57282,1,8,0:0:0:0:
256,192,57416,1,8,0:0:0:0:
256,192,57550,1,8,0:0:0:0:
256,192,57684,1,0,0:0:0:0:
256,192,57751,1,8,0:0:0:0:
256,192,57818,1,8,0:0:0:0:
256,192,57885,1,8,0:0:0:0:
256,192,57952,1,0,0:0:0:0:
256,192,58019,1,8,0:0:0:0:
256,192,58086,1,8,0:0:0:0:
256,192,58153,1,8,0:0:0:0:
256,192,58220,1,0,0:0:0:0:
256,192,58354,1,0,0:0:0:0:
256,192,58488,1,8,0:0:0:0:
256,192,58555,1,0,0:0:0:0:
256,192,58622,1,0,0:0:0:0:
256,192,58689,1,0,0:0:0:0:
256,192,58756,1,8,0:0:0:0:
256,192,58822,1,8,0:0:0:0:
256,192,58889,1,0,0:0:0:0:
256,192,58956,1,0,0:0:0:0:
256,192,59023,1,8,0:0:0:0:
256,192,59090,1,0,0:0:0:0:
256,192,59157,1,0,0:0:0:0:
256,192,59224,1,0,0:0:0:0:
256,192,59291,1,8,0:0:0:0:
256,192,59358,1,0,0:0:0:0:
256,192,59425,1,0,0:0:0:0:
256,192,59492,1,0,0:0:0:0:
256,192,59559,1,8,0:0:0:0:
256,192,59626,1,8,0:0:0:0:
256,192,59693,1,0,0:0:0:0:
256,192,59760,1,0,0:0:0:0:
256,192,59827,1,8,0:0:0:0:
256,192,59872,1,8,0:0:0:0:
256,192,59916,1,8,0:0:0:0:
256,192,59961,1,0,0:0:0:0:
256,192,60095,1,8,0:0:0:0:
256,192,60162,1,8,0:0:0:0:
256,192,60229,1,0,0:0:0:0:
256,192,60296,1,0,0:0:0:0:
256,192,60363,1,8,0:0:0:0:
256,192,60430,1,0,0:0:0:0:
256,192,60497,1,0,0:0:0:0:
256,192,60564,1,0,0:0:0:0:
256,192,60631,1,8,0:0:0:0:
256,192,60697,1,8,0:0:0:0:
256,192,60764,1,8,0:0:0:0:
256,192,60831,1,8,0:0:0:0:
256,192,60898,1,0,0:0:0:0:
256,192,60943,1,0,0:0:0:0:
256,160,60988,1,0,0:0:0:0:
256,160,61032,1,0,0:0:0:0:
256,192,61166,1,8,0:0:0:0:
256,192,61300,1,0,0:0:0:0:
256,192,61434,1,8,0:0:0:0:
256,192,61501,1,8,0:0:0:0:
256,192,61568,1,0,0:0:0:0:
256,192,61613,1,0,0:0:0:0:
256,192,61657,1,0,0:0:0:0:
256,192,61702,1,8,0:0:0:0:
256,192,62238,1,8,0:0:0:0:
256,192,62372,1,0,0:0:0:0:
256,192,62439,1,0,0:0:0:0:
256,192,62506,1,8,0:0:0:0:
256,192,63041,1,0,0:0:0:0:
256,192,63175,1,0,0:0:0:0:
256,192,63242,1,0,0:0:0:0:
256,192,63309,1,8,0:0:0:0:
256,192,63845,1,8,0:0:0:0:
256,192,64113,1,0,0:0:0:0:
256,192,64180,1,8,0:0:0:0:
256,192,64247,1,8,0:0:0:0:
256,192,64314,1,8,0:0:0:0:
256,192,64381,1,8,0:0:0:0:
256,192,64447,1,8,0:0:0:0:
256,192,64514,1,8,0:0:0:0:
256,192,64581,1,8,0:0:0:0:
256,192,64648,1,0,0:0:0:0:
256,192,64782,1,8,0:0:0:0:
256,192,64916,1,4,0:0:0:0:
256,192,65184,1,8,0:0:0:0:
256,192,65452,1,8,0:0:0:0:
256,192,65653,1,0,0:0:0:0:
256,192,65720,1,8,0:0:0:0:
256,192,65988,1,8,0:0:0:0:
256,192,66256,1,8,0:0:0:0:
256,192,66322,1,0,0:0:0:0:
256,192,66389,1,0,0:0:0:0:
256,192,66456,1,0,0:0:0:0:
256,192,66523,1,8,0:0:0:0:
256,192,66791,1,8,0:0:0:0:
256,192,67059,1,12,0:0:0:0:
256,192,67327,1,12,0:0:0:0:
256,192,67461,1,0,0:0:0:0:
256,192,67595,1,12,0:0:0:0:
256,192,67729,1,0,0:0:0:0:
256,192,67863,1,8,0:0:0:0:
256,192,67907,1,8,0:0:0:0:
256,192,67952,1,8,0:0:0:0:
256,192,67997,1,0,0:3:0:0:
256,192,68131,1,12,0:0:0:0:
256,192,68398,1,8,0:0:0:0:
256,192,68532,1,0,0:0:0:0:
256,192,68666,1,8,0:0:0:0:
256,192,68800,1,0,0:0:0:0:
256,192,68867,1,8,0:0:0:0:
256,192,68934,1,8,0:0:0:0:
256,192,69068,1,0,0:0:0:0:
256,192,69135,1,0,0:0:0:0:
256,192,69202,1,8,0:0:0:0:
256,192,69336,1,0,0:0:0:0:
256,192,69470,1,8,0:0:0:0:
256,192,69604,1,8,0:0:0:0:
256,192,69738,1,0,0:0:0:0:
256,192,69872,1,0,0:0:0:0:
256,192,69939,1,0,0:0:0:0:
256,192,70006,1,8,0:0:0:0:
256,192,70139,1,0,0:0:0:0:
256,192,70273,1,8,0:0:0:0:
256,192,70340,1,0,0:0:0:0:
256,192,70407,1,8,0:0:0:0:
256,192,70474,1,8,0:0:0:0:
256,192,70541,1,0,0:0:0:0:
256,192,70675,1,0,0:0:0:0:
256,192,70742,1,0,0:0:0:0:
256,192,70809,1,8,0:0:0:0:
256,192,70943,1,0,0:0:0:0:
256,192,71077,1,8,0:0:0:0:
256,192,71144,1,8,0:0:0:0:
256,192,71211,1,8,0:0:0:0:
256,192,71345,1,4,0:0:0:0:
256,192,71613,1,8,0:0:0:0:
256,192,71881,1,0,0:0:0:0:
256,192,72081,1,8,0:0:0:0:
256,192,72148,1,0,0:0:0:0:
256,192,72416,1,0,0:0:0:0:
256,192,72684,1,0,0:0:0:0:
256,192,72952,1,12,0:0:0:0:
256,192,73488,1,8,0:0:0:0:
256,192,73689,1,0,0:0:0:0:
256,192,73756,1,8,0:0:0:0:
256,192,73956,1,0,0:0:0:0:
256,192,74023,1,0,0:0:0:0:
256,192,74157,1,0,0:0:0:0:
256,192,74224,1,0,0:0:0:0:
256,192,74291,1,8,0:0:0:0:
256,192,74336,1,8,0:0:0:0:
256,192,74381,1,8,0:0:0:0:
256,192,74425,1,0,0:0:0:0:
256,192,74559,1,4,0:0:0:0:
256,192,74827,1,0,0:0:0:0:
256,192,75095,1,8,0:0:0:0:
256,192,75296,1,0,0:0:0:0:
256,192,75363,1,8,0:0:0:0:
256,192,75564,1,0,0:0:0:0:
256,192,75631,1,0,0:0:0:0:
256,192,75898,1,8,0:0:0:0:
256,192,76032,1,0,0:0:0:0:
256,192,76099,1,0,0:0:0:0:
256,192,76166,1,8,0:0:0:0:
256,192,76300,1,8,0:0:0:0:
256,192,76434,1,8,0:0:0:0:
256,192,76568,1,8,0:0:0:0:
256,192,76635,1,8,0:0:0:0:
256,192,76702,1,0,0:0:0:0:
256,192,76836,1,0,0:0:0:0:
256,192,76970,1,8,0:0:0:0:
256,192,77037,1,8,0:0:0:0:
256,192,77104,1,8,0:0:0:0:
256,192,77171,1,8,0:0:0:0:
256,192,77238,1,0,0:0:0:0:
256,192,77282,1,0,0:0:0:0:
256,192,77327,1,0,0:0:0:0:
256,192,77372,1,8,0:0:0:0:
256,192,77506,1,8,0:0:0:0:
256,192,77550,1,8,0:0:0:0:
256,192,77595,1,8,0:0:0:0:
256,192,77639,1,0,0:0:0:0:
256,192,77773,1,12,0:0:0:0:
256,192,78041,1,0,0:0:0:0:
256,192,78175,1,8,0:0:0:0:
256,192,78309,1,0,0:0:0:0:
256,192,78443,1,8,0:0:0:0:
256,192,78510,1,8,0:0:0:0:
256,192,78577,1,0,0:0:0:0:
256,192,78644,1,0,0:0:0:0:
256,192,78711,1,0,0:0:0:0:
256,192,78845,1,8,0:0:0:0:
256,192,78979,1,0,0:0:0:0:
256,192,79046,1,0,0:0:0:0:
256,192,79113,1,8,0:0:0:0:
256,192,79247,1,8,0:0:0:0:
256,192,79314,1,8,0:0:0:0:
256,192,79381,1,0,0:0:0:0:
256,192,79514,1,0,0:0:0:0:
256,192,79648,1,8,0:0:0:0:
256,192,79782,1,0,0:0:0:0:
256,192,79916,1,8,0:0:0:0:
256,192,80050,1,0,0:0:0:0:
256,192,80184,1,8,0:0:0:0:
256,192,80251,1,8,0:0:0:0:
256,192,80318,1,0,0:0:0:0:
256,192,80385,1,0,0:0:0:0:
256,192,80452,1,8,0:0:0:0:
256,192,80586,1,0,0:0:0:0:
256,192,80720,1,8,0:0:0:0:
256,192,80854,1,0,0:0:0:0:
256,192,80921,1,0,0:0:0:0:
256,192,80988,1,8,0:0:0:0:
256,192,81256,1,0,0:0:0:0:
256,192,81389,1,8,0:0:0:0:
256,192,81523,1,0,0:0:0:0:
256,192,81657,1,0,0:0:0:0:
256,192,81724,1,8,0:0:0:0:
256,192,81791,1,8,0:0:0:0:
256,192,81925,1,0,0:0:0:0:
256,192,82059,1,8,0:0:0:0:
256,192,82193,1,0,0:0:0:0:
256,192,82260,1,0,0:0:0:0:
256,192,82327,1,8,0:0:0:0:
256,192,82461,1,0,0:0:0:0:
256,192,82595,1,0,0:0:0:0:
256,192,82729,1,8,0:0:0:0:
256,192,82863,1,0,0:0:0:0:
256,192,82997,1,8,0:0:0:0:
256,192,83131,1,8,0:0:0:0:
256,192,83197,1,0,0:0:0:0:
256,192,83264,1,8,0:0:0:0:
256,192,83331,1,8,0:0:0:0:
256,192,83398,1,0,0:0:0:0:
256,192,83532,1,0,0:0:0:0:
256,192,83666,1,8,0:0:0:0:
256,192,83800,1,0,0:0:0:0:
256,192,83934,1,8,0:0:0:0:
256,192,83979,1,8,0:0:0:0:
256,192,84023,1,8,0:0:0:0:
256,192,84068,1,8,0:0:0:0:
256,192,84202,1,4,0:0:0:0:
256,192,84336,1,8,0:0:0:0:
256,192,84470,1,0,0:0:0:0:
256,192,84604,1,0,0:0:0:0:
256,192,84671,1,0,0:0:0:0:
256,192,84738,1,8,0:0:0:0:
256,192,84872,1,0,0:0:0:0:
256,192,84939,1,8,0:0:0:0:
256,192,85006,1,8,0:0:0:0:
256,192,85139,1,0,0:0:0:0:
256,192,85273,1,8,0:0:0:0:
256,192,85340,1,0,0:0:0:0:
256,192,85407,1,8,0:0:0:0:
256,192,85474,1,8,0:0:0:0:
256,192,85541,1,0,0:0:0:0:
256,192,85675,1,0,0:0:0:0:
256,192,85809,1,12,0:0:0:0:
256,192,86077,1,12,0:0:0:0:
256,192,86345,1,12,0:0:0:0:
256,192,86613,1,12,0:0:0:0:
256,192,86881,1,12,0:0:0:0:
256,192,87148,1,12,0:0:0:0:
256,192,87282,1,0,0:0:0:0:
256,192,87349,1,0,0:0:0:0:
256,192,87416,1,8,0:0:0:0:
256,192,87684,1,0,0:0:0:0:
256,192,87818,1,0,0:0:0:0:
256,192,87952,1,8,0:0:0:0:
256,192,88086,1,0,0:0:0:0:
256,192,88153,1,8,0:0:0:0:
256,192,88220,1,8,0:0:0:0:
256,192,88488,1,8,0:0:0:0:
256,192,88622,1,8,0:0:0:0:
256,192,88756,1,0,0:0:0:0:
256,192,88889,1,8,0:0:0:0:
256,192,88956,1,8,0:0:0:0:
256,192,89023,1,0,0:0:0:0:
256,192,89157,1,0,0:0:0:0:
256,192,89291,1,0,0:0:0:0:
256,192,89425,1,0,0:0:0:0:
256,192,89492,1,0,0:0:0:0:
256,192,89559,1,0,0:0:0:0:
256,192,89626,1,0,0:0:0:0:
256,192,89693,1,0,0:0:0:0:
256,192,89827,1,8,0:0:0:0:
256,192,89894,1,0,0:0:0:0:
256,192,89961,1,0,0:0:0:0:
256,192,90028,1,0,0:0:0:0:
256,192,90095,1,8,0:0:0:0:
256,192,90139,1,8,0:0:0:0:
256,192,90184,1,8,0:0:0:0:
256,192,90229,1,0,0:0:0:0:
256,192,90363,1,8,0:0:0:0:
256,192,90407,1,8,0:0:0:0:
256,192,90452,1,8,0:0:0:0:
256,192,90497,1,0,0:0:0:0:
256,192,90631,1,12,0:0:0:0:
256,192,90898,1,8,0:0:0:0:
256,192,91166,1,0,0:0:0:0:
256,192,91434,1,8,0:0:0:0:
256,192,91702,1,8,0:0:0:0:
256,192,91970,1,0,0:0:0:0:
256,192,92238,1,8,0:0:0:0:
256,192,92506,1,0,0:0:0:0:
256,192,92773,1,8,0:0:0:0:
256,192,93041,1,8,0:0:0:0:
256,192,93309,1,0,0:0:0:0:
256,192,93577,1,0,0:0:0:0:
256,192,93845,1,8,0:0:0:0:
256,192,94113,1,0,0:0:0:0:
256,192,94381,1,0,0:0:0:0:
256,192,94648,1,8,0:0:0:0:
256,192,94849,1,0,0:0:0:0:
256,192,94916,1,0,0:0:0:0:
256,192,95184,1,0,0:0:0:0:
256,192,95452,1,8,0:0:0:0:
256,192,95720,1,0,0:0:0:0:
256,192,95988,1,0,0:0:0:0:
256,192,96256,1,8,0:0:0:0:
256,192,96523,1,0,0:0:0:0:
256,192,96791,1,0,0:0:0:0:
256,192,96925,1,0,0:0:0:0:
256,192,97059,1,8,0:0:0:0:
256,192,97327,1,8,0:0:0:0:
256,192,97595,1,0,0:0:0:0:
256,192,97863,1,8,0:0:0:0:
256,192,98131,1,8,0:0:0:0:
256,192,98398,1,0,0:0:0:0:
256,192,98666,1,8,0:0:0:0:
256,192,98934,1,0,0:0:0:0:
256,192,99202,1,8,0:0:0:0:
256,192,99470,1,8,0:0:0:0:
256,192,99738,1,0,0:0:0:0:
256,192,100006,1,8,0:0:0:0:
256,192,100273,1,8,0:0:0:0:
256,192,100541,1,0,0:0:0:0:
256,192,100809,1,8,0:0:0:0:
256,192,101077,1,8,0:0:0:0:
256,192,101345,1,0,0:0:0:0:
256,192,101613,1,8,0:0:0:0:
256,192,101881,1,8,0:0:0:0:
256,192,102148,1,0,0:0:0:0:
256,192,102416,1,8,0:0:0:0:
256,192,102684,1,8,0:0:0:0:
256,192,102751,1,8,0:0:0:0:
256,192,102818,1,8,0:0:0:0:
256,192,102885,1,8,0:0:0:0:
256,192,102952,1,8,0:0:0:0:
256,192,103019,1,8,0:0:0:0:
256,192,103086,1,8,0:0:0:0:
256,192,103153,1,8,0:0:0:0:
256,192,103220,1,8,0:0:0:0:
256,192,103287,1,8,0:0:0:0:
256,192,103354,1,8,0:0:0:0:
256,192,103421,1,8,0:0:0:0:
256,192,103488,1,0,0:0:0:0:
256,192,103577,1,8,0:0:0:0:
256,192,103666,1,8,0:0:0:0:
256,192,103756,1,0,0:0:0:0:
256,192,103845,1,0,0:0:0:0:
256,192,103934,1,0,0:0:0:0:
256,192,104023,1,8,0:0:0:0:
256,192,104113,1,8,0:0:0:0:
256,192,104202,1,8,0:0:0:0:
256,192,104291,1,0,0:0:0:0:
256,192,104381,1,8,0:0:0:0:
256,192,104470,1,8,0:0:0:0:
256,192,104559,1,0,0:0:0:0:
256,192,104648,1,0,0:0:0:0:
256,192,104738,1,0,0:0:0:0:
256,192,104827,1,8,0:0:0:0:
256,192,104916,1,8,0:0:0:0:
256,192,105006,1,8,0:0:0:0:
256,192,105095,1,0,0:0:0:0:
256,192,105184,1,8,0:0:0:0:
256,192,105273,1,8,0:0:0:0:
256,192,105363,1,0,0:0:0:0:
256,192,105452,1,0,0:0:0:0:
256,192,105541,1,0,0:0:0:0:
256,192,105631,1,8,0:0:0:0:
256,192,105720,1,8,0:0:0:0:
256,192,105810,1,8,0:0:0:0:
256,192,105899,1,0,0:0:0:0:
256,192,105988,1,8,0:0:0:0:
256,192,106077,1,8,0:0:0:0:
256,192,106166,1,0,0:0:0:0:
256,192,106256,1,0,0:0:0:0:
256,192,106345,1,0,0:0:0:0:
256,192,106434,1,8,0:0:0:0:
256,192,106523,1,8,0:0:0:0:
256,192,106613,1,8,0:0:0:0:
256,192,106702,1,0,0:0:0:0:
256,192,106970,1,0,0:0:0:0:
256,192,107238,1,8,0:0:0:0:
256,192,107327,1,8,0:0:0:0:
256,192,107417,1,8,0:0:0:0:
256,192,107506,1,0,0:0:0:0:
256,192,107773,1,0,0:0:0:0:
256,192,108041,1,8,0:0:0:0:
256,192,108130,1,8,0:0:0:0:
256,192,108220,1,8,0:0:0:0:
256,192,108309,1,0,0:0:0:0:
256,192,108443,1,8,0:0:0:0:
256,192,108577,1,8,0:0:0:0:
256,192,108711,1,8,0:0:0:0:
256,192,108845,1,8,0:0:0:0:
256,192,108979,1,8,0:0:0:0:
256,192,109113,1,0,0:0:0:0:
256,192,109202,1,8,0:0:0:0:
256,192,109291,1,8,0:0:0:0:
256,192,109381,1,0,0:0:0:0:
256,192,109470,1,8,0:0:0:0:
256,192,109559,1,8,0:0:0:0:
256,192,109648,1,0,0:0:0:0:
256,192,109738,1,8,0:0:0:0:
256,192,109827,1,8,0:0:0:0:
256,192,109916,1,0,0:0:0:0:
256,192,110006,1,8,0:0:0:0:
256,192,110095,1,8,0:0:0:0:
256,192,110184,1,0,0:0:0:0:
256,192,110273,1,0,0:0:0:0:
256,192,110363,1,8,0:0:0:0:
256,192,110452,1,0,0:0:0:0:
256,192,110541,1,0,0:0:0:0:
256,192,110631,1,8,0:0:0:0:
256,192,110720,1,0,0:0:0:0:
256,192,110809,1,0,0:0:0:0:
256,192,110898,1,8,0:0:0:0:
256,192,110988,1,0,0:0:0:0:
256,192,111077,1,8,0:0:0:0:
256,192,111166,1,8,0:0:0:0:
256,192,111256,1,0,0:0:0:0:
256,192,111345,1,8,0:0:0:0:
256,192,111434,1,8,0:0:0:0:
256,192,111523,1,0,0:0:0:0:
256,192,111613,1,8,0:0:0:0:
256,192,111702,1,0,0:0:0:0:
256,192,111791,1,8,0:0:0:0:
256,192,111881,1,8,0:0:0:0:
256,192,111970,1,0,0:0:0:0:
256,192,112059,1,8,0:0:0:0:
256,192,112148,1,0,0:0:0:0:
256,192,112238,1,0,0:0:0:0:
256,192,112327,1,8,0:0:0:0:
256,192,112416,1,8,0:0:0:0:
256,192,112506,1,0,0:0:0:0:
256,192,112595,1,8,0:0:0:0:
256,192,112684,1,8,0:0:0:0:
256,192,112773,1,0,0:0:0:0:
256,192,112863,1,8,0:0:0:0:
256,192,112907,1,8,0:0:0:0:
256,192,112952,1,8,0:0:0:0:
256,192,112997,1,0,0:0:0:0:
256,192,113064,1,0,0:0:0:0:
256,192,113131,1,8,0:0:0:0:
256,192,113532,1,8,0:0:0:0:
256,192,113666,1,0,0:0:0:0:
256,192,113800,1,8,0:0:0:0:
256,192,113867,1,8,0:0:0:0:
256,192,113934,1,0,0:0:0:0:
256,192,114202,1,8,0:0:0:0:
256,192,114470,1,8,0:0:0:0:
256,192,114604,1,0,0:0:0:0:
256,192,114671,1,0,0:0:0:0:
256,192,114738,1,8,0:0:0:0:
256,192,115541,1,8,0:0:0:0:
256,192,116345,1,8,0:0:0:0:
256,192,117148,1,8,0:0:0:0:
256,192,117952,1,12,0:0:0:0:
