osu file format v14

[General]
AudioFilename: audio.mp3
AudioLeadIn: 0
PreviewTime: 39202
Countdown: 0
SampleSet: Normal
StackLeniency: 0.7
Mode: 1
LetterboxInBreaks: 0
WidescreenStoryboard: 0

[Editor]
DistanceSpacing: 1
BeatDivisor: 2
GridSize: 32
TimelineZoom: 1.8

[Metadata]
Title:Applique
TitleUnicode:Appliqué
Artist:Morimori Atsushi
ArtistUnicode:モリモリあつし
Creator:Shinsekai-
Version:Futsuu
Source:SOUND VOLTEX II -infinite infection-
Tags:Ayyri SDVX MÚSECA MUSECA Le Fruit Défendu Defendu Sequel タイムカプセル Character Theme First Song Contest 第一回ボルテキャラテーマ曲コンテスト Time Capsule
BeatmapID:961413
BeatmapSetID:447879

[Difficulty]
HPDrainRate:6
CircleSize:2
OverallDifficulty:4
ApproachRate:10
SliderMultiplier:1.2
SliderTickRate:1

[Events]
//Background and Video events
0,0,"Konachan.com_-_217995_hatsune_miku_long_hair_rella_thighhighs_twintails_vocaloid.jpg",0,-55
//Break Periods
//Storyboard Layer 0 (Background)
//Storyboard Layer 1 (Fail)
//Storyboard Layer 2 (Pass)
//Storyboard Layer 3 (Foreground)
//Storyboard Sound Samples

[TimingPoints]
631,267.857142857143,3,1,0,20,1,0
631,-133.333333333333,3,1,0,20,0,0
12684,-117.647058823529,3,1,0,25,0,0
12952,-111.111111111111,3,1,0,40,0,0
13220,-105.263157894737,3,1,0,50,0,0
13488,-100,3,1,0,80,0,0
26345,-100,3,1,0,80,0,1
39202,-100,3,1,0,80,0,0
39738,-100,3,1,0,60,0,0
52059,-100,3,1,0,80,0,0
77773,-100,3,1,0,80,0,1
90631,-100,3,1,0,80,0,0
91434,-100,3,1,0,50,0,0
103488,-100,3,1,0,80,0,1
113131,-100,3,1,0,80,0,0

[HitObjects]
256,192,631,5,8,0:0:0:0:
256,192,1166,1,0,0:0:0:0:
256,192,1434,1,8,0:0:0:0:
256,192,2238,1,8,0:0:0:0:
256,192,2773,1,0,0:0:0:0:
256,192,3041,1,8,0:0:0:0:
256,192,3309,1,0,0:0:0:0:
256,192,3845,1,8,0:0:0:0:
256,192,4648,1,8,0:0:0:0:
256,192,5452,1,8,0:0:0:0:
256,192,5720,1,0,0:0:0:0:
256,192,5988,1,0,0:0:0:0:
256,192,6256,1,8,0:0:0:0:
243,178,7059,1,8,0:0:0:0:
256,192,7595,1,0,0:0:0:0:
256,192,7863,1,8,0:0:0:0:
256,192,8666,1,8,0:0:0:0:
256,192,9202,1,0,0:0:0:0:
256,192,9470,1,8,0:0:0:0:
256,192,10006,1,0,0:0:0:0:
256,192,10273,1,8,0:0:0:0:
256,192,11077,1,8,0:0:0:0:
256,192,11345,1,0,0:0:0:0:
256,192,11613,1,0,0:0:0:0:
256,192,11881,1,8,0:0:0:0:
256,192,12684,1,8,0:0:0:0:
256,192,12952,1,0,0:0:0:0:
256,192,13220,1,0,0:0:0:0:
256,192,13488,1,12,0:0:0:0:
256,192,14291,1,8,0:0:0:0:
256,192,14827,1,8,0:0:0:0:
256,192,15095,1,0,0:0:0:0:
256,192,15898,1,8,0:0:0:0:
256,192,16434,1,8,0:0:0:0:
256,192,16702,1,0,0:0:0:0:
256,192,17238,1,0,0:0:0:0:
256,192,17506,1,8,0:0:0:0:
256,192,17773,1,0,0:0:0:0:
256,192,18041,1,0,0:0:0:0:
256,192,18309,1,8,0:0:0:0:
256,192,19113,1,0,0:0:0:0:
256,192,19648,1,0,0:0:0:0:
256,192,19916,1,4,0:0:0:0:
256,192,20720,1,4,0:0:0:0:
256,192,21523,1,12,0:0:0:0:
256,192,22327,1,4,0:0:0:0:
256,192,23131,1,12,0:0:0:0:
256,192,23532,1,0,0:0:0:0:
256,192,23934,1,8,0:0:0:0:
256,192,24738,1,0,0:0:0:0:
256,192,25273,1,8,0:0:0:0:
256,192,25541,1,0,0:0:0:0:
256,192,26077,1,8,0:0:0:0:
256,192,26345,1,4,0:0:0:0:
256,192,26613,1,8,0:0:0:0:
256,192,26881,1,8,0:0:0:0:
256,192,27148,1,0,0:0:0:0:
256,192,27684,1,0,0:0:0:0:
256,192,27952,1,8,0:0:0:0:
256,192,28488,1,8,0:0:0:0:
256,192,28756,1,8,0:0:0:0:
256,192,29023,1,0,0:0:0:0:
256,192,29291,1,8,0:0:0:0:
256,192,29559,1,0,0:0:0:0:
256,192,30095,1,8,0:0:0:0:
256,192,30363,1,8,0:0:0:0:
256,192,30631,1,8,0:0:0:0:
256,192,30898,1,0,0:0:0:0:
256,192,31166,1,0,0:0:0:0:
256,192,31702,1,8,0:0:0:0:
256,192,31836,1,8,0:0:0:0:
256,192,31970,1,0,0:0:0:0:
256,192,32238,1,8,0:0:0:0:
256,192,32506,1,8,0:0:0:0:
256,192,32773,1,4,0:0:0:0:
256,192,33577,1,12,0:0:0:0:
256,192,34381,1,12,0:0:0:0:
256,192,34782,1,12,0:0:0:0:
256,192,35184,1,12,0:0:0:0:
256,192,35720,1,8,0:0:0:0:
256,192,35988,1,4,0:0:0:0:
256,192,36256,1,0,0:0:0:0:
256,192,36389,1,0,0:0:0:0:
256,192,36657,1,0,0:0:0:0:
256,192,36791,1,8,0:0:0:0:
256,192,37059,1,0,0:0:0:0:
256,192,37193,1,0,0:0:0:0:
256,192,37327,1,0,0:0:0:0:
256,192,37595,1,8,0:0:0:0:
256,192,38131,1,8,0:0:0:0:
256,192,38264,1,8,0:0:0:0:
256,192,38398,1,0,0:0:0:0:
256,192,38666,1,0,0:0:0:0:
256,192,38934,1,0,0:0:0:0:
256,192,39202,1,12,0:0:0:0:
256,192,39738,1,0,0:0:0:0:
256,192,40006,1,8,0:0:0:0:
256,192,40541,1,0,0:0:0:0:
256,192,40809,1,8,0:0:0:0:
256,192,41345,1,0,0:0:0:0:
256,192,41613,1,8,0:0:0:0:
256,192,42416,1,8,0:0:0:0:
256,192,43220,1,8,0:0:0:0:
256,192,43488,1,0,0:0:0:0:
256,192,43756,1,0,0:0:0:0:
256,192,44023,1,8,0:0:0:0:
256,192,45363,1,0,0:0:0:0:
256,192,45631,1,8,0:0:0:0:
256,192,46166,1,0,0:0:0:0:
256,192,46434,1,8,0:0:0:0:
256,192,47238,1,8,0:0:0:0:
256,192,47506,1,0,0:0:0:0:
256,192,47773,1,8,0:0:0:0:
256,192,48041,1,8,0:0:0:0:
256,192,48577,1,0,0:0:0:0:
256,192,48845,1,8,0:0:0:0:
256,192,49381,1,0,0:0:0:0:
256,192,49648,1,8,0:0:0:0:
256,192,50184,1,8,0:0:0:0:
256,192,50452,1,4,0:0:0:0:
256,192,50988,1,0,0:0:0:0:
256,192,51256,1,12,0:0:0:0:
256,192,52059,1,0,0:0:0:0:
256,192,52595,1,8,0:0:0:0:
256,192,52729,1,8,0:0:0:0:
256,192,52863,1,0,0:0:0:0:
256,192,53131,1,8,0:0:0:0:
256,192,53398,1,8,0:0:0:0:
256,192,53666,1,0,0:0:0:0:
256,192,54202,1,8,0:0:0:0:
256,192,54336,1,8,0:0:0:0:
256,192,54470,1,0,0:0:0:0:
256,192,54738,1,8,0:0:0:0:
256,192,55006,1,0,0:0:0:0:
256,192,55273,1,8,0:0:0:0:
256,192,55809,1,8,0:0:0:0:
256,192,55943,1,8,0:0:0:0:
256,192,56077,1,0,0:0:0:0:
256,192,56345,1,8,0:0:0:0:
256,192,56613,1,8,0:0:0:0:
256,192,56881,1,0,0:0:0:0:
256,192,57416,1,8,0:0:0:0:
256,192,57684,1,0,0:0:0:0:
256,192,57818,1,0,0:0:0:0:
256,192,57952,1,0,0:0:0:0:
256,192,58220,1,0,0:0:0:0:
256,192,58488,1,8,0:0:0:0:
256,192,59023,1,8,0:0:0:0:
256,192,59291,1,0,0:0:0:0:
256,192,59559,1,8,0:0:0:0:
256,192,59693,1,8,0:0:0:0:
256,192,59827,1,8,0:0:0:0:
256,192,60095,1,8,0:0:0:0:
256,192,60631,1,8,0:0:0:0:
256,192,60898,1,0,0:0:0:0:
256,192,61032,1,0,0:0:0:0:
256,192,61166,1,8,0:0:0:0:
256,192,61434,1,0,0:0:0:0:
256,192,61702,1,8,0:0:0:0:
256,192,62238,1,0,0:0:0:0:
256,192,62372,1,0,0:0:0:0:
256,192,62506,1,8,0:0:0:0:
256,192,63041,1,0,0:0:0:0:
256,192,63175,1,0,0:0:0:0:
256,192,63309,1,8,0:0:0:0:
256,192,63845,1,0,0:0:0:0:
256,192,64113,1,8,0:0:0:0:
256,192,64648,1,8,0:0:0:0:
256,192,64916,1,0,0:0:0:0:
256,192,65452,1,8,0:0:0:0:
256,192,65720,1,0,0:0:0:0:
256,192,66523,1,0,0:0:0:0:
256,192,67059,1,8,0:0:0:0:
256,192,67327,1,0,0:0:0:0:
256,192,67863,1,0,0:0:0:0:
256,192,68131,1,8,0:0:0:0:
256,192,68666,1,0,0:0:0:0:
256,192,68934,1,8,0:0:0:0:
256,192,69470,1,8,0:0:0:0:
256,192,69738,1,0,0:0:0:0:
256,192,70273,1,8,0:0:0:0:
256,192,70541,1,0,0:0:0:0:
256,192,70809,1,8,0:0:0:0:
256,192,71077,1,8,0:0:0:0:
256,192,71345,1,0,0:0:0:0:
256,192,71881,1,0,0:0:0:0:
256,192,72148,1,0,0:0:0:0:
256,192,72416,1,0,0:0:0:0:
256,192,72684,1,0,0:0:0:0:
256,192,72952,1,8,0:0:0:0:
256,192,73756,1,0,0:0:0:0:
256,192,74559,1,4,0:0:0:0:
256,192,75095,1,8,0:0:0:0:
256,192,75363,1,0,0:0:0:0:
256,192,75898,1,0,0:0:0:0:
256,192,76166,1,8,0:0:0:0:
256,192,76970,1,8,0:0:0:0:
256,192,77238,1,0,0:0:0:0:
256,192,77506,1,0,0:0:0:0:
256,192,77773,1,12,0:0:0:0:
256,192,78309,1,8,0:0:0:0:
256,192,78443,1,8,0:0:0:0:
256,192,78577,1,0,0:0:0:0:
256,192,78845,1,0,0:0:0:0:
256,192,79113,1,8,0:0:0:0:
256,192,79381,1,0,0:0:0:0:
256,192,79916,1,8,0:0:0:0:
256,192,80184,1,8,0:0:0:0:
256,192,80452,1,8,0:0:0:0:
256,192,80720,1,8,0:0:0:0:
256,192,80854,1,8,0:0:0:0:
256,192,80988,1,0,0:0:0:0:
256,192,81523,1,8,0:0:0:0:
256,192,81657,1,8,0:0:0:0:
256,192,81791,1,0,0:0:0:0:
256,192,82059,1,8,0:0:0:0:
256,192,82327,1,8,0:0:0:0:
256,192,82595,1,0,0:0:0:0:
256,192,83131,1,8,0:0:0:0:
256,192,83398,1,0,0:0:0:0:
256,192,83666,1,8,0:0:0:0:
256,192,83934,1,8,0:0:0:0:
256,192,84068,1,8,0:0:0:0:
256,192,84202,1,0,0:0:0:0:
256,192,84738,1,8,0:0:0:0:
256,192,84872,1,8,0:0:0:0:
256,192,85006,1,0,0:0:0:0:
256,192,85273,1,0,0:0:0:0:
256,192,85541,1,0,0:0:0:0:
256,192,85809,1,8,0:0:0:0:
256,192,86345,1,8,0:0:0:0:
256,192,86613,1,8,0:0:0:0:
256,192,86881,1,8,0:0:0:0:
256,192,87148,1,8,0:0:0:0:
256,192,87416,1,4,0:0:0:0:
256,192,87952,1,8,0:0:0:0:
256,192,88220,1,8,0:0:0:0:
256,192,88756,1,0,0:0:0:0:
256,192,88889,1,0,0:0:0:0:
256,192,89023,1,8,0:0:0:0:
256,192,89291,1,0,0:0:0:0:
256,192,89559,1,0,0:0:0:0:
256,192,89827,1,8,0:0:0:0:
256,192,90095,1,0,0:0:0:0:
256,192,90363,1,0,0:0:0:0:
256,192,90631,1,12,0:0:0:0:
256,192,91166,1,0,0:0:0:0:
256,192,91434,1,8,0:0:0:0:
256,192,91970,1,0,0:0:0:0:
256,192,92238,1,8,0:0:0:0:
256,192,92773,1,0,0:0:0:0:
256,192,93041,1,8,0:0:0:0:
256,192,93845,1,8,0:0:0:0:
256,192,94381,1,0,0:0:0:0:
256,192,94648,1,8,0:0:0:0:
256,192,94916,1,0,0:0:0:0:
256,192,95184,1,0,0:0:0:0:
256,192,95452,1,8,0:0:0:0:
256,192,96256,1,8,0:0:0:0:
256,192,96523,1,0,0:0:0:0:
256,192,96791,1,0,0:0:0:0:
256,192,97059,1,8,0:0:0:0:
256,192,97595,1,0,0:0:0:0:
256,192,97863,1,8,0:0:0:0:
256,192,98398,1,0,0:0:0:0:
256,192,98666,1,8,0:0:0:0:
256,192,99202,1,0,0:0:0:0:
256,192,99470,1,8,0:0:0:0:
224,160,100273,1,8,0:0:0:0:
256,192,100809,1,0,0:0:0:0:
224,160,101077,1,8,0:0:0:0:
256,192,101613,1,0,0:0:0:0:
224,160,101881,1,8,0:0:0:0:
224,160,102416,1,8,0:0:0:0:
256,192,102684,1,0,0:0:0:0:
224,160,103488,1,8,0:0:0:0:
224,160,104023,1,8,0:0:0:0:
224,160,104157,1,8,0:0:0:0:
224,160,104291,1,0,0:0:0:0:
224,160,104827,1,0,0:0:0:0:
224,160,105095,1,8,0:0:0:0:
256,192,105631,1,8,0:0:0:0:
224,160,105764,1,8,0:0:0:0:
224,160,105898,1,0,0:0:0:0:
256,192,106434,1,8,0:0:0:0:
224,160,106702,1,0,0:0:0:0:
256,192,107238,1,8,0:0:0:0:
224,160,107372,1,8,0:0:0:0:
224,160,107506,1,0,0:0:0:0:
256,192,108041,1,8,0:0:0:0:
224,160,108309,1,0,0:0:0:0:
256,192,108577,1,8,0:0:0:0:
256,192,108711,1,8,0:0:0:0:
256,192,108845,1,8,0:0:0:0:
224,192,109113,1,0,0:0:0:0:
224,160,109648,1,0,0:0:0:0:
224,160,109916,1,8,0:0:0:0:
224,160,110452,1,8,0:0:0:0:
224,160,110720,1,0,0:0:0:0:
224,160,110988,1,8,0:0:0:0:
256,192,111122,1,8,0:0:0:0:
224,160,111256,1,0,0:0:0:0:
224,160,111523,1,8,0:0:0:0:
224,160,112059,1,0,0:0:0:0:
224,160,112327,1,8,0:0:0:0:
224,160,112595,1,0,0:0:0:0:
224,160,112863,1,8,0:0:0:0:
224,160,113131,1,4,0:0:0:0:
224,160,113666,1,8,0:0:0:0:
224,160,113934,1,0,0:0:0:0:
224,160,114470,1,0,0:0:0:0:
224,160,114738,1,8,0:0:0:0:
224,160,115541,1,8,0:0:0:0:
256,192,116345,1,8,0:0:0:0:
256,192,117148,1,8,0:0:0:0:
256,192,117952,1,12,0:0:0:0:
