osu file format v14

[General]
AudioFilename: SDVX II Applique EXH.mp3
AudioLeadIn: 0
PreviewTime: 52064
Countdown: 0
SampleSet: Soft
StackLeniency: 0.7
Mode: 3
LetterboxInBreaks: 0
SpecialStyle: 0
WidescreenStoryboard: 1

[Editor]
DistanceSpacing: 2
BeatDivisor: 4
GridSize: 16
TimelineZoom: 2.4

[Metadata]
Title:Applique
TitleUnicode:Appliqué
Artist:Morimori Atsushi
ArtistUnicode:モリモリあつし
Creator:MasterSonic10
Version:INFINITE Lv.15
Source:SOUND VOLTEX II -infinite infection-
Tags:
BeatmapID:809806
BeatmapSetID:365196

[Difficulty]
HPDrainRate:8
CircleSize:4
OverallDifficulty:8
ApproachRate:5
SliderMultiplier:1.4
SliderTickRate:1

[Events]
//Background and Video events
//Break Periods
//Storyboard Layer 0 (Background)
//Storyboard Layer 1 (Fail)
//Storyboard Layer 2 (Pass)
//Storyboard Layer 3 (Foreground)
//Storyboard Sound Samples

[TimingPoints]
635.53982300885,267.857142857143,3,2,0,30,1,0
6260,-83.3333333333333,3,2,0,30,0,0
6327,-133.333333333333,3,2,0,30,0,0
6394,-83.3333333333333,3,2,0,30,0,0
6461,-133.333333333333,3,2,0,30,0,0
6528,-83.3333333333333,3,2,0,30,0,0
6595,-133.333333333333,3,2,0,30,0,0
6662,-83.3333333333333,3,2,0,30,0,0
6729,-133.333333333333,3,2,0,30,0,0
6796,-83.3333333333333,3,2,0,30,0,0
6863,-133.333333333333,3,2,0,30,0,0
6930,-83.3333333333333,3,2,0,30,0,0
6997,-133.333333333333,3,2,0,30,0,0
7064,-100,3,2,0,30,0,0
10278,-125,3,2,0,30,0,0
11081,-166.666666666667,3,2,0,30,0,0
11885,-250.000000000001,3,2,0,30,0,0
12689,-166.666666666667,3,2,0,30,0,0
12823,-125,3,2,0,30,0,0
12956,-100,3,2,0,30,0,0
13090,-83.3333333333333,3,2,0,30,0,0
13224,-71.4285714285714,3,2,0,30,0,0
13358,-66.6666666666667,3,2,0,30,0,0
13492,-100,3,2,0,30,0,0
15099,-50,3,2,0,30,0,0
15133,-1000,3,2,0,30,0,0
15166,-50,3,2,0,30,0,0
15200,-1000,3,2,0,30,0,0
15233,-50,3,2,0,30,0,0
15267,-1000,3,2,0,30,0,0
15300,-50,3,2,0,30,0,0
15334,-1000,3,2,0,30,0,0
15367,-100,3,2,0,30,0,0
15903,-50,3,2,0,30,0,0
15936,-1000,3,2,0,30,0,0
15970,-50,3,2,0,30,0,0
16003,-1000,3,2,0,30,0,0
16037,-50,3,2,0,30,0,0
16070,-1000,3,2,0,30,0,0
16104,-50,3,2,0,30,0,0
16137,-1000,3,2,0,30,0,0
16171,-100,3,2,0,30,0,0
18314,-50,3,2,0,30,0,0
18347,-133.333333333333,3,2,0,30,0,0
18448,-50,3,2,0,30,0,0
18481,-133.333333333333,3,2,0,30,0,0
18581,-50,3,2,0,30,0,0
18615,-133.333333333333,3,2,0,30,0,0
18715,-50,3,2,0,30,0,0
18749,-133.333333333333,3,2,0,30,0,0
18849,-50,3,2,0,30,0,0
18883,-133.333333333333,3,2,0,30,0,0
18983,-50,3,2,0,30,0,0
19017,-133.333333333333,3,2,0,30,0,0
19117,-50,3,2,0,30,0,0
19151,-1000,3,2,0,30,0,0
19184,-50,3,2,0,30,0,0
19218,-1000,3,2,0,30,0,0
19251,-50,3,2,0,30,0,0
19285,-1000,3,2,0,30,0,0
19318,-50,3,2,0,30,0,0
19352,-1000,3,2,0,30,0,0
19385,-50,3,2,0,30,0,0
19419,-1000,3,2,0,30,0,0
19452,-50,3,2,0,30,0,0
19485,-1000,3,2,0,30,0,0
19519,-50,3,2,0,30,0,0
19552,-1000,3,2,0,30,0,0
19586,-50,3,2,0,30,0,0
19619,-1000,3,2,0,30,0,0
19653,-100,3,2,0,30,0,0
19921,-66.6666666666667,3,2,0,30,0,0
19988,-71.4285714285714,3,2,0,30,0,0
20055,-76.9230769230769,3,2,0,30,0,0
20122,-83.3333333333333,3,2,0,30,0,0
20189,-90.9090909090909,3,2,0,30,0,0
20256,-100,3,2,0,30,0,0
20323,-111.111111111111,3,2,0,30,0,0
20390,-125,3,2,0,30,0,0
20456,-142.857142857143,3,2,0,30,0,0
20523,-166.666666666667,3,2,0,30,0,0
20590,-200,3,2,0,30,0,0
20657,-250,3,2,0,30,0,0
20724,-66.6666666666667,3,2,0,30,0,0
20791,-71.4285714285714,3,2,0,30,0,0
20858,-76.9230769230769,3,2,0,30,0,0
20925,-83.3333333333333,3,2,0,30,0,0
20992,-90.9090909090909,3,2,0,30,0,0
21059,-100,3,2,0,30,0,0
21126,-111.111111111111,3,2,0,30,0,0
21193,-125,3,2,0,30,0,0
21260,-142.857142857143,3,2,0,30,0,0
21327,-166.666666666667,3,2,0,30,0,0
21394,-200,3,2,0,30,0,0
21461,-250,3,2,0,30,0,0
21528,-58.8235294117647,3,2,0,30,0,0
21561,-62.5,3,2,0,30,0,0
21595,-66.6666666666667,3,2,0,30,0,0
21628,-71.4285714285714,3,2,0,30,0,0
21662,-76.9230769230769,3,2,0,30,0,0
21695,-83.3333333333333,3,2,0,30,0,0
21729,-90.9090909090909,3,2,0,30,0,0
21762,-100,3,2,0,30,0,0
21796,-111.111111111111,3,2,0,30,0,0
21829,-125,3,2,0,30,0,0
21863,-142.857142857143,3,2,0,30,0,0
21896,-166.666666666667,3,2,0,30,0,0
21930,-58.8235294117647,3,2,0,30,0,0
21963,-62.5,3,2,0,30,0,0
21997,-66.6666666666667,3,2,0,30,0,0
22030,-71.4285714285714,3,2,0,30,0,0
22064,-76.9230769230769,3,2,0,30,0,0
22097,-83.3333333333333,3,2,0,30,0,0
22131,-90.9090909090909,3,2,0,30,0,0
22164,-100,3,2,0,30,0,0
22198,-111.111111111111,3,2,0,30,0,0
22231,-125,3,2,0,30,0,0
22265,-142.857142857143,3,2,0,30,0,0
22298,-166.666666666667,3,2,0,30,0,0
22331,-100,3,2,0,30,0,0
23939,-50,3,2,0,30,0,0
23972,-133.333333333333,3,2,0,30,0,0
24073,-50,3,2,0,30,0,0
24106,-133.333333333333,3,2,0,30,0,0
24206,-50,3,2,0,30,0,0
24240,-133.333333333333,3,2,0,30,0,0
24340,-50,3,2,0,30,0,0
24374,-133.333333333333,3,2,0,30,0,0
24474,-50,3,2,0,30,0,0
24508,-133.333333333333,3,2,0,30,0,0
24608,-50,3,2,0,30,0,0
24642,-133.333333333333,3,2,0,30,0,0
24742,-100,3,2,0,30,0,0
25680,-40,3,2,0,30,0,0
25696,-1000,3,2,0,30,0,0
25713,-40,3,2,0,30,0,0
25730,-1000,3,2,0,30,0,0
25747,-40,3,2,0,30,0,0
25763,-1000,3,2,0,30,0,0
25780,-40,3,2,0,30,0,0
25797,-1000,3,2,0,30,0,0
25814,-100,3,2,0,30,0,0
25948,-50,3,2,0,30,0,0
25964,-1000,3,2,0,30,0,0
25981,-40,3,2,0,30,0,0
25998,-1000,3,2,0,30,0,0
26015,-40,3,2,0,30,0,0
26031,-1000,3,2,0,30,0,0
26048,-40,3,2,0,30,0,0
26065,-1000,3,2,0,30,0,0
26081,-47.6190476190476,3,2,0,30,0,0
26115,-58.8235294117647,3,2,0,30,0,0
26148,-71.4285714285714,3,2,0,30,0,0
26182,-111.111111111111,3,2,0,30,0,0
26215,-166.666666666666,3,2,0,30,0,0
26249,-250.000000000001,3,2,0,30,0,0
26282,-500,3,2,0,30,0,0
26316,-1000,3,2,0,30,0,0
26349,-100,3,2,0,30,0,0
27956,-50,3,2,0,30,0,0
27990,-1000,3,2,0,30,0,0
28023,-50,3,2,0,30,0,0
28057,-1000,3,2,0,30,0,0
28090,-50,3,2,0,30,0,0
28124,-1000,3,2,0,30,0,0
28157,-50,3,2,0,30,0,0
28191,-1000,3,2,0,30,0,0
28224,-100,3,2,0,30,0,0
28760,-50,3,2,0,30,0,0
28794,-1000,3,2,0,30,0,0
28827,-50,3,2,0,30,0,0
28860,-1000,3,2,0,30,0,0
28894,-50,3,2,0,30,0,0
28927,-1000,3,2,0,30,0,0
28961,-50,3,2,0,30,0,0
28994,-1000,3,2,0,30,0,0
29028,-100,3,2,0,30,0,0
31171,-50,3,2,0,30,0,0
31204,-133.333333333333,3,2,0,30,0,0
31305,-50,3,2,0,30,0,0
31338,-133.333333333333,3,2,0,30,0,0
31439,-50,3,2,0,30,0,0
31472,-133.333333333333,3,2,0,30,0,0
31573,-50,3,2,0,30,0,0
31606,-133.333333333333,3,2,0,30,0,0
31706,-50,3,2,0,30,0,0
31740,-133.333333333333,3,2,0,30,0,0
31840,-50,3,2,0,30,0,0
31874,-133.333333333333,3,2,0,30,0,0
31974,-50,3,2,0,30,0,0
32008,-1000,3,2,0,30,0,0
32041,-50,3,2,0,30,0,0
32075,-1000,3,2,0,30,0,0
32108,-50,3,2,0,30,0,0
32142,-1000,3,2,0,30,0,0
32175,-50,3,2,0,30,0,0
32209,-1000,3,2,0,30,0,0
32242,-50,3,2,0,30,0,0
32276,-1000,3,2,0,30,0,0
32309,-50,3,2,0,30,0,0
32343,-1000,3,2,0,30,0,0
32376,-50,3,2,0,30,0,0
32410,-1000,3,2,0,30,0,0
32443,-50,3,2,0,30,0,0
32477,-1000,3,2,0,30,0,0
32510,-100,3,2,0,30,0,0
32778,-66.6666666666667,3,2,0,30,0,0
32845,-71.4285714285714,3,2,0,30,0,0
32912,-76.9230769230769,3,2,0,30,0,0
32979,-83.3333333333333,3,2,0,30,0,0
33046,-90.9090909090909,3,2,0,30,0,0
33113,-100,3,2,0,30,0,0
33180,-111.111111111111,3,2,0,30,0,0
33247,-125,3,2,0,30,0,0
33314,-142.857142857143,3,2,0,30,0,0
33381,-166.666666666667,3,2,0,30,0,0
33448,-200,3,2,0,30,0,0
33515,-250,3,2,0,30,0,0
33581,-66.6666666666667,3,2,0,30,0,0
33648,-71.4285714285714,3,2,0,30,0,0
33715,-76.9230769230769,3,2,0,30,0,0
33782,-83.3333333333333,3,2,0,30,0,0
33849,-90.9090909090909,3,2,0,30,0,0
33916,-100,3,2,0,30,0,0
33983,-111.111111111111,3,2,0,30,0,0
34050,-125,3,2,0,30,0,0
34117,-142.857142857143,3,2,0,30,0,0
34184,-166.666666666667,3,2,0,30,0,0
34251,-200,3,2,0,30,0,0
34318,-250,3,2,0,30,0,0
34385,-58.8235294117647,3,2,0,30,0,0
34419,-62.5,3,2,0,30,0,0
34452,-66.6666666666667,3,2,0,30,0,0
34485,-71.4285714285714,3,2,0,30,0,0
34519,-76.9230769230769,3,2,0,30,0,0
34552,-83.3333333333333,3,2,0,30,0,0
34586,-90.9090909090909,3,2,0,30,0,0
34619,-100,3,2,0,30,0,0
34653,-111.111111111111,3,2,0,30,0,0
34686,-125,3,2,0,30,0,0
34720,-142.857142857143,3,2,0,30,0,0
34753,-166.666666666667,3,2,0,30,0,0
34787,-58.8235294117647,3,2,0,30,0,0
34820,-62.5,3,2,0,30,0,0
34854,-66.6666666666667,3,2,0,30,0,0
34887,-71.4285714285714,3,2,0,30,0,0
34921,-76.9230769230769,3,2,0,30,0,0
34954,-83.3333333333333,3,2,0,30,0,0
34988,-90.9090909090909,3,2,0,30,0,0
35021,-100,3,2,0,30,0,0
35055,-111.111111111111,3,2,0,30,0,0
35088,-125,3,2,0,30,0,0
35122,-142.857142857143,3,2,0,30,0,0
35155,-166.666666666667,3,2,0,30,0,0
35189,-100,3,2,0,30,0,0
38403,-50,3,2,0,30,0,0
38420,-1000,3,2,0,30,0,0
38436,-40,3,2,0,30,0,0
38453,-1000,3,2,0,30,0,0
38470,-40,3,2,0,30,0,0
38487,-1000,3,2,0,30,0,0
38503,-40,3,2,0,30,0,0
38520,-1000,3,2,0,30,0,0
38537,-40,3,2,0,30,0,0
38554,-1000,3,2,0,30,0,0
38570,-40,3,2,0,30,0,0
38587,-1000,3,2,0,30,0,0
38604,-40,3,2,0,30,0,0
38621,-1000,3,2,0,30,0,0
38637,-40,3,2,0,30,0,0
38654,-1000,3,2,0,30,0,0
38671,-100,3,2,0,30,0,0
38805,-40,3,2,0,30,0,0
38821,-1000,3,2,0,30,0,0
38838,-40,3,2,0,30,0,0
38855,-1000,3,2,0,30,0,0
38872,-40,3,2,0,30,0,0
38888,-1000,3,2,0,30,0,0
38905,-40,3,2,0,30,0,0
38922,-1000,3,2,0,30,0,0
38939,-47.6190476190476,3,2,0,30,0,0
38972,-58.8235294117647,3,2,0,30,0,0
39006,-71.4285714285714,3,2,0,30,0,0
39039,-111.111111111111,3,2,0,30,0,0
39073,-166.666666666667,3,2,0,30,0,0
39106,-250,3,2,0,30,0,0
39140,-500,3,2,0,30,0,0
39173,-1000,3,2,0,30,0,0
39206,-66.6666666666667,3,2,0,30,0,0
39273,-100,3,2,0,30,0,0
40010,-66.6666666666667,3,2,0,30,0,0
40077,-100,3,2,0,30,0,0
40814,-66.6666666666667,3,2,0,30,0,0
40881,-100,3,2,0,30,0,0
41617,-50,3,2,0,30,0,0
41651,-133.333333333333,3,2,0,30,0,0
41751,-50,3,2,0,30,0,0
41785,-133.333333333333,3,2,0,30,0,0
41885,-50,3,2,0,30,0,0
41919,-133.333333333333,3,2,0,30,0,0
42019,-50,3,2,0,30,0,0
42052,-133.333333333333,3,2,0,30,0,0
42153,-100,3,2,0,30,0,0
42421,-66.6666666666667,3,2,0,30,0,0
42488,-100,3,2,0,30,0,0
43224,-66.6666666666667,3,2,0,30,0,0
43291,-100,3,2,0,30,0,0
44028,-66.6666666666667,3,2,0,30,0,0
44095,-100,3,2,0,30,0,0
44831,-66.6666666666667,3,2,0,30,0,0
44898,-100,3,2,0,30,0,0
45635,-66.6666666666667,3,2,0,30,0,0
45702,-100,3,2,0,30,0,0
46439,-66.6666666666667,3,2,0,30,0,0
46506,-100,3,2,0,30,0,0
47242,-66.6666666666667,3,2,0,30,0,0
47309,-100,3,2,0,30,0,0
48046,-50,3,2,0,30,0,0
48079,-1000,3,2,0,30,0,0
48113,-50,3,2,0,30,0,0
48146,-1000,3,2,0,30,0,0
48180,-50,3,2,0,30,0,0
48213,-1000,3,2,0,30,0,0
48247,-50,3,2,0,30,0,0
48280,-1000,3,2,0,30,0,0
48314,-50,3,2,0,30,0,0
48347,-1000,3,2,0,30,0,0
48381,-50,3,2,0,30,0,0
48414,-1000,3,2,0,30,0,0
48448,-50,3,2,0,30,0,0
48481,-1000,3,2,0,30,0,0
48515,-50,3,2,0,30,0,0
48548,-1000,3,2,0,30,0,0
48581,-58.8235294117647,3,2,0,30,0,0
48615,-66.6666666666667,3,2,0,30,0,0
48648,-76.9230769230769,3,2,0,30,0,0
48682,-90.9090909090909,3,2,0,30,0,0
48715,-100,3,2,0,30,0,0
48849,-50,3,2,0,30,0,0
48883,-133.333333333333,3,2,0,30,0,0
48983,-50,3,2,0,30,0,0
49017,-133.333333333333,3,2,0,30,0,0
49117,-50,3,2,0,30,0,0
49151,-133.333333333333,3,2,0,30,0,0
49251,-50,3,2,0,30,0,0
49285,-133.333333333333,3,2,0,30,0,0
49385,-58.8235294117647,3,2,0,30,0,0
49419,-66.6666666666667,3,2,0,30,0,0
49452,-76.9230769230769,3,2,0,30,0,0
49485,-90.9090909090909,3,2,0,30,0,0
49519,-100,3,2,0,30,0,0
49653,-50,3,2,0,30,0,0
49686,-1000,3,2,0,30,0,0
49720,-50,3,2,0,30,0,0
49753,-1000,3,2,0,30,0,0
49787,-50,3,2,0,30,0,0
49820,-1000,3,2,0,30,0,0
49854,-50,3,2,0,30,0,0
49887,-1000,3,2,0,30,0,0
49921,-50,3,2,0,30,0,0
49954,-1000,3,2,0,30,0,0
49988,-50,3,2,0,30,0,0
50021,-1000,3,2,0,30,0,0
50055,-50,3,2,0,30,0,0
50088,-1000,3,2,0,30,0,0
50122,-50,3,2,0,30,0,0
50155,-1000,3,2,0,30,0,0
50189,-58.8235294117647,3,2,0,30,0,0
50222,-66.6666666666667,3,2,0,30,0,0
50256,-76.9230769230769,3,2,0,30,0,0
50289,-90.9090909090909,3,2,0,30,0,0
50323,-100,3,2,0,30,0,0
50456,-66.6666666666667,3,2,0,30,0,0
50523,-100,3,2,0,30,0,0
50992,-66.6666666666667,3,2,0,30,0,0
51059,-100,3,2,0,30,0,0
51260,-50,3,2,0,30,0,0
51294,-1000,3,2,0,30,0,0
51327,-50,3,2,0,30,0,0
51360,-1000,3,2,0,30,0,0
51394,-50,3,2,0,30,0,0
51427,-1000,3,2,0,30,0,0
51461,-50,3,2,0,30,0,0
51494,-1000,3,2,0,30,0,0
51528,-50,3,2,0,30,0,0
51561,-1000,3,2,0,30,0,0
51595,-50,3,2,0,30,0,0
51628,-1000,3,2,0,30,0,0
51662,-50,3,2,0,30,0,0
51695,-1000,3,2,0,30,0,0
51729,-50,3,2,0,30,0,0
51762,-1000,3,2,0,30,0,0
51796,-50,3,2,0,30,0,0
51829,-1000,3,2,0,30,0,0
51863,-50,3,2,0,30,0,0
51896,-1000,3,2,0,30,0,0
51930,-50,3,2,0,30,0,0
51963,-1000,3,2,0,30,0,0
51997,-50,3,2,0,30,0,0
52030,-1000,3,2,0,30,0,0
52064,-100,3,2,0,30,0,1
54474,-50,3,2,0,30,0,1
54508,-133.333333333333,3,2,0,30,0,1
54608,-50,3,2,0,30,0,1
54642,-133.333333333333,3,2,0,30,0,1
54742,-50,3,2,0,30,0,1
54776,-133.333333333333,3,2,0,30,0,1
54876,-50,3,2,0,30,0,1
54910,-133.333333333333,3,2,0,30,0,1
55010,-100,3,2,0,30,0,1
58760,-133.333333333333,3,2,0,30,0,1
59028,-100,3,2,0,30,0,1
59564,-133.333333333333,3,2,0,30,0,1
59831,-50,3,2,0,30,0,1
59848,-1000,3,2,0,30,0,1
59865,-50,3,2,0,30,0,1
59882,-1000,3,2,0,30,0,1
59898,-50,3,2,0,30,0,1
59915,-1000,3,2,0,30,0,1
59932,-50,3,2,0,30,0,1
59949,-1000,3,2,0,30,0,1
59965,-100,3,2,0,30,0,1
60903,-50,3,2,0,30,0,1
60920,-1000,3,2,0,30,0,1
60936,-50,3,2,0,30,0,1
60953,-1000,3,2,0,30,0,1
60970,-50,3,2,0,30,0,1
60987,-1000,3,2,0,30,0,1
61003,-50,3,2,0,30,0,1
61020,-1000,3,2,0,30,0,1
61037,-100,3,2,0,30,0,1
61439,-133.333333333333,3,2,0,30,0,1
61706,-100,3,2,0,30,0,1
61974,-50,3,2,0,30,0,1
61991,-1000,3,2,0,30,0,1
62008,-50,3,2,0,30,0,1
62025,-1000,3,2,0,30,0,1
62041,-50,3,2,0,30,0,1
62058,-1000,3,2,0,30,0,1
62075,-50,3,2,0,30,0,1
62092,-1000,3,2,0,30,0,1
62108,-50,3,2,0,30,0,1
62125,-1000,3,2,0,30,0,1
62142,-50,3,2,0,30,0,1
62158,-1000,3,2,0,30,0,1
62175,-50,3,2,0,30,0,1
62192,-1000,3,2,0,30,0,1
62209,-50,3,2,0,30,0,1
62225,-1000,3,2,0,30,0,1
62242,-100,3,2,0,30,0,1
62510,-50,3,2,0,30,0,1
62577,-66.6666666666667,3,2,0,30,0,1
62644,-100,3,2,0,30,0,1
62778,-66.6666666666667,3,2,0,30,0,1
62811,-90.9090909090909,3,2,0,30,0,1
62845,-125,3,2,0,30,0,1
62878,-166.666666666666,3,2,0,30,0,1
62912,-250.000000000001,3,2,0,30,0,1
62945,-333.333333333333,3,2,0,30,0,1
62979,-500,3,2,0,30,0,1
63012,-1000,3,2,0,30,0,1
63046,-100,3,2,0,30,0,1
63314,-66.6666666666667,3,2,0,30,0,1
63381,-100,3,2,0,30,0,1
64117,-50,3,2,0,30,0,1
64151,-1000,3,2,0,30,0,1
64184,-50,3,2,0,30,0,1
64218,-1000,3,2,0,30,0,1
64251,-50,3,2,0,30,0,1
64285,-1000,3,2,0,30,0,1
64318,-50,3,2,0,30,0,1
64352,-1000,3,2,0,30,0,1
64385,-50,3,2,0,30,0,1
64419,-1000,3,2,0,30,0,1
64452,-50,3,2,0,30,0,1
64485,-1000,3,2,0,30,0,1
64519,-50,3,2,0,30,0,1
64552,-1000,3,2,0,30,0,1
64586,-50,3,2,0,30,0,1
64619,-1000,3,2,0,30,0,1
64653,-100,3,2,0,30,0,1
67331,-50,3,2,0,30,0,1
67365,-133.333333333333,3,2,0,30,0,1
67465,-50,3,2,0,30,0,1
67499,-133.333333333333,3,2,0,30,0,1
67599,-50,3,2,0,30,0,1
67633,-133.333333333333,3,2,0,30,0,1
67733,-50,3,2,0,30,0,1
67767,-133.333333333333,3,2,0,30,0,1
67867,-50,3,2,0,30,0,1
67901,-133.333333333333,3,2,0,30,0,1
68001,-50,3,2,0,30,0,1
68035,-133.333333333333,3,2,0,30,0,1
68135,-100,3,2,0,30,0,1
68671,-50,3,2,0,30,0,1
68704,-1000,3,2,0,30,0,1
68738,-50,3,2,0,30,0,1
68771,-1000,3,2,0,30,0,1
68805,-50,3,2,0,30,0,1
68838,-1000,3,2,0,30,0,1
68872,-50,3,2,0,30,0,1
68905,-1000,3,2,0,30,0,1
68939,-100,3,2,0,30,0,1
69474,-50,3,2,0,30,0,1
69508,-1000,3,2,0,30,0,1
69541,-50,3,2,0,30,0,1
69575,-1000,3,2,0,30,0,1
69608,-50,3,2,0,30,0,1
69642,-1000,3,2,0,30,0,1
69675,-50,3,2,0,30,0,1
69709,-1000,3,2,0,30,0,1
69742,-100,3,2,0,30,0,1
70278,-50,3,2,0,30,0,1
70311,-1000,3,2,0,30,0,1
70345,-50,3,2,0,30,0,1
70378,-1000,3,2,0,30,0,1
70412,-50,3,2,0,30,0,1
70445,-1000,3,2,0,30,0,1
70479,-50,3,2,0,30,0,1
70512,-1000,3,2,0,30,0,1
70546,-100,3,2,0,30,0,1
71349,-66.6666666666667,3,2,0,30,0,1
71416,-100,3,2,0,30,0,1
72153,-66.6666666666667,3,2,0,30,0,1
72220,-100,3,2,0,30,0,1
72421,-66.6666666666667,3,2,0,30,0,1
72488,-100,3,2,0,30,0,1
72689,-66.6666666666667,3,2,0,30,0,1
72756,-100,3,2,0,30,0,1
72956,-66.6666666666667,3,2,0,30,0,1
73023,-100,3,2,0,30,0,1
73760,-66.6666666666667,3,2,0,30,0,1
73827,-100,3,2,0,30,0,1
74028,-66.6666666666667,3,2,0,30,0,1
74095,-100,3,2,0,30,0,1
74296,-66.6666666666667,3,2,0,30,0,1
74363,-100,3,2,0,30,0,1
74564,-50,3,2,0,30,0,1
74597,-133.333333333333,3,2,0,30,0,1
74698,-50,3,2,0,30,0,1
74731,-133.333333333333,3,2,0,30,0,1
74831,-50,3,2,0,30,0,1
74865,-133.333333333333,3,2,0,30,0,1
74965,-50,3,2,0,30,0,1
74999,-133.333333333333,3,2,0,30,0,1
75099,-66.6666666666667,3,2,0,30,0,1
75166,-100,3,2,0,30,0,1
75367,-50,3,2,0,30,0,1
75401,-133.333333333333,3,2,0,30,0,1
75501,-50,3,2,0,30,0,1
75535,-133.333333333333,3,2,0,30,0,1
75635,-50,3,2,0,30,0,1
75669,-133.333333333333,3,2,0,30,0,1
75769,-50,3,2,0,30,0,1
75802,-133.333333333333,3,2,0,30,0,1
75903,-66.6666666666667,3,2,0,30,0,1
75970,-100,3,2,0,30,0,1
76974,-50,3,2,0,30,0,1
76991,-1000,3,2,0,30,0,1
77008,-50,3,2,0,30,0,1
77025,-1000,3,2,0,30,0,1
77041,-50,3,2,0,30,0,1
77058,-1000,3,2,0,30,0,1
77075,-50,3,2,0,30,0,1
77092,-1000,3,2,0,30,0,1
77108,-100,3,2,0,30,0,1
77242,-50,3,2,0,30,0,1
77259,-1000,3,2,0,30,0,1
77276,-50,3,2,0,30,0,1
77292,-1000,3,2,0,30,0,1
77309,-50,3,2,0,30,0,1
77326,-1000,3,2,0,30,0,1
77343,-50,3,2,0,30,0,1
77359,-1000,3,2,0,30,0,1
77376,-100,3,2,0,30,0,1
77510,-50,3,2,0,30,0,1
77527,-1000,3,2,0,30,0,1
77544,-50,3,2,0,30,0,1
77560,-1000,3,2,0,30,0,1
77577,-50,3,2,0,30,0,1
77594,-1000,3,2,0,30,0,1
77610,-50,3,2,0,30,0,1
77627,-1000,3,2,0,30,0,1
77644,-50,3,2,0,30,0,1
77661,-1000,3,2,0,30,0,1
77677,-50,3,2,0,30,0,1
77694,-1000,3,2,0,30,0,1
77711,-50,3,2,0,30,0,1
77728,-1000,3,2,0,30,0,1
77744,-50,3,2,0,30,0,1
77761,-1000,3,2,0,30,0,1
77778,-100,3,2,0,30,0,1
80189,-50,3,2,0,30,0,1
80222,-133.333333333333,3,2,0,30,0,1
80323,-50,3,2,0,30,0,1
80356,-133.333333333333,3,2,0,30,0,1
80456,-50,3,2,0,30,0,1
80490,-1000,3,2,0,30,0,1
80523,-50,3,2,0,30,0,1
80557,-1000,3,2,0,30,0,1
80590,-50,3,2,0,30,0,1
80624,-1000,3,2,0,30,0,1
80657,-50,3,2,0,30,0,1
80691,-1000,3,2,0,30,0,1
80724,-47.6190476190476,3,2,0,30,0,1
80758,-58.8235294117647,3,2,0,30,0,1
80791,-71.4285714285714,3,2,0,30,0,1
80825,-111.111111111111,3,2,0,30,0,1
80858,-166.666666666667,3,2,0,30,0,1
80892,-250,3,2,0,30,0,1
80925,-500,3,2,0,30,0,1
80959,-1000,3,2,0,30,0,1
80992,-100,3,2,0,30,0,1
83403,-50,3,2,0,30,0,1
83436,-1000,3,2,0,30,0,1
83470,-50,3,2,0,30,0,1
83503,-1000,3,2,0,30,0,1
83537,-50,3,2,0,30,0,1
83570,-1000,3,2,0,30,0,1
83604,-50,3,2,0,30,0,1
83637,-1000,3,2,0,30,0,1
83671,-50,3,2,0,30,0,1
83704,-1000,3,2,0,30,0,1
83738,-50,3,2,0,30,0,1
83771,-1000,3,2,0,30,0,1
83805,-50,3,2,0,30,0,1
83838,-1000,3,2,0,30,0,1
83872,-50,3,2,0,30,0,1
83905,-1000,3,2,0,30,0,1
83939,-50,3,2,0,30,0,1
83972,-1000,3,2,0,30,0,1
84006,-50,3,2,0,30,0,1
84039,-1000,3,2,0,30,0,1
84073,-50,3,2,0,30,0,1
84106,-1000,3,2,0,30,0,1
84140,-50,3,2,0,30,0,1
84173,-1000,3,2,0,30,0,1
84206,-100,3,2,0,30,0,1
85814,-47.6190476190476,3,2,0,30,0,1
85847,-58.8235294117647,3,2,0,30,0,1
85881,-71.4285714285714,3,2,0,30,0,1
85914,-111.111111111111,3,2,0,30,0,1
85948,-166.666666666667,3,2,0,30,0,1
85981,-250,3,2,0,30,0,1
86015,-500,3,2,0,30,0,1
86048,-1000,3,2,0,30,0,1
86081,-47.6190476190476,3,2,0,30,0,1
86115,-58.8235294117647,3,2,0,30,0,1
86148,-71.4285714285714,3,2,0,30,0,1
86182,-111.111111111111,3,2,0,30,0,1
86215,-166.666666666667,3,2,0,30,0,1
86249,-250,3,2,0,30,0,1
86282,-500,3,2,0,30,0,1
86316,-1000,3,2,0,30,0,1
86349,-47.6190476190476,3,2,0,30,0,1
86383,-58.8235294117647,3,2,0,30,0,1
86416,-71.4285714285714,3,2,0,30,0,1
86450,-111.111111111111,3,2,0,30,0,1
86483,-166.666666666667,3,2,0,30,0,1
86517,-250,3,2,0,30,0,1
86550,-500,3,2,0,30,0,1
86584,-1000,3,2,0,30,0,1
86617,-47.6190476190476,3,2,0,30,0,1
86651,-58.8235294117647,3,2,0,30,0,1
86684,-71.4285714285714,3,2,0,30,0,1
86718,-111.111111111111,3,2,0,30,0,1
86751,-166.666666666667,3,2,0,30,0,1
86785,-250,3,2,0,30,0,1
86818,-500,3,2,0,30,0,1
86852,-1000,3,2,0,30,0,1
86885,-66.6666666666667,3,2,0,30,0,1
86952,-100,3,2,0,30,0,1
87421,-50,3,2,0,30,0,1
87454,-133.333333333333,3,2,0,30,0,1
87555,-50,3,2,0,30,0,1
87588,-133.333333333333,3,2,0,30,0,1
87689,-50,3,2,0,30,0,1
87722,-133.333333333333,3,2,0,30,0,1
87823,-50,3,2,0,30,0,1
87856,-133.333333333333,3,2,0,30,0,1
87956,-100,3,2,0,30,0,1
88224,-50,3,2,0,30,0,1
88258,-133.333333333333,3,2,0,30,0,1
88358,-50,3,2,0,30,0,1
88392,-133.333333333333,3,2,0,30,0,1
88492,-50,3,2,0,30,0,1
88526,-133.333333333333,3,2,0,30,0,1
88626,-50,3,2,0,30,0,1
88660,-133.333333333333,3,2,0,30,0,1
88760,-100,3,2,0,30,0,1
90099,-50,3,2,0,30,0,1
90133,-1000,3,2,0,30,0,1
90166,-50,3,2,0,30,0,1
90200,-1000,3,2,0,30,0,1
90233,-100,3,2,0,30,0,1
90367,-50,3,2,0,30,0,1
90384,-1000,3,2,0,30,0,1
90401,-50,3,2,0,30,0,1
90417,-1000,3,2,0,30,0,1
90434,-50,3,2,0,30,0,1
90451,-1000,3,2,0,30,0,1
90468,-50,3,2,0,30,0,1
90484,-1000,3,2,0,30,0,1
90501,-50,3,2,0,30,0,1
90518,-1000,3,2,0,30,0,1
90535,-50,3,2,0,30,0,1
90551,-1000,3,2,0,30,0,1
90568,-50,3,2,0,30,0,1
90585,-1000,3,2,0,30,0,1
90602,-50,3,2,0,30,0,1
90618,-1000,3,2,0,30,0,1
90635,-100,3,2,0,30,0,0
93046,-66.6666666666667,3,2,0,30,0,0
93079,-133.333333333333,3,2,0,30,0,0
93180,-66.6666666666667,3,2,0,30,0,0
93213,-133.333333333333,3,2,0,30,0,0
93314,-66.6666666666667,3,2,0,30,0,0
93347,-133.333333333333,3,2,0,30,0,0
93448,-66.6666666666667,3,2,0,30,0,0
93481,-133.333333333333,3,2,0,30,0,0
93581,-100,3,2,0,30,0,0
96260,-66.6666666666667,3,2,0,30,0,0
96327,-100,3,2,0,30,0,0
99474,-66.6666666666667,3,2,0,30,0,0
99541,-90.9090909090909,3,2,0,30,0,0
99608,-111.111111111111,3,2,0,30,0,0
99675,-142.857142857143,3,2,0,30,0,0
99742,-100,3,2,0,30,0,0
99809,-142.857142857143,3,2,0,30,0,0
99876,-166.666666666666,3,2,0,30,0,0
99943,-200,3,2,0,30,0,0
100010,-100,3,2,0,30,0,0
100278,-50,3,2,0,30,0,0
100311,-1000,3,2,0,30,0,0
100345,-50,3,2,0,30,0,0
100378,-1000,3,2,0,30,0,0
100412,-50,3,2,0,30,0,0
100445,-1000,3,2,0,30,0,0
100479,-50,3,2,0,30,0,0
100512,-1000,3,2,0,30,0,0
100546,-50,3,2,0,30,0,0
100579,-1000,3,2,0,30,0,0
100613,-50,3,2,0,30,0,0
100646,-1000,3,2,0,30,0,0
100680,-50,3,2,0,30,0,0
100713,-1000,3,2,0,30,0,0
100747,-50,3,2,0,30,0,0
100780,-1000,3,2,0,30,0,0
100814,-100,3,2,0,30,0,0
101081,-50,3,2,0,30,0,0
101115,-1000,3,2,0,30,0,0
101148,-50,3,2,0,30,0,0
101182,-1000,3,2,0,30,0,0
101215,-50,3,2,0,30,0,0
101249,-1000,3,2,0,30,0,0
101282,-50,3,2,0,30,0,0
101316,-1000,3,2,0,30,0,0
101349,-50,3,2,0,30,0,0
101383,-1000,3,2,0,30,0,0
101416,-50,3,2,0,30,0,0
101450,-1000,3,2,0,30,0,0
101483,-50,3,2,0,30,0,0
101517,-1000,3,2,0,30,0,0
101550,-50,3,2,0,30,0,0
101584,-1000,3,2,0,30,0,0
101617,-100,3,2,0,30,0,0
103492,-100,3,2,0,30,0,1
109921,-66.6666666666667,3,2,0,30,0,1
109965,-133.333333333333,3,2,0,30,0,1
110010,-66.6666666666667,3,2,0,30,0,1
110055,-133.333333333333,3,2,0,30,0,1
110099,-66.6666666666667,3,2,0,30,0,1
110144,-133.333333333333,3,2,0,30,0,1
110189,-50,3,2,0,30,0,1
110222,-1000,3,2,0,30,0,1
110256,-50,3,2,0,30,0,1
110289,-1000,3,2,0,30,0,1
110323,-50,3,2,0,30,0,1
110356,-1000,3,2,0,30,0,1
110390,-50,3,2,0,30,0,1
110423,-1000,3,2,0,30,0,1
110456,-100,3,2,0,30,0,1
110724,-50,3,2,0,30,0,1
110758,-1000,3,2,0,30,0,1
110791,-50,3,2,0,30,0,1
110825,-1000,3,2,0,30,0,1
110858,-50,3,2,0,30,0,1
110892,-1000,3,2,0,30,0,1
110925,-50,3,2,0,30,0,1
110959,-1000,3,2,0,30,0,1
110992,-50,3,2,0,30,0,1
111009,-1000,3,2,0,30,0,1
111026,-50,3,2,0,30,0,1
111042,-1000,3,2,0,30,0,1
111059,-50,3,2,0,30,0,1
111076,-1000,3,2,0,30,0,1
111093,-50,3,2,0,30,0,1
111109,-1000,3,2,0,30,0,1
111126,-100,3,2,0,30,0,1
111260,-50,3,2,0,30,0,1
111277,-1000,3,2,0,30,0,1
111294,-50,3,2,0,30,0,1
111310,-1000,3,2,0,30,0,1
111327,-50,3,2,0,30,0,1
111344,-1000,3,2,0,30,0,1
111360,-50,3,2,0,30,0,1
111377,-1000,3,2,0,30,0,1
111394,-100,3,2,0,30,0,1
111528,-66.6666666666667,3,2,0,30,0,1
111573,-133.333333333333,3,2,0,30,0,1
111617,-66.6666666666667,3,2,0,30,0,1
111662,-133.333333333333,3,2,0,30,0,1
111706,-66.6666666666667,3,2,0,30,0,1
111751,-133.333333333333,3,2,0,30,0,1
111796,-100,3,2,0,30,0,1
112331,-50,3,2,0,30,0,1
112348,-1000,3,2,0,30,0,1
112365,-50,3,2,0,30,0,1
112382,-1000,3,2,0,30,0,1
112398,-50,3,2,0,30,0,1
112415,-1000,3,2,0,30,0,1
112432,-50,3,2,0,30,0,1
112449,-1000,3,2,0,30,0,1
112465,-100,3,2,0,30,0,1
112867,-50,3,2,0,30,0,1
112884,-1000,3,2,0,30,0,1
112901,-50,3,2,0,30,0,1
112917,-1000,3,2,0,30,0,1
112934,-50,3,2,0,30,0,1
112951,-1000,3,2,0,30,0,1
112968,-50,3,2,0,30,0,1
112984,-1000,3,2,0,30,0,1
113001,-100,3,2,0,30,0,1
113135,-50,3,2,0,30,0,1
113169,-1000,3,2,0,30,0,1
113202,-50,3,2,0,30,0,1
113235,-1000,3,2,0,30,0,1
113269,-50,3,2,0,30,0,1
113302,-1000,3,2,0,30,0,1
113336,-50,3,2,0,30,0,1
113369,-1000,3,2,0,30,0,1
113403,-100,3,2,0,30,0,1
113939,-50,3,2,0,30,0,1
113972,-1000,3,2,0,30,0,1
114006,-50,3,2,0,30,0,1
114039,-1000,3,2,0,30,0,1
114073,-50,3,2,0,30,0,1
114106,-1000,3,2,0,30,0,1
114140,-50,3,2,0,30,0,1
114173,-1000,3,2,0,30,0,1
114206,-100,3,2,0,30,0,1
114742,-100,3,2,0,30,0,0
115546,-66.6666666666667,3,2,0,30,0,0
115613,-100,3,2,0,30,0,0
116349,-66.6666666666667,3,2,0,30,0,0
116416,-100,3,2,0,30,0,0
117153,-66.6666666666667,3,2,0,30,0,0
117220,-100,3,2,0,30,0,0
117956,-66.6666666666667,3,2,0,30,0,0
118023,-100,3,2,0,30,0,0

[HitObjects]
320,192,635,128,0,769:0:0:0:0:
64,192,635,1,0,0:0:0:0:
192,192,635,1,0,0:0:0:0:
448,192,769,128,0,903:0:0:0:0:
64,192,1037,128,0,1171:0:0:0:0:
192,192,1171,128,0,1439:0:0:0:0:
64,192,1439,128,0,1706:0:0:0:0:
320,192,1439,1,0,0:0:0:0:
448,192,1439,1,0,0:0:0:0:
320,192,1706,128,0,1974:0:0:0:0:
448,192,1706,1,0,0:0:0:0:
448,192,1974,128,0,2242:0:0:0:0:
192,192,1974,1,0,0:0:0:0:
320,192,2242,128,0,2778:0:0:0:0:
192,192,2242,1,0,0:0:0:0:
64,192,2242,1,0,0:0:0:0:
192,192,2778,128,0,2912:0:0:0:0:
192,192,3046,128,0,3849:0:0:0:0:
448,192,3046,1,0,0:0:0:0:
64,192,3046,1,0,0:0:0:0:
64,192,3581,128,0,3849:0:0:0:0:
448,192,3849,128,0,4385:0:0:0:0:
320,192,3849,1,0,0:0:0:0:
320,192,4385,128,0,4653:0:0:0:0:
64,192,4385,1,0,0:0:0:0:
64,192,4653,128,0,4854:0:0:0:0:
192,192,4653,1,0,0:0:0:0:
448,192,4653,1,0,0:0:0:0:
192,192,4854,1,0,0:0:0:0:
320,192,4887,1,0,0:0:0:0:
448,192,4921,1,0,0:0:0:0:
64,192,5189,128,0,5456:0:0:0:0:
448,192,5189,1,0,0:0:0:0:
192,192,5456,128,0,5590:0:0:0:0:
448,192,5456,1,0,0:0:0:0:
320,192,5456,1,0,0:0:0:0:
192,192,5724,128,0,5858:0:0:0:0:
320,192,5724,1,0,0:0:0:0:
64,192,5992,128,0,6126:0:0:0:0:
192,192,5992,1,0,0:0:0:0:
448,192,6260,128,0,6327:0:0:0:0:
448,192,6394,128,0,6461:0:0:0:0:
192,192,6528,128,0,6595:0:0:0:0:
192,192,6662,128,0,6729:0:0:0:0:
320,192,6796,128,0,6863:0:0:0:0:
320,192,6930,128,0,6997:0:0:0:0:
192,192,7064,128,0,7198:0:0:0:0:
64,192,7064,1,0,0:0:0:0:
64,192,7465,128,0,7599:0:0:0:0:
320,192,7599,128,0,7867:0:0:0:0:
192,192,7867,128,0,8135:0:0:0:0:
64,192,7867,1,0,0:0:0:0:
448,192,7867,1,0,0:0:0:0:
320,192,8135,128,0,8403:0:0:0:0:
64,192,8135,1,0,0:0:0:0:
448,192,8403,128,0,8671:0:0:0:0:
192,192,8403,1,0,0:0:0:0:
320,192,8671,128,0,9206:0:0:0:0:
64,192,8671,128,0,9206:0:0:0:0:
192,192,8671,1,0,0:0:0:0:
448,192,9206,128,0,9340:0:0:0:0:
64,192,9340,128,0,9474:0:0:0:0:
192,192,9474,128,0,10010:0:0:0:0:
448,192,9474,128,0,10278:0:0:0:0:
320,192,9474,1,0,0:0:0:0:
64,192,10010,128,0,10144:0:0:0:0:
192,192,10144,128,0,10278:0:0:0:0:
320,192,10278,1,0,0:0:0:0:
64,192,10278,1,0,0:0:0:0:
320,192,10680,1,0,0:0:0:0:
320,192,10948,1,0,0:0:0:0:
448,192,11081,1,0,0:0:0:0:
64,192,11081,1,0,0:0:0:0:
192,192,11349,1,0,0:0:0:0:
64,192,11617,1,0,0:0:0:0:
320,192,11885,1,0,0:0:0:0:
448,192,11885,1,0,0:0:0:0:
64,192,12689,1,0,0:0:0:0:
448,192,12689,1,0,0:0:0:0:
192,192,12689,128,0,12823:0:0:0:0:
320,192,12823,128,0,12956:0:0:0:0:
448,192,12956,128,0,13090:0:0:0:0:
64,192,13090,128,0,13224:0:0:0:0:
192,192,13224,128,0,13358:0:0:0:0:
320,192,13358,128,0,13492:0:0:0:0:
192,192,13492,128,0,13760:0:0:0:0:
64,192,13492,1,0,0:0:0:0:
448,192,13492,1,0,0:0:0:0:
64,192,13760,128,0,13827:0:0:0:0:
192,192,13827,128,0,13894:0:0:0:0:
64,192,13894,128,0,13961:0:0:0:0:
448,192,13894,1,0,0:0:0:0:
192,192,13961,128,0,14028:0:0:0:0:
320,192,14028,128,0,14095:0:0:0:0:
448,192,14095,128,0,14162:0:0:0:0:
320,192,14162,128,0,14229:0:0:0:0:
64,192,14162,1,0,0:0:0:0:
448,192,14229,128,0,14296:0:0:0:0:
320,192,14296,128,0,14564:0:0:0:0:
64,192,14296,1,0,0:0:0:0:
192,192,14296,1,0,0:0:0:0:
192,192,14564,128,0,14831:0:0:0:0:
320,192,14698,1,0,0:0:0:0:
448,192,14698,1,0,0:0:0:0:
64,192,14831,128,0,15099:0:0:0:0:
320,192,14965,1,0,0:0:0:0:
448,192,14965,1,0,0:0:0:0:
192,192,15099,1,0,0:0:0:0:
448,192,15166,1,0,0:0:0:0:
192,192,15233,1,0,0:0:0:0:
448,192,15300,1,0,0:0:0:0:
320,192,15367,128,0,15635:0:0:0:0:
192,192,15367,1,0,0:0:0:0:
64,192,15501,1,0,0:0:0:0:
448,192,15501,1,0,0:0:0:0:
192,192,15635,128,0,15903:0:0:0:0:
448,192,15769,1,0,0:0:0:0:
64,192,15769,1,0,0:0:0:0:
320,192,15903,1,0,0:0:0:0:
64,192,15970,1,0,0:0:0:0:
320,192,16037,1,0,0:0:0:0:
64,192,16104,1,0,0:0:0:0:
320,192,16171,128,0,16439:0:0:0:0:
192,192,16171,1,0,0:0:0:0:
64,192,16305,1,0,0:0:0:0:
448,192,16305,1,0,0:0:0:0:
448,192,16439,128,0,16706:0:0:0:0:
64,192,16573,1,0,0:0:0:0:
320,192,16573,1,0,0:0:0:0:
64,192,16706,128,0,16974:0:0:0:0:
320,192,16706,1,0,0:0:0:0:
192,192,16706,1,0,0:0:0:0:
192,192,16974,128,0,17242:0:0:0:0:
448,192,17108,1,0,0:0:0:0:
64,192,17108,1,0,0:0:0:0:
320,192,17242,128,0,17510:0:0:0:0:
64,192,17376,1,0,0:0:0:0:
192,192,17376,1,0,0:0:0:0:
448,192,17510,128,0,17778:0:0:0:0:
64,192,17510,1,0,0:0:0:0:
192,192,17510,1,0,0:0:0:0:
64,192,17778,128,0,18046:0:0:0:0:
192,192,17912,1,0,0:0:0:0:
448,192,17912,1,0,0:0:0:0:
320,192,18046,128,0,18314:0:0:0:0:
448,192,18180,1,0,0:0:0:0:
64,192,18180,1,0,0:0:0:0:
192,192,18314,1,0,0:0:0:0:
448,192,18314,1,0,0:0:0:0:
64,192,18314,1,0,0:0:0:0:
64,192,18448,1,0,0:0:0:0:
320,192,18448,1,0,0:0:0:0:
192,192,18581,1,0,0:0:0:0:
448,192,18581,1,0,0:0:0:0:
64,192,18715,1,0,0:0:0:0:
320,192,18715,1,0,0:0:0:0:
448,192,18715,1,0,0:0:0:0:
64,192,18849,1,0,0:0:0:0:
192,192,18849,1,0,0:0:0:0:
192,192,18983,1,0,0:0:0:0:
320,192,18983,1,0,0:0:0:0:
448,192,18983,1,0,0:0:0:0:
64,192,19117,1,0,0:0:0:0:
192,192,19117,1,0,0:0:0:0:
448,192,19117,1,0,0:0:0:0:
320,192,19184,1,0,0:0:0:0:
192,192,19251,1,0,0:0:0:0:
64,192,19318,1,0,0:0:0:0:
448,192,19385,1,0,0:0:0:0:
320,192,19452,1,0,0:0:0:0:
192,192,19519,1,0,0:0:0:0:
64,192,19519,1,0,0:0:0:0:
448,192,19586,1,0,0:0:0:0:
192,192,19653,128,0,19787:0:0:0:0:
320,192,19787,128,0,19921:0:0:0:0:
64,192,19787,1,0,0:0:0:0:
448,192,19787,1,0,0:0:0:0:
448,192,19921,128,0,20189:0:0:0:0:
192,192,19921,1,0,0:0:0:0:
64,192,19921,128,0,20189:0:0:0:0:
192,192,20189,128,0,20456:0:0:0:0:
320,192,20456,128,0,20724:0:0:0:0:
448,192,20724,128,0,20992:0:0:0:0:
64,192,20724,1,0,0:0:0:0:
192,192,20724,128,0,20992:0:0:0:0:
64,192,20992,128,0,21260:0:0:0:0:
192,192,21260,128,0,21528:0:0:0:0:
448,192,21528,128,0,21796:0:0:0:0:
64,192,21528,1,0,0:0:0:0:
320,192,21528,128,0,21796:0:0:0:0:
64,192,21930,128,0,22331:0:0:0:0:
192,192,21930,1,0,0:0:0:0:
448,192,21930,1,0,0:0:0:0:
192,192,22331,128,0,22421:0:0:0:0:
448,192,22331,1,0,0:0:0:0:
320,192,22421,128,0,22510:0:0:0:0:
448,192,22510,128,0,22599:0:0:0:0:
64,192,22599,128,0,22689:0:0:0:0:
192,192,22689,128,0,22778:0:0:0:0:
320,192,22778,128,0,22867:0:0:0:0:
192,192,22867,128,0,23001:0:0:0:0:
64,192,22867,1,0,0:0:0:0:
320,192,23001,128,0,23135:0:0:0:0:
64,192,23135,1,0,0:0:0:0:
448,192,23135,128,0,23269:0:0:0:0:
192,192,23135,1,0,0:0:0:0:
448,192,23537,128,0,23671:0:0:0:0:
192,192,23537,1,0,0:0:0:0:
320,192,23537,1,0,0:0:0:0:
320,192,23805,128,0,23939:0:0:0:0:
64,192,23805,1,0,0:0:0:0:
448,192,23805,1,0,0:0:0:0:
448,192,23939,1,0,0:0:0:0:
192,192,23939,1,0,0:0:0:0:
192,192,24073,1,0,0:0:0:0:
448,192,24073,1,0,0:0:0:0:
192,192,24206,1,0,0:0:0:0:
320,192,24206,1,0,0:0:0:0:
192,192,24340,1,0,0:0:0:0:
320,192,24340,1,0,0:0:0:0:
448,192,24340,1,0,0:0:0:0:
64,192,24474,1,0,0:0:0:0:
192,192,24474,1,0,0:0:0:0:
64,192,24608,1,0,0:0:0:0:
192,192,24608,1,0,0:0:0:0:
448,192,24608,1,0,0:0:0:0:
448,192,24742,128,0,25278:0:0:0:0:
64,192,24742,1,0,0:0:0:0:
192,192,24742,1,0,0:0:0:0:
320,192,24876,1,0,0:0:0:0:
64,192,25010,1,0,0:0:0:0:
192,192,25010,1,0,0:0:0:0:
320,192,25144,1,0,0:0:0:0:
320,192,25278,128,0,25479:0:0:0:0:
64,192,25278,1,0,0:0:0:0:
192,192,25278,1,0,0:0:0:0:
64,192,25412,1,0,0:0:0:0:
192,192,25479,128,0,25546:0:0:0:0:
448,192,25479,1,0,0:0:0:0:
64,192,25546,128,0,25680:0:0:0:0:
448,192,25680,128,0,25814:0:0:0:0:
192,192,25680,128,0,25814:0:0:0:0:
320,192,25814,128,0,25948:0:0:0:0:
448,192,25948,128,0,26081:0:0:0:0:
64,192,25948,128,0,26081:0:0:0:0:
192,192,26081,128,0,26349:0:0:0:0:
64,192,26349,128,0,26617:0:0:0:0:
320,192,26349,1,0,0:0:0:0:
448,192,26349,1,0,0:0:0:0:
192,192,26617,128,0,26684:0:0:0:0:
448,192,26617,1,0,0:0:0:0:
320,192,26684,128,0,26751:0:0:0:0:
192,192,26751,128,0,26818:0:0:0:0:
320,192,26818,128,0,26885:0:0:0:0:
64,192,26885,128,0,26952:0:0:0:0:
448,192,26885,1,0,0:0:0:0:
192,192,26952,128,0,27019:0:0:0:0:
320,192,27019,128,0,27086:0:0:0:0:
448,192,27086,128,0,27153:0:0:0:0:
192,192,27153,128,0,27421:0:0:0:0:
64,192,27153,1,0,0:0:0:0:
320,192,27287,1,0,0:0:0:0:
320,192,27421,128,0,27689:0:0:0:0:
448,192,27421,1,0,0:0:0:0:
64,192,27421,1,0,0:0:0:0:
192,192,27555,1,0,0:0:0:0:
192,192,27689,128,0,27956:0:0:0:0:
64,192,27689,1,0,0:0:0:0:
448,192,27689,1,0,0:0:0:0:
320,192,27823,1,0,0:0:0:0:
448,192,27956,1,0,0:0:0:0:
320,192,28023,1,0,0:0:0:0:
448,192,28090,1,0,0:0:0:0:
320,192,28157,1,0,0:0:0:0:
448,192,28224,1,0,0:0:0:0:
192,192,28224,128,0,28492:0:0:0:0:
64,192,28224,1,0,0:0:0:0:
320,192,28358,1,0,0:0:0:0:
64,192,28492,128,0,28760:0:0:0:0:
448,192,28492,1,0,0:0:0:0:
320,192,28492,1,0,0:0:0:0:
448,192,28626,1,0,0:0:0:0:
320,192,28760,1,0,0:0:0:0:
192,192,28827,1,0,0:0:0:0:
320,192,28894,1,0,0:0:0:0:
192,192,28961,1,0,0:0:0:0:
64,192,29028,128,0,29296:0:0:0:0:
320,192,29028,1,0,0:0:0:0:
448,192,29028,1,0,0:0:0:0:
192,192,29162,1,0,0:0:0:0:
192,192,29296,128,0,29564:0:0:0:0:
320,192,29296,1,0,0:0:0:0:
448,192,29296,1,0,0:0:0:0:
64,192,29430,1,0,0:0:0:0:
320,192,29564,128,0,29831:0:0:0:0:
448,192,29564,1,0,0:0:0:0:
64,192,29564,1,0,0:0:0:0:
192,192,29698,1,0,0:0:0:0:
448,192,29831,128,0,30099:0:0:0:0:
64,192,29831,1,0,0:0:0:0:
192,192,29831,1,0,0:0:0:0:
320,192,29965,1,0,0:0:0:0:
64,192,30099,128,0,30367:0:0:0:0:
192,192,30099,1,0,0:0:0:0:
320,192,30099,1,0,0:0:0:0:
192,192,30233,1,0,0:0:0:0:
320,192,30367,128,0,30635:0:0:0:0:
448,192,30367,1,0,0:0:0:0:
192,192,30367,1,0,0:0:0:0:
64,192,30501,1,0,0:0:0:0:
448,192,30635,128,0,30903:0:0:0:0:
64,192,30635,1,0,0:0:0:0:
192,192,30635,1,0,0:0:0:0:
320,192,30769,1,0,0:0:0:0:
320,192,30903,128,0,31171:0:0:0:0:
64,192,30903,1,0,0:0:0:0:
192,192,30903,1,0,0:0:0:0:
192,192,31037,1,0,0:0:0:0:
64,192,31171,1,0,0:0:0:0:
192,192,31171,1,0,0:0:0:0:
448,192,31171,1,0,0:0:0:0:
64,192,31305,1,0,0:0:0:0:
320,192,31305,1,0,0:0:0:0:
192,192,31439,1,0,0:0:0:0:
64,192,31439,1,0,0:0:0:0:
448,192,31439,1,0,0:0:0:0:
448,192,31573,1,0,0:0:0:0:
192,192,31573,1,0,0:0:0:0:
64,192,31706,1,0,0:0:0:0:
320,192,31706,1,0,0:0:0:0:
448,192,31706,1,0,0:0:0:0:
192,192,31840,1,0,0:0:0:0:
320,192,31840,1,0,0:0:0:0:
64,192,31974,1,0,0:0:0:0:
192,192,31974,1,0,0:0:0:0:
448,192,31974,1,0,0:0:0:0:
320,192,32041,1,0,0:0:0:0:
192,192,32108,1,0,0:0:0:0:
320,192,32175,1,0,0:0:0:0:
192,192,32242,1,0,0:0:0:0:
448,192,32242,1,0,0:0:0:0:
64,192,32242,1,0,0:0:0:0:
320,192,32309,1,0,0:0:0:0:
192,192,32376,1,0,0:0:0:0:
64,192,32443,1,0,0:0:0:0:
192,192,32510,128,0,32644:0:0:0:0:
448,192,32510,1,0,0:0:0:0:
320,192,32644,128,0,32778:0:0:0:0:
64,192,32778,1,0,0:0:0:0:
448,192,32778,128,0,33046:0:0:0:0:
192,192,32778,128,0,33046:0:0:0:0:
64,192,33046,128,0,33314:0:0:0:0:
192,192,33314,128,0,33581:0:0:0:0:
320,192,33581,128,0,33849:0:0:0:0:
448,192,33581,1,0,0:0:0:0:
64,192,33581,128,0,33849:0:0:0:0:
192,192,33849,128,0,34117:0:0:0:0:
320,192,34117,128,0,34385:0:0:0:0:
64,192,34385,1,0,0:0:0:0:
448,192,34385,128,0,34653:0:0:0:0:
192,192,34385,128,0,34653:0:0:0:0:
192,192,34787,1,0,0:0:0:0:
320,192,34787,128,0,35189:0:0:0:0:
64,192,34787,1,0,0:0:0:0:
192,192,35189,128,0,35278:0:0:0:0:
64,192,35189,1,0,0:0:0:0:
320,192,35278,128,0,35367:0:0:0:0:
448,192,35367,128,0,35456:0:0:0:0:
64,192,35456,128,0,35546:0:0:0:0:
192,192,35546,128,0,35635:0:0:0:0:
320,192,35635,128,0,35724:0:0:0:0:
192,192,35724,128,0,35858:0:0:0:0:
64,192,35724,1,0,0:0:0:0:
320,192,35858,128,0,35992:0:0:0:0:
64,192,35992,1,0,0:0:0:0:
448,192,35992,128,0,36260:0:0:0:0:
192,192,35992,1,0,0:0:0:0:
192,192,36126,1,0,0:0:0:0:
64,192,36260,1,0,0:0:0:0:
320,192,36260,1,0,0:0:0:0:
64,192,36394,128,0,36662:0:0:0:0:
448,192,36394,1,0,0:0:0:0:
192,192,36528,1,0,0:0:0:0:
320,192,36528,1,0,0:0:0:0:
320,192,36662,128,0,36796:0:0:0:0:
448,192,36662,1,0,0:0:0:0:
192,192,36729,1,0,0:0:0:0:
448,192,36796,128,0,37064:0:0:0:0:
64,192,36796,1,0,0:0:0:0:
192,192,36930,1,0,0:0:0:0:
320,192,37064,128,0,37331:0:0:0:0:
192,192,37064,1,0,0:0:0:0:
64,192,37064,1,0,0:0:0:0:
192,192,37198,1,0,0:0:0:0:
64,192,37198,1,0,0:0:0:0:
64,192,37331,128,0,37465:0:0:0:0:
192,192,37331,1,0,0:0:0:0:
448,192,37331,1,0,0:0:0:0:
320,192,37465,1,0,0:0:0:0:
448,192,37465,1,0,0:0:0:0:
192,192,37532,1,0,0:0:0:0:
64,192,37599,128,0,38135:0:0:0:0:
448,192,37599,1,0,0:0:0:0:
320,192,37599,1,0,0:0:0:0:
320,192,37733,1,0,0:0:0:0:
448,192,37733,1,0,0:0:0:0:
448,192,37867,1,0,0:0:0:0:
320,192,37867,1,0,0:0:0:0:
320,192,38001,1,0,0:0:0:0:
448,192,38001,1,0,0:0:0:0:
448,192,38135,128,0,38269:0:0:0:0:
192,192,38135,1,0,0:0:0:0:
320,192,38135,1,0,0:0:0:0:
192,192,38269,128,0,38403:0:0:0:0:
64,192,38269,1,0,0:0:0:0:
320,192,38269,1,0,0:0:0:0:
64,192,38403,128,0,38671:0:0:0:0:
448,192,38403,128,0,38671:0:0:0:0:
192,192,38671,128,0,38805:0:0:0:0:
320,192,38805,128,0,38939:0:0:0:0:
448,192,38805,128,0,38939:0:0:0:0:
64,192,38939,128,0,39206:0:0:0:0:
320,192,39206,128,0,39474:0:0:0:0:
192,192,39206,1,0,0:0:0:0:
448,192,39206,1,0,0:0:0:0:
448,192,39474,128,0,39742:0:0:0:0:
64,192,39474,1,0,0:0:0:0:
192,192,39742,128,0,40010:0:0:0:0:
64,192,39742,1,0,0:0:0:0:
320,192,40010,128,0,40278:0:0:0:0:
64,192,40010,1,0,0:0:0:0:
448,192,40010,1,0,0:0:0:0:
448,192,40278,128,0,40546:0:0:0:0:
192,192,40278,1,0,0:0:0:0:
64,192,40546,128,0,40814:0:0:0:0:
192,192,40546,1,0,0:0:0:0:
448,192,40814,128,0,41081:0:0:0:0:
192,192,40814,1,0,0:0:0:0:
320,192,40814,1,0,0:0:0:0:
320,192,41081,128,0,41349:0:0:0:0:
64,192,41081,1,0,0:0:0:0:
64,192,41349,128,0,41617:0:0:0:0:
192,192,41349,1,0,0:0:0:0:
320,192,41617,128,0,41684:0:0:0:0:
448,192,41617,128,0,41684:0:0:0:0:
192,192,41617,1,0,0:0:0:0:
448,192,41751,128,0,41818:0:0:0:0:
320,192,41751,128,0,41818:0:0:0:0:
320,192,41885,128,0,41952:0:0:0:0:
448,192,41885,128,0,41952:0:0:0:0:
320,192,42019,128,0,42086:0:0:0:0:
448,192,42019,128,0,42086:0:0:0:0:
64,192,42153,128,0,42421:0:0:0:0:
192,192,42421,128,0,42956:0:0:0:0:
320,192,42421,1,0,0:0:0:0:
448,192,42421,1,0,0:0:0:0:
64,192,42689,1,0,0:0:0:0:
320,192,42956,128,0,43224:0:0:0:0:
64,192,42956,1,0,0:0:0:0:
192,192,43224,128,0,43492:0:0:0:0:
448,192,43224,1,0,0:0:0:0:
64,192,43224,1,0,0:0:0:0:
448,192,43492,128,0,43760:0:0:0:0:
320,192,43492,1,0,0:0:0:0:
192,192,43760,128,0,44028:0:0:0:0:
320,192,43760,1,0,0:0:0:0:
320,192,44028,128,0,44831:0:0:0:0:
64,192,44028,1,0,0:0:0:0:
448,192,44028,1,0,0:0:0:0:
448,192,44296,1,0,0:0:0:0:
448,192,44564,1,0,0:0:0:0:
192,192,44831,1,0,0:0:0:0:
64,192,44831,1,0,0:0:0:0:
448,192,45099,1,0,0:0:0:0:
448,192,45367,1,0,0:0:0:0:
64,192,45367,128,0,45501:0:0:0:0:
192,192,45501,128,0,45635:0:0:0:0:
320,192,45635,128,0,45903:0:0:0:0:
448,192,45635,1,0,0:0:0:0:
64,192,45635,1,0,0:0:0:0:
448,192,45903,128,0,46171:0:0:0:0:
192,192,45903,1,0,0:0:0:0:
64,192,46171,128,0,46439:0:0:0:0:
192,192,46171,1,0,0:0:0:0:
192,192,46439,128,0,46706:0:0:0:0:
448,192,46439,1,0,0:0:0:0:
320,192,46439,1,0,0:0:0:0:
320,192,46706,128,0,46974:0:0:0:0:
64,192,46706,1,0,0:0:0:0:
64,192,46974,128,0,47242:0:0:0:0:
448,192,46974,1,0,0:0:0:0:
320,192,47242,128,0,47510:0:0:0:0:
448,192,47242,1,0,0:0:0:0:
192,192,47242,1,0,0:0:0:0:
64,192,47510,128,0,47778:0:0:0:0:
192,192,47510,1,0,0:0:0:0:
448,192,47778,128,0,48046:0:0:0:0:
192,192,47778,1,0,0:0:0:0:
320,192,48046,1,0,0:0:0:0:
64,192,48046,1,0,0:0:0:0:
192,192,48113,1,0,0:0:0:0:
320,192,48180,1,0,0:0:0:0:
192,192,48247,1,0,0:0:0:0:
448,192,48314,1,0,0:0:0:0:
64,192,48381,1,0,0:0:0:0:
448,192,48448,1,0,0:0:0:0:
64,192,48515,1,0,0:0:0:0:
192,192,48581,128,0,48715:0:0:0:0:
64,192,48849,128,0,48916:0:0:0:0:
448,192,48849,128,0,48916:0:0:0:0:
448,192,48983,128,0,49050:0:0:0:0:
64,192,48983,128,0,49050:0:0:0:0:
64,192,49117,128,0,49184:0:0:0:0:
448,192,49117,128,0,49184:0:0:0:0:
448,192,49251,128,0,49318:0:0:0:0:
64,192,49251,128,0,49318:0:0:0:0:
192,192,49385,128,0,49519:0:0:0:0:
448,192,49653,1,0,0:0:0:0:
64,192,49653,1,0,0:0:0:0:
320,192,49720,1,0,0:0:0:0:
192,192,49787,1,0,0:0:0:0:
64,192,49854,1,0,0:0:0:0:
448,192,49921,1,0,0:0:0:0:
320,192,49988,1,0,0:0:0:0:
192,192,50055,1,0,0:0:0:0:
64,192,50122,1,0,0:0:0:0:
192,192,50189,128,0,50323:0:0:0:0:
64,192,50456,1,0,0:0:0:0:
448,192,50456,1,0,0:0:0:0:
320,192,50456,128,0,50724:0:0:0:0:
448,192,50992,128,0,51126:0:0:0:0:
192,192,50992,1,0,0:0:0:0:
320,192,50992,1,0,0:0:0:0:
192,192,51260,1,0,0:0:0:0:
320,192,51327,1,0,0:0:0:0:
192,192,51394,1,0,0:0:0:0:
320,192,51461,1,0,0:0:0:0:
192,192,51528,1,0,0:0:0:0:
320,192,51595,1,0,0:0:0:0:
192,192,51662,1,0,0:0:0:0:
320,192,51729,1,0,0:0:0:0:
192,192,51796,1,0,0:0:0:0:
320,192,51863,1,0,0:0:0:0:
192,192,51930,1,0,0:0:0:0:
320,192,51997,1,0,0:0:0:0:
192,192,52064,1,0,0:0:0:0:
64,192,52064,128,0,52331:0:0:0:0:
448,192,52064,128,0,52599:0:0:0:0:
320,192,52331,128,0,52599:0:0:0:0:
64,192,52599,1,0,0:0:0:0:
192,192,52666,1,0,0:0:0:0:
320,192,52733,1,0,0:0:0:0:
192,192,52800,1,0,0:0:0:0:
64,192,52867,128,0,53403:0:0:0:0:
320,192,52867,128,0,53135:0:0:0:0:
448,192,52867,1,0,0:0:0:0:
448,192,53135,128,0,53403:0:0:0:0:
320,192,53403,1,0,0:0:0:0:
192,192,53470,1,0,0:0:0:0:
64,192,53537,1,0,0:0:0:0:
320,192,53604,1,0,0:0:0:0:
448,192,53671,128,0,53939:0:0:0:0:
192,192,53671,128,0,54206:0:0:0:0:
64,192,53671,1,0,0:0:0:0:
320,192,53939,128,0,54206:0:0:0:0:
448,192,54206,1,0,0:0:0:0:
64,192,54273,1,0,0:0:0:0:
192,192,54340,1,0,0:0:0:0:
320,192,54407,1,0,0:0:0:0:
448,192,54474,1,0,0:0:0:0:
64,192,54474,128,0,54541:0:0:0:0:
192,192,54608,128,0,54675:0:0:0:0:
320,192,54742,128,0,54809:0:0:0:0:
448,192,54876,128,0,54943:0:0:0:0:
64,192,55010,128,0,55278:0:0:0:0:
192,192,55010,1,0,0:0:0:0:
320,192,55077,1,0,0:0:0:0:
448,192,55144,1,0,0:0:0:0:
320,192,55211,1,0,0:0:0:0:
192,192,55278,128,0,55814:0:0:0:0:
448,192,55278,1,0,0:0:0:0:
320,192,55814,128,0,56081:0:0:0:0:
448,192,55814,1,0,0:0:0:0:
64,192,55881,1,0,0:0:0:0:
192,192,55948,1,0,0:0:0:0:
64,192,56015,1,0,0:0:0:0:
192,192,56081,128,0,56349:0:0:0:0:
448,192,56081,1,0,0:0:0:0:
448,192,56349,128,0,56617:0:0:0:0:
64,192,56617,128,0,56885:0:0:0:0:
192,192,56617,1,0,0:0:0:0:
320,192,56684,1,0,0:0:0:0:
192,192,56751,1,0,0:0:0:0:
320,192,56818,1,0,0:0:0:0:
320,192,56885,128,0,57421:0:0:0:0:
448,192,56885,128,0,58224:0:0:0:0:
192,192,56885,1,0,0:0:0:0:
64,192,57421,1,0,0:0:0:0:
192,192,57421,1,0,0:0:0:0:
64,192,57689,1,0,0:0:0:0:
320,192,57689,1,0,0:0:0:0:
192,192,57756,1,0,0:0:0:0:
320,192,57823,1,0,0:0:0:0:
64,192,57890,1,0,0:0:0:0:
192,192,57956,1,0,0:0:0:0:
320,192,57956,1,0,0:0:0:0:
64,192,58023,1,0,0:0:0:0:
192,192,58090,1,0,0:0:0:0:
320,192,58157,1,0,0:0:0:0:
192,192,58224,1,0,0:0:0:0:
64,192,58224,128,0,58358:0:0:0:0:
192,192,58358,128,0,58492:0:0:0:0:
320,192,58358,1,0,0:0:0:0:
320,192,58492,128,0,58760:0:0:0:0:
448,192,58492,1,0,0:0:0:0:
64,192,58492,1,0,0:0:0:0:
192,192,58559,1,0,0:0:0:0:
448,192,58760,128,0,59028:0:0:0:0:
64,192,58760,128,0,59028:0:0:0:0:
192,192,58760,1,0,0:0:0:0:
192,192,59028,128,0,59296:0:0:0:0:
320,192,59028,1,0,0:0:0:0:
448,192,59296,1,0,0:0:0:0:
320,192,59363,1,0,0:0:0:0:
192,192,59430,1,0,0:0:0:0:
320,192,59497,1,0,0:0:0:0:
448,192,59564,128,0,59831:0:0:0:0:
64,192,59564,128,0,59831:0:0:0:0:
192,192,59564,1,0,0:0:0:0:
192,192,59831,128,0,60099:0:0:0:0:
320,192,59831,128,0,59965:0:0:0:0:
64,192,60099,1,0,0:0:0:0:
320,192,60166,1,0,0:0:0:0:
448,192,60233,1,0,0:0:0:0:
64,192,60300,1,0,0:0:0:0:
448,192,60367,1,0,0:0:0:0:
320,192,60367,128,0,60635:0:0:0:0:
192,192,60367,128,0,60456:0:0:0:0:
64,192,60456,128,0,60546:0:0:0:0:
192,192,60546,128,0,60635:0:0:0:0:
448,192,60635,128,0,60903:0:0:0:0:
192,192,60903,128,0,61037:0:0:0:0:
320,192,60903,128,0,61171:0:0:0:0:
64,192,61171,128,0,61260:0:0:0:0:
192,192,61260,128,0,61349:0:0:0:0:
320,192,61349,128,0,61439:0:0:0:0:
64,192,61439,128,0,61706:0:0:0:0:
448,192,61439,128,0,61706:0:0:0:0:
192,192,61706,128,0,61974:0:0:0:0:
320,192,61974,128,0,62242:0:0:0:0:
448,192,61974,128,0,62242:0:0:0:0:
64,192,62242,128,0,62510:0:0:0:0:
192,192,62242,1,0,0:0:0:0:
320,192,62376,1,0,0:0:0:0:
192,192,62443,1,0,0:0:0:0:
448,192,62510,128,0,62778:0:0:0:0:
320,192,62510,1,0,0:0:0:0:
64,192,62778,128,0,63046:0:0:0:0:
320,192,62778,128,0,63046:0:0:0:0:
192,192,63046,128,0,63314:0:0:0:0:
448,192,63046,1,0,0:0:0:0:
64,192,63180,1,0,0:0:0:0:
448,192,63247,1,0,0:0:0:0:
320,192,63314,128,0,63581:0:0:0:0:
64,192,63314,1,0,0:0:0:0:
448,192,63849,128,0,64117:0:0:0:0:
64,192,64117,128,0,64653:0:0:0:0:
192,192,64117,1,0,0:0:0:0:
320,192,64184,1,0,0:0:0:0:
192,192,64251,1,0,0:0:0:0:
320,192,64318,1,0,0:0:0:0:
192,192,64385,1,0,0:0:0:0:
320,192,64452,1,0,0:0:0:0:
192,192,64519,1,0,0:0:0:0:
320,192,64586,1,0,0:0:0:0:
192,192,64653,128,0,64787:0:0:0:0:
320,192,64787,128,0,64921:0:0:0:0:
448,192,64921,128,0,65189:0:0:0:0:
64,192,64921,1,0,0:0:0:0:
192,192,64921,1,0,0:0:0:0:
192,192,65189,128,0,65456:0:0:0:0:
320,192,65456,128,0,65657:0:0:0:0:
64,192,65456,1,0,0:0:0:0:
192,192,65657,128,0,65724:0:0:0:0:
448,192,65657,1,0,0:0:0:0:
64,192,65724,128,0,65992:0:0:0:0:
320,192,65724,1,0,0:0:0:0:
192,192,65992,128,0,66260:0:0:0:0:
320,192,65992,1,0,0:0:0:0:
448,192,65992,1,0,0:0:0:0:
320,192,66260,128,0,66528:0:0:0:0:
448,192,66260,1,0,0:0:0:0:
64,192,66260,1,0,0:0:0:0:
192,192,66528,128,0,68135:0:0:0:0:
64,192,66528,1,0,0:0:0:0:
448,192,66528,1,0,0:0:0:0:
64,192,67064,1,0,0:0:0:0:
320,192,67064,1,0,0:0:0:0:
320,192,67331,1,0,0:0:0:0:
448,192,67331,1,0,0:0:0:0:
320,192,67465,1,0,0:0:0:0:
448,192,67465,1,0,0:0:0:0:
320,192,67599,1,0,0:0:0:0:
64,192,67599,1,0,0:0:0:0:
64,192,67733,1,0,0:0:0:0:
320,192,67733,1,0,0:0:0:0:
448,192,67867,1,0,0:0:0:0:
64,192,67867,1,0,0:0:0:0:
448,192,68001,1,0,0:0:0:0:
64,192,68001,1,0,0:0:0:0:
64,192,68135,128,0,68403:0:0:0:0:
320,192,68135,1,0,0:0:0:0:
448,192,68135,1,0,0:0:0:0:
192,192,68269,1,0,0:0:0:0:
448,192,68403,1,0,0:0:0:0:
320,192,68403,1,0,0:0:0:0:
192,192,68537,1,0,0:0:0:0:
64,192,68671,1,0,0:0:0:0:
448,192,68671,1,0,0:0:0:0:
192,192,68738,1,0,0:0:0:0:
320,192,68805,1,0,0:0:0:0:
192,192,68872,1,0,0:0:0:0:
448,192,68939,1,0,0:0:0:0:
64,192,68939,1,0,0:0:0:0:
320,192,68939,128,0,69206:0:0:0:0:
64,192,69140,1,0,0:0:0:0:
192,192,69206,128,0,69474:0:0:0:0:
448,192,69206,1,0,0:0:0:0:
320,192,69340,1,0,0:0:0:0:
448,192,69474,1,0,0:0:0:0:
64,192,69474,1,0,0:0:0:0:
320,192,69541,1,0,0:0:0:0:
192,192,69608,1,0,0:0:0:0:
64,192,69675,1,0,0:0:0:0:
192,192,69742,128,0,70278:0:0:0:0:
320,192,69742,1,0,0:0:0:0:
448,192,69742,1,0,0:0:0:0:
320,192,69943,1,0,0:0:0:0:
448,192,70010,1,0,0:0:0:0:
64,192,70010,1,0,0:0:0:0:
448,192,70278,1,0,0:0:0:0:
64,192,70278,1,0,0:0:0:0:
320,192,70345,1,0,0:0:0:0:
192,192,70412,1,0,0:0:0:0:
320,192,70479,1,0,0:0:0:0:
64,192,70546,128,0,71349:0:0:0:0:
448,192,70546,1,0,0:0:0:0:
192,192,70546,1,0,0:0:0:0:
448,192,70747,1,0,0:0:0:0:
192,192,70814,1,0,0:0:0:0:
320,192,70814,1,0,0:0:0:0:
448,192,71081,128,0,71349:0:0:0:0:
320,192,71081,1,0,0:0:0:0:
192,192,71081,1,0,0:0:0:0:
192,192,71349,1,0,0:0:0:0:
320,192,71349,128,0,71617:0:0:0:0:
64,192,71617,128,0,71885:0:0:0:0:
448,192,71885,128,0,72086:0:0:0:0:
320,192,72086,128,0,72153:0:0:0:0:
64,192,72153,128,0,72421:0:0:0:0:
192,192,72153,1,0,0:0:0:0:
192,192,72421,128,0,72689:0:0:0:0:
320,192,72421,1,0,0:0:0:0:
448,192,72421,1,0,0:0:0:0:
320,192,72689,128,0,72956:0:0:0:0:
64,192,72689,1,0,0:0:0:0:
448,192,72689,1,0,0:0:0:0:
448,192,72956,128,0,73760:0:0:0:0:
64,192,72956,1,0,0:0:0:0:
192,192,72956,1,0,0:0:0:0:
64,192,73492,128,0,73760:0:0:0:0:
192,192,73760,128,0,74028:0:0:0:0:
320,192,73760,1,0,0:0:0:0:
320,192,74028,128,0,74296:0:0:0:0:
448,192,74028,1,0,0:0:0:0:
64,192,74028,1,0,0:0:0:0:
192,192,74296,128,0,74564:0:0:0:0:
64,192,74296,1,0,0:0:0:0:
448,192,74296,1,0,0:0:0:0:
64,192,74564,128,0,74631:0:0:0:0:
448,192,74564,1,0,0:0:0:0:
192,192,74698,128,0,74765:0:0:0:0:
320,192,74831,128,0,74898:0:0:0:0:
64,192,74831,1,0,0:0:0:0:
448,192,74965,128,0,75032:0:0:0:0:
64,192,75099,128,0,75367:0:0:0:0:
320,192,75099,1,0,0:0:0:0:
192,192,75099,1,0,0:0:0:0:
448,192,75367,128,0,75434:0:0:0:0:
192,192,75367,1,0,0:0:0:0:
320,192,75501,128,0,75568:0:0:0:0:
192,192,75635,128,0,75702:0:0:0:0:
448,192,75635,1,0,0:0:0:0:
64,192,75769,128,0,75836:0:0:0:0:
448,192,75903,128,0,76171:0:0:0:0:
192,192,75903,1,0,0:0:0:0:
320,192,75903,1,0,0:0:0:0:
192,192,76171,128,0,76907:0:0:0:0:
64,192,76171,1,0,0:0:0:0:
320,192,76171,1,0,0:0:0:0:
320,192,76305,1,0,0:0:0:0:
448,192,76305,1,0,0:0:0:0:
64,192,76439,1,0,0:0:0:0:
320,192,76439,1,0,0:0:0:0:
320,192,76573,1,0,0:0:0:0:
448,192,76573,1,0,0:0:0:0:
64,192,76706,1,0,0:0:0:0:
320,192,76706,1,0,0:0:0:0:
448,192,76840,1,0,0:0:0:0:
64,192,76840,1,0,0:0:0:0:
320,192,76907,128,0,76974:0:0:0:0:
448,192,76974,128,0,77510:0:0:0:0:
64,192,76974,128,0,77242:0:0:0:0:
320,192,77242,128,0,77510:0:0:0:0:
64,192,77510,1,0,0:0:0:0:
192,192,77544,1,0,0:0:0:0:
320,192,77577,1,0,0:0:0:0:
448,192,77610,1,0,0:0:0:0:
64,192,77644,1,0,0:0:0:0:
192,192,77677,1,0,0:0:0:0:
320,192,77711,1,0,0:0:0:0:
448,192,77744,1,0,0:0:0:0:
192,192,77778,128,0,78046:0:0:0:0:
64,192,77778,1,0,0:0:0:0:
320,192,77912,1,0,0:0:0:0:
64,192,78046,128,0,78314:0:0:0:0:
448,192,78046,1,0,0:0:0:0:
320,192,78046,1,0,0:0:0:0:
192,192,78180,1,0,0:0:0:0:
448,192,78314,128,0,78515:0:0:0:0:
320,192,78314,1,0,0:0:0:0:
192,192,78314,1,0,0:0:0:0:
64,192,78448,1,0,0:0:0:0:
320,192,78515,128,0,78581:0:0:0:0:
64,192,78581,128,0,78849:0:0:0:0:
192,192,78581,1,0,0:0:0:0:
448,192,78581,128,0,78849:0:0:0:0:
192,192,78849,128,0,79117:0:0:0:0:
320,192,78849,128,0,78939:0:0:0:0:
448,192,78939,128,0,79028:0:0:0:0:
64,192,79028,128,0,79117:0:0:0:0:
320,192,79117,1,0,0:0:0:0:
448,192,79251,1,0,0:0:0:0:
320,192,79385,128,0,80189:0:0:0:0:
64,192,79385,1,0,0:0:0:0:
192,192,79385,1,0,0:0:0:0:
448,192,79519,1,0,0:0:0:0:
64,192,79653,1,0,0:0:0:0:
192,192,79653,1,0,0:0:0:0:
448,192,79787,1,0,0:0:0:0:
64,192,79921,1,0,0:0:0:0:
192,192,79921,1,0,0:0:0:0:
448,192,80055,1,0,0:0:0:0:
448,192,80189,1,0,0:0:0:0:
64,192,80189,128,0,80256:0:0:0:0:
192,192,80189,1,0,0:0:0:0:
448,192,80323,128,0,80390:0:0:0:0:
320,192,80323,1,0,0:0:0:0:
64,192,80323,1,0,0:0:0:0:
192,192,80456,1,0,0:0:0:0:
320,192,80456,1,0,0:0:0:0:
64,192,80523,1,0,0:0:0:0:
448,192,80523,1,0,0:0:0:0:
192,192,80590,1,0,0:0:0:0:
320,192,80590,1,0,0:0:0:0:
448,192,80657,1,0,0:0:0:0:
64,192,80657,1,0,0:0:0:0:
192,192,80724,128,0,80992:0:0:0:0:
320,192,80724,128,0,80992:0:0:0:0:
64,192,80992,128,0,81394:0:0:0:0:
448,192,80992,1,0,0:0:0:0:
320,192,81126,1,0,0:0:0:0:
192,192,81260,1,0,0:0:0:0:
448,192,81260,1,0,0:0:0:0:
320,192,81394,1,0,0:0:0:0:
64,192,81528,128,0,81729:0:0:0:0:
192,192,81528,1,0,0:0:0:0:
448,192,81528,1,0,0:0:0:0:
320,192,81662,1,0,0:0:0:0:
192,192,81729,128,0,81796:0:0:0:0:
448,192,81796,128,0,82064:0:0:0:0:
320,192,81796,1,0,0:0:0:0:
64,192,81930,1,0,0:0:0:0:
320,192,82064,128,0,82331:0:0:0:0:
192,192,82064,1,0,0:0:0:0:
64,192,82064,1,0,0:0:0:0:
192,192,82198,1,0,0:0:0:0:
192,192,82331,128,0,82465:0:0:0:0:
448,192,82331,1,0,0:0:0:0:
64,192,82331,1,0,0:0:0:0:
320,192,82465,1,0,0:0:0:0:
192,192,82599,128,0,83135:0:0:0:0:
64,192,82599,1,0,0:0:0:0:
448,192,82599,1,0,0:0:0:0:
320,192,82733,1,0,0:0:0:0:
64,192,82867,1,0,0:0:0:0:
448,192,82867,1,0,0:0:0:0:
320,192,83001,1,0,0:0:0:0:
320,192,83135,128,0,83336:0:0:0:0:
448,192,83135,1,0,0:0:0:0:
64,192,83135,1,0,0:0:0:0:
64,192,83269,1,0,0:0:0:0:
192,192,83336,128,0,83403:0:0:0:0:
64,192,83403,128,0,84206:0:0:0:0:
448,192,83403,1,0,0:0:0:0:
320,192,83470,1,0,0:0:0:0:
192,192,83537,1,0,0:0:0:0:
448,192,83604,1,0,0:0:0:0:
192,192,83671,1,0,0:0:0:0:
320,192,83671,1,0,0:0:0:0:
448,192,83738,1,0,0:0:0:0:
320,192,83805,1,0,0:0:0:0:
192,192,83872,1,0,0:0:0:0:
448,192,83939,1,0,0:0:0:0:
320,192,83939,1,0,0:0:0:0:
192,192,84006,1,0,0:0:0:0:
448,192,84073,1,0,0:0:0:0:
320,192,84140,1,0,0:0:0:0:
448,192,84206,128,0,84474:0:0:0:0:
192,192,84206,1,0,0:0:0:0:
320,192,84340,1,0,0:0:0:0:
192,192,84474,128,0,84608:0:0:0:0:
64,192,84474,1,0,0:0:0:0:
320,192,84474,1,0,0:0:0:0:
64,192,84608,1,0,0:0:0:0:
320,192,84742,128,0,84943:0:0:0:0:
448,192,84742,1,0,0:0:0:0:
192,192,84742,1,0,0:0:0:0:
64,192,84876,1,0,0:0:0:0:
192,192,84943,128,0,85010:0:0:0:0:
64,192,85010,128,0,85278:0:0:0:0:
448,192,85010,1,0,0:0:0:0:
320,192,85010,1,0,0:0:0:0:
320,192,85144,1,0,0:0:0:0:
192,192,85278,128,0,85546:0:0:0:0:
448,192,85278,1,0,0:0:0:0:
320,192,85278,1,0,0:0:0:0:
448,192,85412,1,0,0:0:0:0:
320,192,85546,128,0,85814:0:0:0:0:
448,192,85546,1,0,0:0:0:0:
64,192,85546,1,0,0:0:0:0:
192,192,85680,1,0,0:0:0:0:
64,192,85747,1,0,0:0:0:0:
192,192,85814,128,0,86349:0:0:0:0:
448,192,85814,128,0,86081:0:0:0:0:
320,192,86081,128,0,86349:0:0:0:0:
64,192,86081,1,0,0:0:0:0:
64,192,86349,128,0,86617:0:0:0:0:
448,192,86349,128,0,86885:0:0:0:0:
192,192,86617,128,0,86885:0:0:0:0:
320,192,86617,1,0,0:0:0:0:
64,192,86885,128,0,87153:0:0:0:0:
320,192,86885,128,0,87153:0:0:0:0:
448,192,87153,128,0,87421:0:0:0:0:
192,192,87153,1,0,0:0:0:0:
320,192,87287,1,0,0:0:0:0:
192,192,87354,1,0,0:0:0:0:
320,192,87421,1,0,0:0:0:0:
192,192,87421,1,0,0:0:0:0:
64,192,87421,1,0,0:0:0:0:
192,192,87555,1,0,0:0:0:0:
448,192,87555,1,0,0:0:0:0:
192,192,87689,1,0,0:0:0:0:
320,192,87689,1,0,0:0:0:0:
448,192,87689,1,0,0:0:0:0:
64,192,87823,1,0,0:0:0:0:
448,192,87823,1,0,0:0:0:0:
192,192,87956,128,0,88157:0:0:0:0:
320,192,88157,128,0,88224:0:0:0:0:
64,192,88224,1,0,0:0:0:0:
192,192,88224,1,0,0:0:0:0:
448,192,88224,1,0,0:0:0:0:
64,192,88358,1,0,0:0:0:0:
192,192,88358,1,0,0:0:0:0:
448,192,88492,1,0,0:0:0:0:
320,192,88492,1,0,0:0:0:0:
64,192,88492,1,0,0:0:0:0:
448,192,88626,1,0,0:0:0:0:
192,192,88626,1,0,0:0:0:0:
64,192,88760,1,0,0:0:0:0:
448,192,88760,1,0,0:0:0:0:
320,192,88760,128,0,89028:0:0:0:0:
192,192,88894,1,0,0:0:0:0:
64,192,89028,128,0,89765:0:0:0:0:
192,192,89028,1,0,0:0:0:0:
448,192,89028,1,0,0:0:0:0:
448,192,89162,1,0,0:0:0:0:
192,192,89162,1,0,0:0:0:0:
192,192,89296,1,0,0:0:0:0:
448,192,89296,1,0,0:0:0:0:
192,192,89430,1,0,0:0:0:0:
448,192,89430,1,0,0:0:0:0:
192,192,89564,1,0,0:0:0:0:
448,192,89564,1,0,0:0:0:0:
448,192,89698,1,0,0:0:0:0:
192,192,89698,1,0,0:0:0:0:
320,192,89765,128,0,89831:0:0:0:0:
448,192,89831,128,0,90635:0:0:0:0:
192,192,89831,1,0,0:0:0:0:
64,192,89898,1,0,0:0:0:0:
320,192,89965,1,0,0:0:0:0:
192,192,90032,1,0,0:0:0:0:
64,192,90099,128,0,90233:0:0:0:0:
320,192,90367,128,0,90635:0:0:0:0:
192,192,90367,128,0,90635:0:0:0:0:
64,192,90635,128,0,91171:0:0:0:0:
320,192,90903,128,0,91171:0:0:0:0:
192,192,91171,128,0,91439:0:0:0:0:
320,192,91439,128,0,91974:0:0:0:0:
64,192,91439,1,0,0:0:0:0:
448,192,91706,128,0,91974:0:0:0:0:
192,192,91974,128,0,92242:0:0:0:0:
448,192,92242,128,0,92778:0:0:0:0:
64,192,92242,1,0,0:0:0:0:
192,192,92510,128,0,92778:0:0:0:0:
64,192,92778,128,0,93046:0:0:0:0:
448,192,93046,128,0,93113:0:0:0:0:
192,192,93046,1,0,0:0:0:0:
320,192,93180,128,0,93247:0:0:0:0:
64,192,93180,1,0,0:0:0:0:
192,192,93314,128,0,93381:0:0:0:0:
448,192,93314,1,0,0:0:0:0:
64,192,93448,128,0,93515:0:0:0:0:
320,192,93448,1,0,0:0:0:0:
192,192,93581,128,0,93849:0:0:0:0:
448,192,93581,128,0,93849:0:0:0:0:
320,192,93849,128,0,94385:0:0:0:0:
64,192,93849,1,0,0:0:0:0:
448,192,94385,128,0,94653:0:0:0:0:
64,192,94653,128,0,94854:0:0:0:0:
192,192,94653,1,0,0:0:0:0:
192,192,94854,128,0,94921:0:0:0:0:
320,192,94921,128,0,95189:0:0:0:0:
64,192,95189,128,0,95456:0:0:0:0:
192,192,95456,128,0,95992:0:0:0:0:
448,192,95456,128,0,95992:0:0:0:0:
320,192,95992,128,0,96260:0:0:0:0:
64,192,96260,128,0,96327:0:0:0:0:
192,192,96260,128,0,96327:0:0:0:0:
448,192,96260,1,0,0:0:0:0:
64,192,96796,128,0,96930:0:0:0:0:
192,192,96930,128,0,97064:0:0:0:0:
320,192,97064,128,0,97331:0:0:0:0:
448,192,97064,1,0,0:0:0:0:
448,192,97331,128,0,97599:0:0:0:0:
192,192,97599,128,0,97867:0:0:0:0:
320,192,97867,128,0,98135:0:0:0:0:
64,192,97867,1,0,0:0:0:0:
448,192,98135,128,0,98403:0:0:0:0:
64,192,98403,128,0,98671:0:0:0:0:
448,192,98671,128,0,98939:0:0:0:0:
192,192,98671,1,0,0:0:0:0:
64,192,98939,128,0,99206:0:0:0:0:
192,192,99206,128,0,99474:0:0:0:0:
320,192,99474,128,0,99608:0:0:0:0:
448,192,99474,128,0,99608:0:0:0:0:
64,192,99474,1,0,0:0:0:0:
64,192,99742,128,0,99876:0:0:0:0:
192,192,99742,128,0,99876:0:0:0:0:
64,192,100010,128,0,100278:0:0:0:0:
448,192,100010,128,0,100278:0:0:0:0:
320,192,100278,1,0,0:0:0:0:
192,192,100345,1,0,0:0:0:0:
64,192,100412,1,0,0:0:0:0:
192,192,100479,1,0,0:0:0:0:
320,192,100546,1,0,0:0:0:0:
192,192,100613,1,0,0:0:0:0:
64,192,100680,1,0,0:0:0:0:
192,192,100747,1,0,0:0:0:0:
320,192,100814,128,0,101081:0:0:0:0:
64,192,100814,128,0,101081:0:0:0:0:
448,192,100814,128,0,101081:0:0:0:0:
192,192,101081,1,0,0:0:0:0:
320,192,101148,1,0,0:0:0:0:
448,192,101215,1,0,0:0:0:0:
320,192,101282,1,0,0:0:0:0:
192,192,101349,1,0,0:0:0:0:
320,192,101416,1,0,0:0:0:0:
448,192,101483,1,0,0:0:0:0:
320,192,101550,1,0,0:0:0:0:
64,192,101617,128,0,101885:0:0:0:0:
192,192,101617,128,0,101885:0:0:0:0:
448,192,101617,128,0,101885:0:0:0:0:
320,192,101885,128,0,102153:0:0:0:0:
192,192,102153,128,0,102421:0:0:0:0:
64,192,102421,128,0,102689:0:0:0:0:
448,192,102689,1,0,0:0:0:0:
320,192,102689,1,0,0:0:0:0:
192,192,102756,1,0,0:0:0:0:
64,192,102756,1,0,0:0:0:0:
448,192,102823,1,0,0:0:0:0:
320,192,102823,1,0,0:0:0:0:
192,192,102890,1,0,0:0:0:0:
64,192,102890,1,0,0:0:0:0:
448,192,102956,1,0,0:0:0:0:
320,192,102956,1,0,0:0:0:0:
192,192,103023,1,0,0:0:0:0:
64,192,103023,1,0,0:0:0:0:
320,192,103090,1,0,0:0:0:0:
448,192,103090,1,0,0:0:0:0:
192,192,103157,1,0,0:0:0:0:
64,192,103157,1,0,0:0:0:0:
448,192,103224,1,0,0:0:0:0:
320,192,103224,1,0,0:0:0:0:
64,192,103291,1,0,0:0:0:0:
192,192,103291,1,0,0:0:0:0:
448,192,103358,1,0,0:0:0:0:
320,192,103358,1,0,0:0:0:0:
64,192,103425,1,0,0:0:0:0:
192,192,103425,1,0,0:0:0:0:
448,192,103492,1,0,0:0:0:0:
320,192,103492,128,0,103581:0:0:0:0:
192,192,103581,128,0,103671:0:0:0:0:
64,192,103671,128,0,103760:0:0:0:0:
448,192,103760,128,0,103849:0:0:0:0:
320,192,103849,128,0,103939:0:0:0:0:
64,192,103939,128,0,104028:0:0:0:0:
448,192,104028,128,0,104117:0:0:0:0:
192,192,104117,128,0,104206:0:0:0:0:
64,192,104206,128,0,104296:0:0:0:0:
192,192,104296,128,0,104385:0:0:0:0:
448,192,104296,128,0,104385:0:0:0:0:
320,192,104385,128,0,104474:0:0:0:0:
64,192,104385,128,0,104474:0:0:0:0:
192,192,104474,128,0,104564:0:0:0:0:
448,192,104474,128,0,104564:0:0:0:0:
64,192,104564,128,0,104653:0:0:0:0:
320,192,104564,128,0,104653:0:0:0:0:
448,192,104653,128,0,104742:0:0:0:0:
192,192,104653,128,0,104742:0:0:0:0:
320,192,104742,128,0,104831:0:0:0:0:
64,192,104742,128,0,104831:0:0:0:0:
192,192,104831,128,0,104921:0:0:0:0:
448,192,104831,128,0,104921:0:0:0:0:
320,192,104921,128,0,105010:0:0:0:0:
64,192,104921,128,0,105010:0:0:0:0:
448,192,105010,128,0,105099:0:0:0:0:
192,192,105010,128,0,105099:0:0:0:0:
320,192,105099,128,0,105189:0:0:0:0:
192,192,105189,128,0,105278:0:0:0:0:
64,192,105278,128,0,105367:0:0:0:0:
448,192,105367,128,0,105456:0:0:0:0:
320,192,105456,128,0,105546:0:0:0:0:
192,192,105546,128,0,105635:0:0:0:0:
448,192,105635,128,0,105724:0:0:0:0:
320,192,105724,128,0,105814:0:0:0:0:
64,192,105814,128,0,105903:0:0:0:0:
448,192,105903,128,0,106706:0:0:0:0:
320,192,105903,128,0,105992:0:0:0:0:
192,192,105992,128,0,106081:0:0:0:0:
64,192,106081,128,0,106171:0:0:0:0:
320,192,106171,128,0,106260:0:0:0:0:
192,192,106260,128,0,106349:0:0:0:0:
64,192,106349,128,0,106439:0:0:0:0:
320,192,106439,128,0,106528:0:0:0:0:
192,192,106528,128,0,106617:0:0:0:0:
64,192,106617,128,0,106706:0:0:0:0:
192,192,106706,128,0,106974:0:0:0:0:
320,192,106706,128,0,106974:0:0:0:0:
64,192,106974,128,0,107108:0:0:0:0:
448,192,106974,128,0,107108:0:0:0:0:
320,192,107108,128,0,107242:0:0:0:0:
64,192,107242,128,0,107510:0:0:0:0:
448,192,107242,1,0,0:0:0:0:
320,192,107331,1,0,0:0:0:0:
192,192,107421,1,0,0:0:0:0:
320,192,107510,1,0,0:0:0:0:
448,192,107510,1,0,0:0:0:0:
448,192,107778,128,0,107912:0:0:0:0:
64,192,107778,128,0,107912:0:0:0:0:
320,192,107778,1,0,0:0:0:0:
192,192,107912,128,0,108046:0:0:0:0:
448,192,108046,128,0,108314:0:0:0:0:
64,192,108046,1,0,0:0:0:0:
192,192,108135,1,0,0:0:0:0:
320,192,108224,1,0,0:0:0:0:
192,192,108314,1,0,0:0:0:0:
64,192,108314,1,0,0:0:0:0:
64,192,108581,128,0,108671:0:0:0:0:
192,192,108581,128,0,108671:0:0:0:0:
320,192,108671,128,0,108760:0:0:0:0:
448,192,108671,128,0,108760:0:0:0:0:
64,192,108760,128,0,108849:0:0:0:0:
192,192,108760,128,0,108849:0:0:0:0:
448,192,108849,128,0,109117:0:0:0:0:
320,192,108849,1,0,0:0:0:0:
64,192,109117,1,0,0:0:0:0:
192,192,109117,1,0,0:0:0:0:
448,192,109385,128,0,109474:0:0:0:0:
320,192,109385,128,0,109474:0:0:0:0:
64,192,109474,128,0,109564:0:0:0:0:
192,192,109474,128,0,109564:0:0:0:0:
320,192,109564,128,0,109653:0:0:0:0:
448,192,109564,128,0,109653:0:0:0:0:
192,192,109653,1,0,0:0:0:0:
64,192,109653,128,0,109921:0:0:0:0:
448,192,109921,1,0,0:0:0:0:
192,192,109921,1,0,0:0:0:0:
320,192,110010,1,0,0:0:0:0:
64,192,110010,1,0,0:0:0:0:
448,192,110099,1,0,0:0:0:0:
192,192,110099,1,0,0:0:0:0:
448,192,110189,128,0,110456:0:0:0:0:
320,192,110189,1,0,0:0:0:0:
192,192,110278,1,0,0:0:0:0:
64,192,110367,1,0,0:0:0:0:
320,192,110456,128,0,110546:0:0:0:0:
192,192,110546,128,0,110635:0:0:0:0:
64,192,110635,128,0,110724:0:0:0:0:
448,192,110724,128,0,110992:0:0:0:0:
320,192,110724,1,0,0:0:0:0:
192,192,110814,1,0,0:0:0:0:
64,192,110903,1,0,0:0:0:0:
320,192,110992,128,0,111171:0:0:0:0:
192,192,110992,1,0,0:0:0:0:
64,192,111081,1,0,0:0:0:0:
192,192,111171,128,0,111260:0:0:0:0:
448,192,111260,128,0,111439:0:0:0:0:
320,192,111260,1,0,0:0:0:0:
192,192,111349,1,0,0:0:0:0:
64,192,111439,128,0,111528:0:0:0:0:
320,192,111528,1,0,0:0:0:0:
448,192,111528,1,0,0:0:0:0:
64,192,111617,1,0,0:0:0:0:
192,192,111617,1,0,0:0:0:0:
320,192,111706,1,0,0:0:0:0:
448,192,111706,1,0,0:0:0:0:
192,192,111796,128,0,111885:0:0:0:0:
64,192,111885,128,0,111974:0:0:0:0:
192,192,111974,128,0,112064:0:0:0:0:
320,192,112064,128,0,112153:0:0:0:0:
448,192,112153,128,0,112242:0:0:0:0:
320,192,112242,128,0,112331:0:0:0:0:
64,192,112331,128,0,112510:0:0:0:0:
192,192,112331,1,0,0:0:0:0:
320,192,112421,1,0,0:0:0:0:
448,192,112510,128,0,112599:0:0:0:0:
320,192,112599,128,0,112689:0:0:0:0:
192,192,112689,128,0,112778:0:0:0:0:
64,192,112778,128,0,112867:0:0:0:0:
320,192,112867,1,0,0:0:0:0:
448,192,112867,128,0,113046:0:0:0:0:
192,192,112956,1,0,0:0:0:0:
64,192,113046,128,0,113135:0:0:0:0:
448,192,113135,128,0,113403:0:0:0:0:
320,192,113135,1,0,0:0:0:0:
192,192,113202,1,0,0:0:0:0:
64,192,113269,1,0,0:0:0:0:
320,192,113336,1,0,0:0:0:0:
192,192,113403,1,0,0:0:0:0:
64,192,113537,128,0,113805:0:0:0:0:
320,192,113671,1,0,0:0:0:0:
448,192,113671,1,0,0:0:0:0:
192,192,113805,128,0,113939:0:0:0:0:
448,192,113805,1,0,0:0:0:0:
320,192,113872,1,0,0:0:0:0:
448,192,113939,128,0,114206:0:0:0:0:
64,192,113939,1,0,0:0:0:0:
320,192,114006,1,0,0:0:0:0:
192,192,114073,1,0,0:0:0:0:
64,192,114140,1,0,0:0:0:0:
192,192,114206,1,0,0:0:0:0:
320,192,114206,128,0,114474:0:0:0:0:
64,192,114474,128,0,114742:0:0:0:0:
192,192,114474,1,0,0:0:0:0:
448,192,114474,1,0,0:0:0:0:
192,192,114608,1,0,0:0:0:0:
320,192,114675,1,0,0:0:0:0:
448,192,114742,128,0,117153:0:0:0:0:
320,192,115546,128,0,117956:0:0:0:0:
192,192,116349,128,0,117956:0:0:0:0:
64,192,117153,128,0,117956:0:0:0:0:
448,192,117956,128,0,118023:0:0:0:0:
