osu file format v14

[General]
AudioFilename: audio.mp3
AudioLeadIn: 0
PreviewTime: 74264
Countdown: 0
SampleSet: Normal
StackLeniency: 0.7
Mode: 1
LetterboxInBreaks: 0
WidescreenStoryboard: 1

[Editor]
DistanceSpacing: 1.4
BeatDivisor: 6
GridSize: 32
TimelineZoom: 1.8

[Metadata]
Title:Alter Ego
TitleUnicode:Alter Ego
Artist:Morimori Atsushi
ArtistUnicode:モリモリあつし
Creator:Cynplytholowazy
Version:Inner Oni
Source:Dynamix
Tags:Electronic Instrumental osu! featured artist fa hello world video game STELLIGHTS
BeatmapID:2795429
BeatmapSetID:1294869

[Difficulty]
HPDrainRate:5.5
CircleSize:10
OverallDifficulty:5.5
ApproachRate:10
SliderMultiplier:1.4
SliderTickRate:1

[Events]
//Background and Video events
0,0,"AlterEgoDynamix.png",0,0
//Break Periods
//Storyboard Layer 0 (Background)
//Storyboard Layer 1 (Fail)
//Storyboard Layer 2 (Pass)
//Storyboard Layer 3 (Foreground)
//Storyboard Layer 4 (Overlay)
//Storyboard Sound Samples

[TimingPoints]
1644,413.793103448276,4,1,0,90,1,0
1644,-80,4,1,0,90,0,0
2057,-133.333333333333,4,1,0,70,0,0
27712,-121.212121212121,4,1,0,80,0,0
41264,-111.111111111111,4,1,0,80,0,0
47988,-111.111111111111,4,1,0,80,0,0
48195,-110.049742483603,4,1,0,80,0,0
48402,-109.008459056423,4,1,0,80,0,0
48609,-107.986696039048,4,1,0,80,0,0
48816,-106.983909619993,4,1,0,80,0,0
49023,-105.999576001696,4,1,0,80,0,0
49230,-105.033190488194,4,1,0,80,0,0
49437,-104.084374957716,4,1,0,80,0,0
49644,-103.152441773025,4,1,0,80,0,0
49850,-102.237048866242,4,1,0,80,0,0
50057,-101.33775976668,4,1,0,80,0,0
50264,-100.454153226738,4,1,0,80,0,0
50471,-99.5858225639565,4,1,0,80,0,0
50678,-98.7323750369012,4,1,0,80,0,0
50885,-97.8934312528695,4,1,0,80,0,0
51092,-97.0686246055374,4,1,0,80,0,0
51299,-96.2576007407985,4,1,0,80,0,0
51506,-95.460017049159,4,1,0,80,0,0
51712,-94.6755421831612,4,1,0,80,0,0
51919,-93.903855598407,4,1,0,80,0,0
52126,-93.1446471168472,4,1,0,80,0,0
52333,-92.3977018843587,4,1,0,80,0,0
52540,-91.6625571286887,4,1,0,80,0,0
52747,-90.9390181132336,4,1,0,80,0,0
52954,-100,4,1,0,80,0,0
54506,-80,4,1,0,90,0,0
56161,-100,4,1,0,90,0,0
57816,-80,4,1,0,90,0,0
59471,-100,4,1,0,90,0,0
61230,-80,4,1,0,90,0,0
61333,-80.8756569125233,4,1,0,90,0,0
61437,-81.7706953452849,4,1,0,90,0,0
61540,-82.6857659761303,4,1,0,90,0,0
61644,-83.6214790130993,4,1,0,90,0,0
61747,-84.5786839725931,4,1,0,90,0,0
61850,-85.5580567027465,4,1,0,90,0,0
61954,-86.5603762952678,4,1,0,90,0,0
62057,-87.5864587831263,4,1,0,90,0,0
62161,-88.6371593563169,4,1,0,90,0,0
62264,-89.7132942542223,4,1,0,90,0,0
62368,-90.8159632667592,4,1,0,90,0,0
62833,-80,4,1,0,90,0,0
62936,-80.8756569125233,4,1,0,90,0,0
63040,-81.7706953452849,4,1,0,90,0,0
63143,-82.6857659761303,4,1,0,90,0,0
63247,-83.6214790130993,4,1,0,90,0,0
63350,-84.5786839725931,4,1,0,90,0,0
63453,-85.5580567027465,4,1,0,90,0,0
63557,-86.5603762952678,4,1,0,90,0,0
63660,-87.5864587831263,4,1,0,90,0,0
63764,-88.6371593563169,4,1,0,90,0,0
63867,-89.7132942542223,4,1,0,90,0,0
63971,-90.8159632667592,4,1,0,90,0,0
64488,-80,4,1,0,90,0,0
64591,-80.8756569125233,4,1,0,90,0,0
64695,-81.7706953452849,4,1,0,90,0,0
64798,-82.6857659761303,4,1,0,90,0,0
64902,-83.6214790130993,4,1,0,90,0,0
65005,-84.5786839725931,4,1,0,90,0,0
65108,-85.5580567027465,4,1,0,90,0,0
65212,-86.5603762952678,4,1,0,90,0,0
65315,-87.5864587831263,4,1,0,90,0,0
65419,-88.6371593563169,4,1,0,90,0,0
65522,-89.7132942542223,4,1,0,90,0,0
65626,-90.8159632667592,4,1,0,90,0,0
66195,-80,4,1,0,90,0,0
66299,-81.0750552323814,4,1,0,90,0,0
66402,-82.179330090537,4,1,0,90,0,0
66506,-83.3141710739863,4,1,0,90,0,0
66609,-84.4807223439683,4,1,0,90,0,0
66712,-85.6804786454259,4,1,0,90,0,0
66816,-86.9148026338662,4,1,0,90,0,0
66919,-88.1851323394281,4,1,0,90,0,0
67023,-89.4932267051368,4,1,0,90,0,0
67092,-90.386982828281,4,1,0,90,0,0
67161,-91.2988540167844,4,1,0,90,0,0
67230,-92.2293115819725,4,1,0,90,0,0
67333,-93.6610220290724,4,1,0,90,0,0
67437,-95.137973846571,4,1,0,90,0,0
67540,-96.662252423806,4,1,0,90,0,0
67644,-98.2360730719206,4,1,0,90,0,0
67747,-99.8620904530843,4,1,0,90,0,0
67850,-76.9230769230769,4,1,0,90,0,0
68678,-72.7272727272727,4,1,0,90,0,0
69506,-68.9655172413793,4,1,0,90,0,0
70333,-65.5737704918033,4,1,0,90,0,0
71161,-62.5,4,1,0,90,0,0
71988,-57.1428571428571,4,1,0,90,0,0
72816,-50,4,1,0,90,0,0
74471,-57.1428571428571,4,1,0,90,0,0
74575,-58.2884754940677,4,1,0,90,0,0
74678,-59.480969063948,4,1,0,90,0,0
74781,-60.7232749276634,4,1,0,90,0,0
74885,-62.0185807667977,4,1,0,90,0,0
74988,-63.3703521807322,4,1,0,90,0,0
75092,-64.7823216818009,4,1,0,90,0,0
75195,-66.2586898271708,4,1,0,90,0,0
75299,-67.8039192021377,4,1,0,90,0,0
75402,-69.4229426163841,4,1,0,90,0,0
75506,-71.1211755476864,4,1,0,90,0,0
75609,-72.9045766577043,4,1,0,90,0,0
75712,-74.7797176467421,4,1,0,90,0,0
75816,-76.7538641732918,4,1,0,90,0,0
75919,-66.6666666666667,4,1,0,90,0,0
76126,413.793103448276,4,1,0,100,1,0
76126,-66.6666666666667,4,1,0,100,0,1
96712,-66.6666666666667,4,1,0,100,0,0
97643,-66.6666666666667,4,1,0,100,0,1
98367,-66.6666666666667,4,1,0,100,0,0
99298,-66.6666666666667,4,1,0,100,0,1
100126,-58.8235294117647,4,1,0,100,0,1
100953,-66.6666666666667,4,1,0,100,0,1
101091,-64.5161290322581,4,1,0,100,0,1
101229,-62.5,4,1,0,100,0,1
101367,-60.6060606060606,4,1,0,100,0,1
101505,-58.8235294117647,4,1,0,100,0,1
101643,-57.1428571428571,4,1,0,100,0,1
101781,-55.5555555555556,4,1,0,100,0,1
101919,-54.054054054054,4,1,0,100,0,1
102057,-52.6315789473684,4,1,0,100,0,1
102194,-51.2820512820513,4,1,0,100,0,1
102332,-50,4,1,0,100,0,1
102470,-48.780487804878,4,1,0,100,0,1
102608,-44.4444444444445,4,1,0,100,0,0
102815,-44.4444444444445,4,1,0,80,0,0
103229,-100,4,1,0,80,0,0
103850,-111.111111111111,4,1,0,80,0,0
104057,-117.647058823529,4,1,0,80,0,0
104263,-125,4,1,0,80,0,0
115850,-80,4,1,0,80,0,0
116057,-125,4,1,0,80,0,0
122470,-80,4,1,0,80,0,0
122574,-80.7405523461186,4,1,0,80,0,0
122677,-81.494943238772,4,1,0,80,0,0
122781,-82.2635642334475,4,1,0,80,0,0
122884,-83.0468217981298,4,1,0,80,0,0
122988,-83.8451380300585,4,1,0,80,0,0
123091,-84.6589514142278,4,1,0,80,0,0
123194,-85.4887176264912,4,1,0,80,0,0
123298,-86.334910384363,4,1,0,80,0,0
123401,-87.1980223488531,4,1,0,80,0,0
123505,-88.0785660809442,4,1,0,80,0,0
123608,-88.9770750566117,4,1,0,80,0,0
123712,-89.8941047446109,4,1,0,80,0,0
123815,-90.8302337516066,4,1,0,80,0,0
123867,-80,4,1,0,80,0,0
124204,-80.7405523461186,4,1,0,80,0,0
124307,-81.494943238772,4,1,0,80,0,0
124411,-82.2635642334475,4,1,0,80,0,0
124514,-83.0468217981298,4,1,0,80,0,0
124618,-83.8451380300585,4,1,0,80,0,0
124721,-84.6589514142278,4,1,0,80,0,0
124824,-85.4887176264912,4,1,0,80,0,0
124928,-86.334910384363,4,1,0,80,0,0
125031,-87.1980223488531,4,1,0,80,0,0
125135,-88.0785660809442,4,1,0,80,0,0
125238,-88.9770750566117,4,1,0,80,0,0
125342,-89.8941047446109,4,1,0,80,0,0
125445,-90.8302337516066,4,1,0,80,0,0
125781,-74.0740740740741,4,1,0,80,0,0
125884,-76.9230769230769,4,1,0,80,0,0
125988,-79.3650793650794,4,1,0,80,0,0
126194,-74.0740740740741,4,1,0,80,0,0
126608,-66.6666666666667,4,1,0,80,0,0
127332,-66.6666666666667,4,1,0,50,0,0
127436,-100,4,1,0,50,0,0
127746,-100,4,1,0,25,0,0
128057,-112.000017920003,4,1,0,25,0,0
128263,-112.000017920003,4,1,0,15,0,0
128470,-121.739066918748,4,1,0,15,0,0
128677,-127.272773553736,4,1,0,15,0,0
128884,-133.333333333333,4,1,0,15,0,0

[HitObjects]
256,192,1644,5,6,0:0:0:0:
256,192,3299,1,2,0:0:0:0:
256,192,4954,1,2,0:0:0:0:
256,192,6609,1,2,0:0:0:0:
256,192,8264,1,0,0:0:0:0:
256,192,9919,1,0,0:0:0:0:
256,192,11575,1,0,0:0:0:0:
256,192,13230,1,0,0:0:0:0:
256,192,14885,1,0,0:0:0:0:
256,192,15299,1,2,0:0:0:0:
256,192,16540,1,2,0:0:0:0:
256,192,18195,1,2,0:0:0:0:
256,192,19850,1,2,0:0:0:0:
256,192,21092,1,0,0:0:0:0:
256,192,21506,1,0,0:0:0:0:
256,192,23161,1,0,0:0:0:0:
256,192,24816,1,0,0:0:0:0:
256,192,26471,1,0,0:0:0:0:
256,192,28126,1,6,0:0:0:0:
256,192,28747,1,2,0:0:0:0:
256,192,29368,1,2,0:0:0:0:
256,192,29575,1,0,0:0:0:0:
256,192,30816,1,0,0:0:0:0:
256,192,31023,1,2,0:0:0:0:
256,192,31230,1,0,0:0:0:0:
256,192,31437,1,2,0:0:0:0:
256,192,32057,1,2,0:0:0:0:
256,192,32678,1,2,0:0:0:0:
256,192,32885,1,0,0:0:0:0:
256,192,34126,1,2,0:0:0:0:
256,192,34333,1,2,0:0:0:0:
256,192,34540,1,0,0:0:0:0:
256,192,34747,1,0,0:0:0:0:
256,192,35368,1,2,0:0:0:0:
256,192,35988,1,0,0:0:0:0:
256,192,38057,1,2,0:0:0:0:
256,192,38678,1,2,0:0:0:0:
256,192,39299,1,0,0:0:0:0:
256,192,39712,1,0,0:0:0:0:
256,192,40333,1,2,0:0:0:0:
256,192,40747,1,2,0:0:0:0:
256,192,40954,1,0,0:0:0:0:
256,192,41161,1,0,0:0:0:0:
256,192,41368,1,6,0:0:0:0:
256,192,41781,1,2,0:0:0:0:
256,192,41988,1,0,0:0:0:0:
256,192,42195,1,2,0:0:0:0:
256,192,42609,1,2,0:0:0:0:
256,192,42816,1,0,0:0:0:0:
256,192,43023,1,2,0:0:0:0:
256,192,43437,1,2,0:0:0:0:
256,192,43850,1,2,0:0:0:0:
256,192,44057,1,0,0:0:0:0:
256,192,44264,1,2,0:0:0:0:
256,192,44471,1,0,0:0:0:0:
256,192,44678,1,2,0:0:0:0:
256,192,45092,1,2,0:0:0:0:
256,192,45299,1,2,0:0:0:0:
256,192,45506,1,2,0:0:0:0:
256,192,45919,1,2,0:0:0:0:
256,192,46126,1,2,0:0:0:0:
256,192,46333,1,2,0:0:0:0:
256,192,46747,1,2,0:0:0:0:
256,192,47161,1,2,0:0:0:0:
256,192,47368,1,2,0:0:0:0:
256,192,47575,1,2,0:0:0:0:
256,192,47781,1,0,0:0:0:0:
256,192,47988,1,2,0:0:0:0:
256,192,48195,1,2,0:0:0:0:
256,192,48402,1,2,0:0:0:0:
256,192,48609,1,2,0:0:0:0:
256,192,48816,1,2,0:0:0:0:
256,192,49023,1,2,0:0:0:0:
256,192,49230,1,0,0:0:0:0:
256,192,49437,1,2,0:0:0:0:
256,192,49644,1,2,0:0:0:0:
256,192,49850,1,2,0:0:0:0:
256,192,50057,1,2,0:0:0:0:
256,192,50264,1,2,0:0:0:0:
256,192,50471,1,2,0:0:0:0:
256,192,50678,1,2,0:0:0:0:
256,192,50885,1,2,0:0:0:0:
256,192,51092,1,2,0:0:0:0:
256,192,51299,1,0,0:0:0:0:
256,192,51506,1,2,0:0:0:0:
256,192,51712,1,2,0:0:0:0:
256,192,51919,1,2,0:0:0:0:
256,192,52126,1,2,0:0:0:0:
256,192,52333,1,2,0:0:0:0:
256,192,52540,1,0,0:0:0:0:
256,192,52747,1,2,0:0:0:0:
256,192,52954,1,0,0:0:0:0:
256,192,53057,1,0,0:0:0:0:
256,192,53161,1,0,0:0:0:0:
256,192,53368,1,0,0:0:0:0:
256,192,53471,1,0,0:0:0:0:
256,192,53575,1,0,0:0:0:0:
256,192,53781,1,0,0:0:0:0:
256,192,53885,1,0,0:0:0:0:
256,192,53988,1,0,0:0:0:0:
256,192,54195,1,0,0:0:0:0:
256,192,54299,1,0,0:0:0:0:
256,192,54402,1,0,0:0:0:0:
256,192,54609,1,6,0:0:0:0:
256,192,54919,1,6,0:0:0:0:
256,192,55230,1,6,0:0:0:0:
256,192,55437,1,0,0:0:0:0:
256,192,55747,1,2,0:0:0:0:
256,192,56057,1,2,0:0:0:0:
256,192,56264,1,0,0:0:0:0:
256,192,56575,1,0,0:0:0:0:
256,192,56678,1,0,0:0:0:0:
256,192,56885,1,0,0:0:0:0:
256,192,57092,1,0,0:0:0:0:
256,192,57402,1,0,0:0:0:0:
256,192,57506,1,0,0:0:0:0:
256,192,57712,1,0,0:0:0:0:
256,192,57919,1,6,0:0:0:0:
256,192,58230,1,6,0:0:0:0:
256,192,58540,1,6,0:0:0:0:
256,192,58747,1,0,0:0:0:0:
256,192,59057,1,2,0:0:0:0:
256,192,59368,1,2,0:0:0:0:
256,192,59575,1,0,0:0:0:0:
256,192,59885,1,0,0:0:0:0:
256,192,59988,1,0,0:0:0:0:
256,192,60195,1,0,0:0:0:0:
256,192,60402,1,0,0:0:0:0:
256,192,60712,1,0,0:0:0:0:
256,192,60816,1,0,0:0:0:0:
256,192,61023,1,0,0:0:0:0:
256,192,61230,1,6,0:0:0:0:
256,192,61437,1,0,0:0:0:0:
256,192,61540,1,0,0:0:0:0:
256,192,61644,1,2,0:0:0:0:
256,192,61747,1,0,0:0:0:0:
256,192,61850,1,0,0:0:0:0:
256,192,62057,1,2,0:0:0:0:
256,192,62161,1,0,0:0:0:0:
256,192,62264,1,0,0:0:0:0:
256,192,62368,1,0,0:0:0:0:
256,192,62885,1,6,0:0:0:0:
256,192,63092,1,0,0:0:0:0:
256,192,63195,1,0,0:0:0:0:
256,192,63299,1,2,0:0:0:0:
256,192,63402,1,0,0:0:0:0:
256,192,63506,1,0,0:0:0:0:
256,192,63712,1,2,0:0:0:0:
256,192,63816,1,0,0:0:0:0:
256,192,63919,1,0,0:0:0:0:
256,192,64023,1,0,0:0:0:0:
256,192,64540,1,6,0:0:0:0:
256,192,64747,1,0,0:0:0:0:
256,192,64850,1,0,0:0:0:0:
256,192,64954,1,2,0:0:0:0:
256,192,65057,1,0,0:0:0:0:
256,192,65161,1,0,0:0:0:0:
256,192,65368,1,2,0:0:0:0:
256,192,65471,1,0,0:0:0:0:
256,192,65575,1,0,0:0:0:0:
256,192,65678,1,0,0:0:0:0:
256,192,66195,1,6,0:0:0:0:
256,192,66402,1,0,0:0:0:0:
256,192,66506,1,0,0:0:0:0:
256,192,66609,1,2,0:0:0:0:
256,192,66712,1,0,0:0:0:0:
256,192,66816,1,0,0:0:0:0:
256,192,67023,1,2,0:0:0:0:
256,192,67092,1,0,0:0:0:0:
256,192,67161,1,0,0:0:0:0:
256,192,67230,1,2,0:0:0:0:
256,192,67437,1,2,0:0:0:0:
256,192,67540,1,2,0:0:0:0:
256,192,67644,1,0,0:0:0:0:
256,192,67747,1,0,0:0:0:0:
256,192,67850,1,2,0:0:0:0:
256,192,67919,1,0,0:0:0:0:
256,192,67988,1,0,0:0:0:0:
256,192,68057,1,2,0:0:0:0:
256,192,68264,1,2,0:0:0:0:
256,192,68368,1,2,0:0:0:0:
256,192,68471,1,0,0:0:0:0:
256,192,68575,1,0,0:0:0:0:
256,192,68678,1,2,0:0:0:0:
256,192,68747,1,0,0:0:0:0:
256,192,68816,1,0,0:0:0:0:
256,192,68885,1,2,0:0:0:0:
256,192,69092,1,2,0:0:0:0:
256,192,69195,1,2,0:0:0:0:
256,192,69299,1,0,0:0:0:0:
256,192,69402,1,0,0:0:0:0:
256,192,69506,1,2,0:0:0:0:
256,192,69575,1,0,0:0:0:0:
256,192,69644,1,0,0:0:0:0:
256,192,69712,1,2,0:0:0:0:
256,192,69919,1,2,0:0:0:0:
256,192,70023,1,2,0:0:0:0:
256,192,70126,1,0,0:0:0:0:
256,192,70230,1,0,0:0:0:0:
256,192,70333,1,2,0:0:0:0:
256,192,70402,1,0,0:0:0:0:
256,192,70471,1,0,0:0:0:0:
256,192,70540,1,2,0:0:0:0:
256,192,70747,1,2,0:0:0:0:
256,192,70850,1,2,0:0:0:0:
256,192,70954,1,0,0:0:0:0:
256,192,71057,1,0,0:0:0:0:
256,192,71161,1,2,0:0:0:0:
256,192,71230,1,2,0:0:0:0:
256,192,71299,1,2,0:0:0:0:
256,192,71368,1,0,0:0:0:0:
256,192,71575,1,2,0:0:0:0:
256,192,71644,1,2,0:0:0:0:
256,192,71712,1,2,0:0:0:0:
256,192,71781,1,0,0:0:0:0:
256,192,71988,1,6,0:0:0:0:
256,192,72299,1,6,0:0:0:0:
256,192,72609,1,6,0:0:0:0:
256,192,72816,1,4,0:0:0:0:
256,192,74471,1,6,0:0:0:0:
256,192,74678,1,0,0:0:0:0:
256,192,74781,1,6,0:0:0:0:
256,192,74988,1,0,0:0:0:0:
256,192,75092,1,6,0:0:0:0:
256,192,75299,1,0,0:0:0:0:
256,192,75402,1,6,0:0:0:0:
256,192,75609,1,0,0:0:0:0:
256,192,75712,1,6,0:0:0:0:
256,192,75919,1,0,0:0:0:0:
256,192,75988,1,0,0:0:0:0:
256,192,76057,1,0,0:0:0:0:
256,192,76126,1,6,0:0:0:0:
256,192,76332,1,2,0:0:0:0:
256,192,76539,1,2,0:0:0:0:
256,192,76643,1,0,0:0:0:0:
256,192,76746,1,0,0:0:0:0:
256,192,76850,1,2,0:0:0:0:
256,192,76953,1,2,0:0:0:0:
256,192,77160,1,2,0:0:0:0:
256,192,77263,1,2,0:0:0:0:
256,192,77367,1,0,0:0:0:0:
256,192,77470,1,2,0:0:0:0:
256,192,77574,1,2,0:0:0:0:
256,192,77677,1,0,0:0:0:0:
256,192,77781,1,6,0:0:0:0:
256,192,77988,1,0,0:0:0:0:
256,192,78194,1,2,0:0:0:0:
256,192,78401,1,2,0:0:0:0:
256,192,78505,1,2,0:0:0:0:
256,192,78608,1,2,0:0:0:0:
256,192,78712,1,0,0:0:0:0:
256,192,78815,1,2,0:0:0:0:
256,192,78919,1,2,0:0:0:0:
256,192,79022,1,0,0:0:0:0:
256,192,79229,1,2,0:0:0:0:
256,192,79332,1,2,0:0:0:0:
256,192,79436,1,2,0:0:0:0:
256,192,79539,1,0,0:0:0:0:
256,192,79643,1,2,0:0:0:0:
256,192,79746,1,2,0:0:0:0:
256,192,79850,1,0,0:0:0:0:
256,192,80057,1,2,0:0:0:0:
256,192,80160,1,2,0:0:0:0:
256,192,80263,1,2,0:0:0:0:
256,192,80367,1,0,0:0:0:0:
256,192,80470,1,2,0:0:0:0:
256,192,80574,1,2,0:0:0:0:
256,192,80677,1,0,0:0:0:0:
256,192,80884,1,2,0:0:0:0:
256,192,80988,1,2,0:0:0:0:
256,192,81091,1,2,0:0:0:0:
256,192,81194,1,0,0:0:0:0:
256,192,81298,1,0,0:0:0:0:
256,192,81401,1,2,0:0:0:0:
256,192,81608,1,2,0:0:0:0:
256,192,81712,1,2,0:0:0:0:
256,192,81815,1,2,0:0:0:0:
256,192,81919,1,2,0:0:0:0:
256,192,82022,1,0,0:0:0:0:
256,192,82126,1,0,0:0:0:0:
256,192,82229,1,2,0:0:0:0:
256,192,82436,1,2,0:0:0:0:
256,192,82539,1,2,0:0:0:0:
256,192,82643,1,2,0:0:0:0:
256,192,82746,1,2,0:0:0:0:
256,192,82850,1,2,0:0:0:0:
256,192,82953,1,0,0:0:0:0:
256,192,83057,1,0,0:0:0:0:
256,192,83263,1,2,0:0:0:0:
256,192,83367,1,2,0:0:0:0:
256,192,83470,1,2,0:0:0:0:
256,192,83574,1,2,0:0:0:0:
256,192,83677,1,2,0:0:0:0:
256,192,83781,1,0,0:0:0:0:
256,192,83884,1,0,0:0:0:0:
256,192,84091,1,2,0:0:0:0:
256,192,84194,1,2,0:0:0:0:
256,192,84298,1,2,0:0:0:0:
256,192,84401,1,2,0:0:0:0:
256,192,84505,1,2,0:0:0:0:
256,192,84608,1,0,0:0:0:0:
256,192,84712,1,0,0:0:0:0:
256,192,84919,1,2,0:0:0:0:
256,192,85022,1,2,0:0:0:0:
256,192,85126,1,2,0:0:0:0:
256,192,85229,1,2,0:0:0:0:
256,192,85332,1,2,0:0:0:0:
256,192,85436,1,0,0:0:0:0:
256,192,85539,1,2,0:0:0:0:
256,192,85746,1,2,0:0:0:0:
256,192,85850,1,0,0:0:0:0:
256,192,85953,1,0,0:0:0:0:
256,192,86057,1,2,0:0:0:0:
256,192,86160,1,0,0:0:0:0:
256,192,86263,1,2,0:0:0:0:
256,192,86367,1,0,0:0:0:0:
256,192,86470,1,2,0:0:0:0:
256,192,86677,1,0,0:0:0:0:
256,192,86746,1,2,0:0:0:0:
256,192,86815,1,0,0:0:0:0:
256,192,86884,1,2,0:0:0:0:
256,192,87091,1,2,0:0:0:0:
256,192,87298,1,0,0:0:0:0:
256,192,87436,1,0,0:0:0:0:
256,192,87574,1,2,0:0:0:0:
256,192,87712,1,0,0:0:0:0:
256,192,87850,1,0,0:0:0:0:
256,192,87988,1,2,0:0:0:0:
256,192,88126,1,0,0:0:0:0:
256,192,88263,1,2,0:0:0:0:
256,192,88401,1,2,0:0:0:0:
256,192,88539,1,0,0:0:0:0:
256,192,88677,1,2,0:0:0:0:
256,192,88815,1,2,0:0:0:0:
256,192,88953,1,2,0:0:0:0:
256,192,89091,1,2,0:0:0:0:
256,192,89229,1,2,0:0:0:0:
256,192,89367,1,4,0:0:0:0:
256,192,89574,1,0,0:0:0:0:
256,192,89781,1,2,0:0:0:0:
256,192,89884,1,0,0:0:0:0:
256,192,89988,1,0,0:0:0:0:
256,192,90091,1,2,0:0:0:0:
256,192,90194,1,2,0:0:0:0:
256,192,90401,1,2,0:0:0:0:
256,192,90505,1,2,0:0:0:0:
256,192,90608,1,0,0:0:0:0:
256,192,90712,1,2,0:0:0:0:
256,192,90815,1,2,0:0:0:0:
256,192,90919,1,0,0:0:0:0:
256,192,91022,1,6,0:0:0:0:
256,192,91229,1,0,0:0:0:0:
256,192,91436,1,2,0:0:0:0:
256,192,91643,1,2,0:0:0:0:
256,192,91746,1,2,0:0:0:0:
256,192,91850,1,2,0:0:0:0:
256,192,91953,1,0,0:0:0:0:
256,192,92057,1,2,0:0:0:0:
256,192,92160,1,0,0:0:0:0:
256,192,92367,1,0,0:0:0:0:
256,192,92470,1,2,0:0:0:0:
256,192,92574,1,0,0:0:0:0:
256,192,92677,1,6,0:0:0:0:
256,192,92884,1,2,0:0:0:0:
256,192,92988,1,0,0:0:0:0:
256,192,93194,1,0,0:0:0:0:
256,192,93298,1,2,0:0:0:0:
256,192,93401,1,2,0:0:0:0:
256,192,93505,1,2,0:0:0:0:
256,192,93608,1,0,0:0:0:0:
256,192,93712,1,2,0:0:0:0:
256,192,93815,1,0,0:0:0:0:
256,192,94022,1,2,0:0:0:0:
256,192,94126,1,2,0:0:0:0:
256,192,94229,1,0,0:0:0:0:
256,192,94332,1,6,0:0:0:0:
256,192,94539,1,0,0:0:0:0:
256,192,94643,1,2,0:0:0:0:
256,192,94850,1,2,0:0:0:0:
256,192,94953,1,2,0:0:0:0:
256,192,95160,1,2,0:0:0:0:
256,192,95229,1,0,0:0:0:0:
256,192,95298,1,0,0:0:0:0:
256,192,95367,1,0,0:0:0:0:
256,192,95470,1,2,0:0:0:0:
256,192,95677,1,2,0:0:0:0:
256,192,95781,1,2,0:0:0:0:
256,192,95884,1,2,0:0:0:0:
256,192,95988,1,0,0:0:0:0:
256,192,96057,1,2,0:0:0:0:
256,192,96126,1,2,0:0:0:0:
256,192,96194,1,0,0:0:0:0:
256,192,96401,1,0,0:0:0:0:
256,192,96505,1,0,0:0:0:0:
256,192,96608,1,2,0:0:0:0:
256,192,96712,1,2,0:0:0:0:
256,192,97643,1,0,0:0:0:0:
256,192,97712,1,2,0:0:0:0:
256,192,97781,1,2,0:0:0:0:
256,192,97850,1,0,0:0:0:0:
256,192,98057,1,0,0:0:0:0:
256,192,98160,1,0,0:0:0:0:
256,192,98263,1,2,0:0:0:0:
256,192,98367,1,2,0:0:0:0:
256,192,99298,1,2,0:0:0:0:
256,192,99367,1,0,0:0:0:0:
256,192,99436,1,0,0:0:0:0:
256,192,99505,1,2,0:0:0:0:
256,192,99712,1,2,0:0:0:0:
256,192,99919,1,0,0:0:0:0:
256,192,99988,1,2,0:0:0:0:
256,192,100057,1,0,0:0:0:0:
256,192,100126,1,6,0:0:0:0:
256,192,100436,1,6,0:0:0:0:
256,192,100746,1,6,0:0:0:0:
256,192,100953,1,4,0:0:0:0:
256,192,101091,1,4,0:0:0:0:
256,192,101229,1,6,0:0:0:0:
256,192,101367,1,4,0:0:0:0:
256,192,101505,1,6,0:0:0:0:
256,192,101643,1,6,0:0:0:0:
256,192,101781,1,4,0:0:0:0:
256,192,101919,1,6,0:0:0:0:
256,192,102057,1,6,0:0:0:0:
256,192,102194,1,6,0:0:0:0:
256,192,102332,1,6,0:0:0:0:
256,192,102470,1,6,0:0:0:0:
256,192,102608,1,4,0:0:0:0:
256,192,103229,1,2,0:0:0:0:
256,192,103850,1,2,0:0:0:0:
256,192,104057,1,0,0:0:0:0:
256,192,105298,1,0,0:0:0:0:
256,192,105505,1,2,0:0:0:0:
256,192,105712,1,0,0:0:0:0:
256,192,105919,1,2,0:0:0:0:
256,192,106539,1,2,0:0:0:0:
256,192,107160,1,2,0:0:0:0:
256,192,107367,1,0,0:0:0:0:
256,192,108608,1,2,0:0:0:0:
256,192,108815,1,2,0:0:0:0:
256,192,109022,1,0,0:0:0:0:
256,192,109229,1,0,0:0:0:0:
256,192,109850,1,2,0:0:0:0:
256,192,110470,1,0,0:0:0:0:
256,192,112539,1,2,0:0:0:0:
256,192,113160,1,2,0:0:0:0:
256,192,113781,1,0,0:0:0:0:
256,192,114194,1,0,0:0:0:0:
256,192,115850,1,6,0:0:0:0:
256,192,116470,1,2,0:0:0:0:
256,192,117091,1,2,0:0:0:0:
256,192,117298,1,0,0:0:0:0:
256,192,118229,1,0,0:0:0:0:
256,192,118539,1,0,0:0:0:0:
256,192,118746,1,2,0:0:0:0:
256,192,118953,1,0,0:0:0:0:
256,192,119160,1,2,0:0:0:0:
256,192,119781,1,2,0:0:0:0:
256,192,120401,1,2,0:0:0:0:
256,192,120608,1,2,0:0:0:0:
256,192,121850,1,2,0:0:0:0:
256,192,122057,1,2,0:0:0:0:
256,192,122263,1,0,0:0:0:0:
256,192,122470,1,6,0:0:0:0:
256,192,122677,1,0,0:0:0:0:
256,192,122781,1,0,0:0:0:0:
256,192,122884,1,2,0:0:0:0:
256,192,122988,1,0,0:0:0:0:
256,192,123091,1,0,0:0:0:0:
256,192,123298,1,2,0:0:0:0:
256,192,123401,1,0,0:0:0:0:
256,192,123505,1,0,0:0:0:0:
256,192,123608,1,2,0:0:0:0:
256,192,123712,1,0,0:0:0:0:
256,192,123919,1,2,0:0:0:0:
256,192,123988,1,0,0:0:0:0:
256,192,124057,1,0,0:0:0:0:
256,192,124126,1,6,0:0:0:0:
256,192,124332,1,0,0:0:0:0:
256,192,124436,1,0,0:0:0:0:
256,192,124539,1,2,0:0:0:0:
256,192,124643,1,0,0:0:0:0:
256,192,124746,1,0,0:0:0:0:
256,192,124953,1,2,0:0:0:0:
256,192,125057,1,0,0:0:0:0:
256,192,125160,1,0,0:0:0:0:
256,192,125263,1,2,0:0:0:0:
256,192,125367,1,0,0:0:0:0:
256,192,125574,1,0,0:0:0:0:
256,192,125781,1,6,0:0:0:0:
256,192,126194,1,6,0:0:0:0:
256,192,126608,1,6,0:0:0:0:
256,192,126919,1,6,0:0:0:0:
256,192,127229,1,6,0:0:0:0:
256,192,127436,1,0,0:0:0:0:
256,192,128057,1,2,0:0:0:0:
256,192,128470,1,2,0:0:0:0:
256,192,128677,1,0,0:0:0:0:
256,192,128884,1,0,0:0:0:0:
