osu file format v14

[General]
AudioFilename: audio.mp3
AudioLeadIn: 0
PreviewTime: 74264
Countdown: 0
SampleSet: Normal
StackLeniency: 0.7
Mode: 1
LetterboxInBreaks: 0
WidescreenStoryboard: 1

[Editor]
DistanceSpacing: 1.4
BeatDivisor: 4
GridSize: 32
TimelineZoom: 0.8999999

[Metadata]
Title:Alter Ego
TitleUnicode:Alter Ego
Artist:Morimori Atsushi
ArtistUnicode:モリモリあつし
Creator:Cynplytholowazy
Version:Futsuu
Source:Dynamix
Tags:Electronic Instrumental osu! featured artist fa hello world video game STELLIGHTS
BeatmapID:2795428
BeatmapSetID:1294869

[Difficulty]
HPDrainRate:8
CircleSize:10
OverallDifficulty:2.5
ApproachRate:10
SliderMultiplier:1.4
SliderTickRate:1

[Events]
//Background and Video events
0,0,"AlterEgoDynamix.png",0,0
//Break Periods
//Storyboard Layer 0 (Background)
//Storyboard Layer 1 (Fail)
//Storyboard Layer 2 (Pass)
//Storyboard Layer 3 (Foreground)
//Storyboard Layer 4 (Overlay)
//Storyboard Sound Samples

[TimingPoints]
1644,413.793103448276,4,1,0,90,1,0
1644,-100,4,1,0,90,0,0
2057,-111.111111111111,4,1,0,70,0,0
27712,-105.263157894737,4,1,0,80,0,0
41264,-100,4,1,0,80,0,0
52954,-105.263157894737,4,1,0,80,0,0
54506,-95.2380952380952,4,1,0,90,0,0
67850,-95.2380952380952,4,1,0,90,0,0
71161,-93.0232558139535,4,1,0,90,0,0
72816,-90.9090909090909,4,1,0,90,0,0
74264,-95.2380952380952,4,1,0,90,0,0
75919,-95.2380952380952,4,1,0,100,0,0
76126,413.793103448276,4,1,0,100,1,0
76126,-95.2380952380952,4,1,0,100,0,1
96712,-95.2380952380952,4,1,0,100,0,0
97643,-95.2380952380952,4,1,0,100,0,1
98367,-95.2380952380952,4,1,0,100,0,0
99298,-95.2380952380952,4,1,0,100,0,1
102608,-90.9090909090909,4,1,0,100,0,0
102815,-90.9090909090909,4,1,0,80,0,0
103229,-105.263157894737,4,1,0,80,0,0
103850,-105.263157894737,4,1,0,80,0,0
104057,-105.263157894737,4,1,0,80,0,0
104263,-105.263157894737,4,1,0,80,0,0
115850,-95.2380952380952,4,1,0,80,0,0
116057,-105.263157894737,4,1,0,80,0,0
122470,-100,4,1,0,80,0,0
125781,-95.2380952380952,4,1,0,80,0,0
127436,-100,4,1,0,15,0,0
127746,-100,4,1,0,15,0,0
128057,-112.000017920003,4,1,0,15,0,0
128263,-112.000017920003,4,1,0,15,0,0
128470,-121.739066918748,4,1,0,15,0,0
128677,-127.272773553736,4,1,0,15,0,0
128884,-133.333333333333,4,1,0,15,0,0

[HitObjects]
256,192,1644,5,6,0:0:0:0:
256,192,3299,1,2,0:0:0:0:
256,192,4954,1,2,0:0:0:0:
256,192,6609,1,2,0:0:0:0:
256,192,8264,1,0,0:0:0:0:
256,192,9919,1,0,0:0:0:0:
256,192,11575,1,0,0:0:0:0:
256,192,13230,1,0,0:0:0:0:
256,192,14885,1,0,0:0:0:0:
256,192,15299,1,2,0:0:0:0:
256,192,16540,1,2,0:0:0:0:
256,192,18195,1,2,0:0:0:0:
256,192,19850,1,2,0:0:0:0:
256,192,21092,1,0,0:0:0:0:
256,192,21506,1,0,0:0:0:0:
256,192,23161,1,0,0:0:0:0:
256,192,24816,1,0,0:0:0:0:
256,192,26471,1,0,0:0:0:0:
256,192,28126,1,6,0:0:0:0:
256,192,28747,1,2,0:0:0:0:
256,192,29368,1,2,0:0:0:0:
256,192,29575,1,0,0:0:0:0:
256,192,30816,1,0,0:0:0:0:
256,192,31023,1,2,0:0:0:0:
256,192,31437,1,2,0:0:0:0:
256,192,32057,1,2,0:0:0:0:
256,192,32678,1,2,0:0:0:0:
256,192,32885,1,0,0:0:0:0:
256,192,34126,1,2,0:0:0:0:
256,192,34333,1,2,0:0:0:0:
256,192,34747,1,0,0:0:0:0:
256,192,35368,1,2,0:0:0:0:
256,192,35988,1,0,0:0:0:0:
256,192,38057,1,2,0:0:0:0:
256,192,38678,1,2,0:0:0:0:
256,192,39299,1,0,0:0:0:0:
256,192,39712,1,0,0:0:0:0:
256,192,40333,1,2,0:0:0:0:
256,192,40747,1,2,0:0:0:0:
256,192,40954,1,0,0:0:0:0:
256,192,41368,1,6,0:0:0:0:
256,192,41988,1,0,0:0:0:0:
256,192,42609,1,2,0:0:0:0:
256,192,42816,1,0,0:0:0:0:
256,192,44057,1,0,0:0:0:0:
256,192,44264,1,2,0:0:0:0:
256,192,44471,1,0,0:0:0:0:
256,192,44678,1,2,0:0:0:0:
256,192,45299,1,2,0:0:0:0:
256,192,45919,1,2,0:0:0:0:
256,192,46126,1,2,0:0:0:0:
256,192,47368,1,2,0:0:0:0:
256,192,47575,1,2,0:0:0:0:
256,192,47781,1,0,0:0:0:0:
256,192,47988,1,2,0:0:0:0:
256,192,48609,1,2,0:0:0:0:
256,192,48816,1,2,0:0:0:0:
256,192,49230,1,0,0:0:0:0:
256,192,49644,1,2,0:0:0:0:
256,192,50471,1,2,0:0:0:0:
256,192,50885,1,2,0:0:0:0:
256,192,51299,1,2,0:0:0:0:
256,192,51919,1,2,0:0:0:0:
256,192,52126,1,2,0:0:0:0:
256,192,52540,1,2,0:0:0:0:
256,192,52954,1,0,0:0:0:0:
256,192,53161,1,0,0:0:0:0:
256,192,53368,1,0,0:0:0:0:
256,192,53781,1,0,0:0:0:0:
256,192,53988,1,0,0:0:0:0:
256,192,54195,1,0,0:0:0:0:
256,192,54609,1,6,0:0:0:0:
256,192,54919,1,6,0:0:0:0:
256,192,55230,1,6,0:0:0:0:
256,192,55437,2,0,L|384:192,2,110.249996635437
256,192,57919,1,6,0:0:0:0:
256,192,58230,1,6,0:0:0:0:
256,192,58540,1,6,0:0:0:0:
256,192,58747,2,0,L|384:192,2,110.249996635437
256,192,61230,1,6,0:0:0:0:
256,192,61850,1,0,0:0:0:0:
256,192,62057,1,2,0:0:0:0:
256,192,62368,1,0,0:0:0:0:
256,192,62885,1,6,0:0:0:0:
256,192,63506,1,0,0:0:0:0:
256,192,63712,1,2,0:0:0:0:
256,192,64023,1,0,0:0:0:0:
256,192,64540,1,6,0:0:0:0:
256,192,65161,1,0,0:0:0:0:
256,192,65368,1,2,0:0:0:0:
256,192,65678,1,0,0:0:0:0:
256,192,66195,1,6,0:0:0:0:
256,192,66816,1,0,0:0:0:0:
256,192,67023,1,2,0:0:0:0:
256,192,67230,1,0,0:0:0:0:
256,192,67437,1,0,0:0:0:0:
256,192,67850,1,6,0:0:0:0:
256,192,68264,1,0,0:0:0:0:
256,192,68471,1,0,0:0:0:0:
256,192,68678,1,6,0:0:0:0:
256,192,69092,1,0,0:0:0:0:
256,192,69299,1,0,0:0:0:0:
256,192,69506,1,6,0:0:0:0:
256,192,69919,1,0,0:0:0:0:
256,192,70126,1,0,0:0:0:0:
256,192,70333,1,6,0:0:0:0:
256,192,70747,1,0,0:0:0:0:
256,192,70954,1,0,0:0:0:0:
256,192,71161,1,6,0:0:0:0:
256,192,71575,1,6,0:0:0:0:
256,192,71988,1,6,0:0:0:0:
256,192,72299,1,6,0:0:0:0:
256,192,72609,1,6,0:0:0:0:
256,192,72816,1,4,0:0:0:0:
256,192,74471,1,6,0:0:0:0:
256,192,74781,1,6,0:0:0:0:
256,192,75092,1,6,0:0:0:0:
256,192,75402,1,6,0:0:0:0:
256,192,75712,1,6,0:0:0:0:
256,192,76126,1,6,0:0:0:0:
256,192,76953,1,2,0:0:0:0:
256,192,77263,1,2,0:0:0:0:
256,192,77574,1,0,0:0:0:0:
256,192,77781,1,6,0:0:0:0:
256,192,78608,1,2,0:0:0:0:
256,192,78919,1,0,0:0:0:0:
256,192,79436,1,2,0:0:0:0:
256,192,79746,1,0,0:0:0:0:
256,192,80263,1,2,0:0:0:0:
256,192,81091,1,0,0:0:0:0:
256,192,81401,1,2,0:0:0:0:
256,192,81919,1,0,0:0:0:0:
256,192,82229,1,2,0:0:0:0:
256,192,82746,1,2,0:0:0:0:
256,192,83057,1,0,0:0:0:0:
256,192,83574,1,2,0:0:0:0:
256,192,83884,1,0,0:0:0:0:
256,192,84401,1,2,0:0:0:0:
256,192,85229,1,2,0:0:0:0:
256,192,85539,1,2,0:0:0:0:
256,192,86057,1,2,0:0:0:0:
256,192,86263,1,0,0:0:0:0:
256,192,86470,1,2,0:0:0:0:
256,192,86884,1,2,0:0:0:0:
256,192,87298,12,0,88953,0:0:0:0:
256,192,89367,5,4,0:0:0:0:
256,192,90194,1,2,0:0:0:0:
256,192,90505,1,2,0:0:0:0:
256,192,90815,1,0,0:0:0:0:
256,192,91022,1,6,0:0:0:0:
256,192,91850,1,2,0:0:0:0:
256,192,92160,1,0,0:0:0:0:
256,192,92677,1,6,0:0:0:0:
256,192,92988,1,0,0:0:0:0:
256,192,93505,1,2,0:0:0:0:
256,192,93815,1,0,0:0:0:0:
256,192,94332,1,6,0:0:0:0:
256,192,94643,1,2,0:0:0:0:
256,192,95160,1,2,0:0:0:0:
256,192,95470,1,2,0:0:0:0:
256,192,95988,1,4,0:0:0:0:
256,192,96401,1,0,0:0:0:0:
256,192,96608,1,0,0:0:0:0:
256,192,97643,1,4,0:0:0:0:
256,192,98057,1,0,0:0:0:0:
256,192,98263,1,0,0:0:0:0:
256,192,99298,1,6,0:0:0:0:
256,192,99712,1,2,0:0:0:0:
256,192,99919,1,0,0:0:0:0:
256,192,100126,1,6,0:0:0:0:
256,192,100436,1,6,0:0:0:0:
256,192,100746,1,6,0:0:0:0:
256,192,100953,12,0,102194,0:0:0:0:
256,192,102608,5,4,0:0:0:0:
256,192,103229,1,2,0:0:0:0:
256,192,103850,1,2,0:0:0:0:
256,192,104057,1,0,0:0:0:0:
256,192,105298,1,0,0:0:0:0:
256,192,105505,1,2,0:0:0:0:
256,192,105919,1,2,0:0:0:0:
256,192,106539,1,2,0:0:0:0:
256,192,107160,1,2,0:0:0:0:
256,192,107367,1,0,0:0:0:0:
256,192,108608,1,2,0:0:0:0:
256,192,108815,1,2,0:0:0:0:
256,192,109229,1,0,0:0:0:0:
256,192,109850,1,2,0:0:0:0:
256,192,110470,1,0,0:0:0:0:
256,192,112539,1,2,0:0:0:0:
256,192,113160,1,2,0:0:0:0:
256,192,113781,1,0,0:0:0:0:
256,192,114194,1,0,0:0:0:0:
256,192,115850,1,6,0:0:0:0:
256,192,116470,1,2,0:0:0:0:
256,192,117091,1,2,0:0:0:0:
256,192,117298,1,0,0:0:0:0:
256,192,118539,1,0,0:0:0:0:
256,192,118746,1,2,0:0:0:0:
256,192,118953,1,0,0:0:0:0:
256,192,119160,1,2,0:0:0:0:
256,192,119781,1,2,0:0:0:0:
256,192,120401,1,2,0:0:0:0:
256,192,120608,1,2,0:0:0:0:
256,192,121850,1,2,0:0:0:0:
256,192,122057,1,2,0:0:0:0:
256,192,122470,1,6,0:0:0:0:
256,192,122884,1,2,0:0:0:0:
256,192,123091,1,0,0:0:0:0:
256,192,123298,1,2,0:0:0:0:
256,192,123712,1,2,0:0:0:0:
256,192,124126,1,6,0:0:0:0:
256,192,124539,1,2,0:0:0:0:
256,192,124746,1,0,0:0:0:0:
256,192,124953,1,2,0:0:0:0:
256,192,125367,1,2,0:0:0:0:
256,192,125781,1,6,0:0:0:0:
256,192,126194,1,6,0:0:0:0:
256,192,126608,1,6,0:0:0:0:
256,192,126919,1,6,0:0:0:0:
256,192,127229,1,6,0:0:0:0:
256,192,127436,12,0,128884,0:0:0:0:
