osu file format v14

[General]
AudioFilename: SDVX_III__Le_Fruit_Dfendu_NOFX.mp3
AudioLeadIn: 0
PreviewTime: 46590
Countdown: 0
SampleSet: Normal
StackLeniency: 0.7
Mode: 3
LetterboxInBreaks: 0
SpecialStyle: 0
WidescreenStoryboard: 1

[Editor]
Bookmarks: 86545
DistanceSpacing: 1.3
BeatDivisor: 4
GridSize: 4
TimelineZoom: 1.4

[Metadata]
Title:Le Fruit Defendu
TitleUnicode:Le Fruit Défendu
Artist:Morimori Atsushi + Verdammt
ArtistUnicode:モリモリあつし + Verdammt
Creator:Valentrixe
Version:ADVANCED
Source:SOUND VOLTEX III GRAVITY WARS
Tags:sdvx 3 appliqué prequel Kougei Ciel Nana 虹霓・シエル・奈奈 ajeemaniz Luthfeh
BeatmapID:899799
BeatmapSetID:414288

[Difficulty]
HPDrainRate:8
CircleSize:4
OverallDifficulty:7
ApproachRate:5
SliderMultiplier:1.4
SliderTickRate:1

[Events]
//Background and Video events
0,0,"snow_white_apple_long_hair_anime_girl_nice_1920x1200_hd-wallpaper-1662159.jpg",0,0
//Break Periods
//Storyboard Layer 0 (Background)
//Storyboard Layer 1 (Fail)
//Storyboard Layer 2 (Pass)
//Storyboard Layer 3 (Foreground)
//Storyboard Sound Samples

[TimingPoints]
636,272.727272727273,3,2,1,5,1,0
6908,-100,3,1,1,30,0,0
47272,-100,3,1,1,5,0,1
73454,-100,3,2,1,5,0,0
79999,-100,3,1,1,5,0,0
83272,-100,3,2,1,5,0,0
86272,-100,3,1,1,5,0,0
112726,-102.040816326531,3,1,1,5,0,0
112999,-104.166666666667,3,1,1,5,0,0
113272,-106.382978723404,3,1,1,5,0,0
113545,-108.695652173913,3,1,1,5,0,0
113817,-111.111111111111,3,1,1,5,0,0
114090,-113.636363636364,3,1,1,5,0,0
114363,-116.279069767442,3,1,1,5,0,0

[HitObjects]
320,192,636,5,0,0:0:0:0:
64,192,1181,128,0,1454:0:0:0:0:
448,192,1454,1,0,0:0:0:0:
320,192,1999,128,0,2272:0:0:0:0:
64,192,2272,1,0,0:0:0:0:
448,192,2545,1,0,0:0:0:0:
320,192,2817,1,0,0:0:0:0:
192,192,3090,128,0,3908:0:0:0:0:
448,192,3363,1,0,0:0:0:0:
320,192,3636,1,0,0:0:0:0:
64,192,3908,1,0,0:0:0:0:
320,192,4181,1,0,0:0:0:0:
192,192,4454,128,0,4726:0:0:0:0:
448,192,4726,1,0,0:0:0:0:
320,192,4999,1,0,0:0:0:0:
192,192,5272,1,0,0:0:0:0:
64,192,5545,128,0,6363:0:0:0:0:
320,192,6090,1,0,0:0:0:0:
448,192,6363,128,0,6908:0:0:0:0:
192,192,6908,1,0,0:0:0:0:
64,192,7181,1,0,0:0:0:0:
448,192,7181,1,4,0:0:0:0:
320,192,7454,128,0,7726:0:0:0:0:
192,192,7726,128,0,7999:0:0:0:0:
448,192,7999,1,4,0:0:0:0:
64,192,7999,1,0,0:0:0:0:
320,192,8545,128,0,8817:0:0:0:0:
64,192,8817,1,4,0:0:0:0:
192,192,8817,1,0,0:0:0:0:
320,192,9090,1,0,0:0:0:0:
192,192,9363,1,0,0:0:0:0:
448,192,9636,1,4,0:0:0:0:
320,192,9636,128,0,10454:0:0:0:0:
64,192,10454,1,4,0:0:0:0:
448,192,10454,1,0,0:0:0:0:
320,192,10999,1,0,2:0:0:0:
448,192,11272,1,0,2:0:0:0:
64,192,11545,1,0,2:0:0:0:
192,192,11817,1,0,2:0:0:0:
320,192,12090,128,0,12908:0:0:0:0:
448,192,12908,128,0,13726:0:0:0:0:
320,192,13454,128,0,13726:0:0:0:0:
64,192,13726,1,4,0:0:0:0:
192,192,13726,1,0,0:0:0:0:
320,192,13863,1,0,0:0:0:0:
192,192,13999,1,0,0:0:0:0:
448,192,14136,1,4,0:0:0:0:
320,192,14136,1,0,0:0:0:0:
192,192,14272,1,0,0:0:0:0:
320,192,14408,1,0,0:0:0:0:
192,192,14545,1,0,0:0:0:0:
64,192,14545,1,4,0:0:0:0:
320,192,14681,1,0,0:0:0:0:
192,192,14817,1,0,0:0:0:0:
448,192,14954,1,4,0:0:0:0:
320,192,14954,1,0,0:0:0:0:
64,192,15090,1,0,0:0:0:0:
192,192,15226,1,0,0:0:0:0:
320,192,15363,1,0,0:0:0:0:
448,192,15499,128,0,15772:0:0:0:0:
320,192,15772,128,0,16181:0:0:0:0:
64,192,16181,128,0,16454:0:0:0:0:
320,192,16317,1,0,0:0:0:0:
192,192,16454,128,0,16726:0:0:0:0:
448,192,16590,1,0,0:0:0:0:
320,192,16726,128,0,16999:0:0:0:0:
64,192,16863,1,0,0:0:0:0:
448,192,16999,128,0,17272:0:0:0:0:
192,192,17272,1,0,0:0:0:0:
320,192,17545,1,0,0:0:0:0:
64,192,17817,1,4,0:0:0:0:
448,192,17817,1,0,0:0:0:0:
192,192,18226,1,0,0:0:0:0:
64,192,18363,1,0,0:0:0:0:
320,192,18499,1,0,0:0:0:0:
192,192,18636,1,0,0:0:0:0:
448,192,18772,1,0,0:0:0:0:
320,192,18908,1,0,0:0:0:0:
64,192,19045,1,0,0:0:0:0:
192,192,19181,1,0,0:0:0:0:
320,192,19317,1,0,0:0:0:0:
448,192,19454,128,0,19999:0:0:0:0:
192,192,19658,1,0,0:0:0:0:
64,192,19726,1,0,0:0:0:0:
320,192,19863,1,0,0:0:0:0:
64,192,19999,1,0,0:0:0:0:
320,192,20136,1,0,0:0:0:0:
64,192,20272,1,0,0:0:0:0:
192,192,20408,1,0,0:0:0:0:
320,192,20545,1,0,0:0:0:0:
448,192,20681,1,0,0:0:0:0:
320,192,20817,1,0,0:0:0:0:
192,192,20954,1,0,0:0:0:0:
448,192,21090,1,4,0:0:0:0:
64,192,21090,128,0,21499:0:0:0:0:
320,192,21499,1,0,0:0:0:0:
448,192,21636,1,0,0:0:0:0:
64,192,21772,1,0,0:0:0:0:
320,192,21908,1,0,0:0:0:0:
192,192,22045,1,0,0:0:0:0:
64,192,22181,1,0,0:0:0:0:
320,192,22317,1,0,0:0:0:0:
448,192,22454,128,0,22726:0:0:0:0:
64,192,22726,128,0,22999:0:0:0:0:
320,192,22863,1,0,0:0:0:0:
448,192,22999,128,0,23272:0:0:0:0:
192,192,23136,1,0,0:0:0:0:
64,192,23272,128,0,23545:0:0:0:0:
320,192,23408,1,0,0:0:0:0:
448,192,23545,1,4,0:0:0:0:
192,192,23817,1,0,0:0:0:0:
320,192,24090,1,0,0:0:0:0:
448,192,24363,1,4,0:0:0:0:
64,192,24363,1,0,0:0:0:0:
320,192,24636,1,0,0:0:0:0:
192,192,24908,1,0,0:0:0:0:
64,192,25181,1,0,0:0:0:0:
192,192,25317,1,0,0:0:0:0:
320,192,25454,1,0,0:0:0:0:
192,192,25590,1,0,0:0:0:0:
448,192,25726,1,0,0:0:0:0:
64,192,25999,1,0,0:0:0:0:
320,192,26272,1,0,0:0:0:0:
192,192,26408,1,0,0:0:0:0:
448,192,26545,1,4,0:0:0:0:
64,192,26545,1,0,0:0:0:0:
192,192,26817,1,0,0:0:0:0:
192,192,27090,1,0,0:0:0:0:
320,192,27226,1,0,0:0:0:0:
64,192,27363,1,4,0:0:0:0:
448,192,27363,1,0,0:0:0:0:
192,192,27636,128,0,27908:0:0:0:0:
448,192,27772,1,0,0:0:0:0:
320,192,27908,128,0,28181:0:0:0:0:
64,192,28045,1,0,0:0:0:0:
448,192,28181,128,0,28454:0:0:0:0:
192,192,28317,1,0,0:0:0:0:
64,192,28454,128,0,28726:0:0:0:0:
320,192,28590,1,0,0:0:0:0:
192,192,28726,128,0,28999:0:0:0:0:
448,192,28863,1,0,0:0:0:0:
320,192,28999,128,0,29272:0:0:0:0:
64,192,29136,1,0,0:0:0:0:
448,192,29272,128,0,30090:0:0:0:0:
192,192,29545,1,0,0:0:0:0:
320,192,29817,1,0,0:0:0:0:
192,192,30090,1,0,0:0:0:0:
64,192,30090,1,0,0:0:0:0:
320,192,30363,1,0,0:0:0:0:
448,192,30363,1,0,0:0:0:0:
192,192,30636,128,0,30908:0:0:0:0:
64,192,30908,1,0,0:0:0:0:
448,192,30908,1,0,0:0:0:0:
320,192,31726,1,0,0:0:0:0:
192,192,31726,1,0,0:0:0:0:
192,192,32545,1,0,0:0:0:0:
448,192,32545,1,0,0:0:0:0:
320,192,33363,1,0,0:0:0:0:
448,192,33363,1,0,0:0:0:0:
192,192,33772,1,0,0:0:0:0:
320,192,33908,1,0,0:0:0:0:
192,192,34045,1,0,0:0:0:0:
448,192,34181,1,0,0:0:0:0:
320,192,34181,1,0,0:0:0:0:
320,192,34999,1,0,0:0:0:0:
64,192,34999,1,0,0:0:0:0:
192,192,35817,1,0,0:0:0:0:
64,192,35817,1,0,0:0:0:0:
448,192,36636,1,0,0:0:0:0:
192,192,36817,1,0,0:0:0:0:
448,192,36908,1,0,0:0:0:0:
64,192,37090,1,0,0:0:0:0:
320,192,37181,1,0,0:0:0:0:
64,192,37363,1,0,0:0:0:0:
320,192,37454,1,0,0:0:0:0:
448,192,37454,1,0,0:0:0:0:
192,192,37636,1,0,0:0:0:0:
448,192,37726,1,0,0:0:0:0:
64,192,37908,1,0,0:0:0:0:
320,192,37999,1,0,0:0:0:0:
64,192,38181,1,0,0:0:0:0:
320,192,38272,1,0,0:0:0:0:
448,192,38272,1,0,0:0:0:0:
192,192,38454,1,0,0:0:0:0:
448,192,38545,1,0,0:0:0:0:
64,192,38726,1,0,0:0:0:0:
320,192,38817,1,0,0:0:0:0:
64,192,38999,1,0,0:0:0:0:
448,192,39090,1,0,0:0:0:0:
320,192,39090,128,0,39363:0:0:0:0:
64,192,39226,1,0,0:0:0:0:
192,192,39363,128,0,39636:0:0:0:0:
64,192,39499,1,0,0:0:0:0:
448,192,39636,128,0,39908:0:0:0:0:
320,192,39772,1,0,0:0:0:0:
64,192,39908,128,0,40181:0:0:0:0:
320,192,40045,1,0,0:0:0:0:
192,192,40181,128,0,40454:0:0:0:0:
448,192,40317,1,0,0:0:0:0:
320,192,40454,128,0,40726:0:0:0:0:
64,192,40590,1,0,0:0:0:0:
448,192,40726,128,0,41272:0:0:0:0:
192,192,40999,1,0,0:0:0:0:
64,192,41136,1,0,0:0:0:0:
192,192,41272,1,0,0:0:0:0:
192,192,41545,128,0,42090:0:0:0:0:
320,192,41817,1,0,0:0:0:0:
448,192,41954,1,0,0:0:0:0:
320,192,42090,1,0,0:0:0:0:
320,192,42363,128,0,42908:0:0:0:0:
64,192,42908,1,0,0:0:0:0:
192,192,43181,128,0,43999:0:0:0:0:
320,192,43317,1,0,0:0:0:0:
448,192,43454,1,0,0:0:0:0:
320,192,43590,1,0,0:0:0:0:
448,192,43726,1,0,0:0:0:0:
320,192,43863,1,0,0:0:0:0:
448,192,43999,128,0,45636:0:0:0:0:
64,192,44817,128,0,45636:0:0:0:0:
192,192,45636,128,0,46181:0:0:0:0:
320,192,45908,1,0,0:0:0:0:
64,192,46181,1,0,0:0:0:0:
448,192,46181,1,0,0:0:0:0:
320,192,46454,128,0,47272:0:0:0:0:
192,192,46726,128,0,47272:0:0:0:0:
64,192,47272,1,0,0:0:0:0:
448,192,47272,128,0,47817:0:0:0:0:
64,192,47817,128,0,48090:0:0:0:0:
320,192,48090,128,0,48499:0:0:0:0:
448,192,48090,1,0,0:0:0:0:
192,192,48636,128,0,48908:0:0:0:0:
448,192,48908,128,0,49181:0:0:0:0:
64,192,48908,1,0,0:0:0:0:
320,192,49181,128,0,49454:0:0:0:0:
192,192,49454,128,0,49726:0:0:0:0:
448,192,49726,128,0,50272:0:0:0:0:
64,192,49726,1,0,0:0:0:0:
192,192,49999,1,0,0:0:0:0:
320,192,50136,1,0,0:0:0:0:
64,192,50272,1,0,0:0:0:0:
192,192,50272,1,0,0:0:0:0:
320,192,50408,1,0,0:0:0:0:
448,192,50545,1,0,0:0:0:0:
64,192,50545,1,0,0:0:0:0:
192,192,50749,1,0,0:0:0:0:
320,192,50817,1,0,0:0:0:0:
192,192,50954,1,0,0:0:0:0:
64,192,51090,1,0,0:0:0:0:
320,192,51226,1,0,0:0:0:0:
192,192,51363,1,0,0:0:0:0:
448,192,51363,1,0,0:0:0:0:
320,192,51567,1,0,0:0:0:0:
192,192,51636,1,0,0:0:0:0:
448,192,51772,1,0,0:0:0:0:
192,192,51908,1,0,0:0:0:0:
320,192,52045,1,0,0:0:0:0:
448,192,52181,1,0,0:0:0:0:
64,192,52181,1,0,0:0:0:0:
192,192,52386,1,0,0:0:0:0:
320,192,52454,1,0,0:0:0:0:
64,192,52590,1,0,0:0:0:0:
448,192,52726,1,0,0:0:0:0:
320,192,52863,1,0,0:0:0:0:
192,192,52999,1,0,0:0:0:0:
64,192,52999,1,0,0:0:0:0:
320,192,53204,1,0,0:0:0:0:
64,192,53272,1,0,0:0:0:0:
192,192,53408,1,0,0:0:0:0:
320,192,53545,1,0,0:0:0:0:
192,192,53681,1,0,0:0:0:0:
64,192,53817,1,0,0:0:0:0:
448,192,53817,128,0,54226:0:0:0:0:
192,192,54363,128,0,54636:0:0:0:0:
448,192,54636,128,0,55045:0:0:0:0:
64,192,54636,1,0,0:0:0:0:
320,192,55181,128,0,55454:0:0:0:0:
192,192,55454,128,0,55726:0:0:0:0:
64,192,55454,1,0,0:0:0:0:
448,192,55726,128,0,55999:0:0:0:0:
320,192,55726,1,0,0:0:0:0:
64,192,55999,128,0,56272:0:0:0:0:
192,192,55999,1,0,0:0:0:0:
320,192,56272,1,0,0:0:0:0:
448,192,56272,128,0,56817:0:0:0:0:
64,192,56545,1,0,0:0:0:0:
192,192,56681,1,0,0:0:0:0:
320,192,56817,1,0,0:0:0:0:
64,192,56817,1,0,0:0:0:0:
192,192,56954,1,0,0:0:0:0:
448,192,57090,1,0,0:0:0:0:
320,192,57090,1,0,0:0:0:0:
64,192,57295,1,0,0:0:0:0:
192,192,57363,1,0,0:0:0:0:
320,192,57499,1,0,0:0:0:0:
64,192,57636,1,0,0:0:0:0:
192,192,57772,1,0,0:0:0:0:
320,192,57908,1,0,0:0:0:0:
448,192,57908,1,0,0:0:0:0:
192,192,58113,1,0,0:0:0:0:
448,192,58181,1,0,0:0:0:0:
320,192,58317,1,0,0:0:0:0:
64,192,58454,1,0,0:0:0:0:
192,192,58590,1,0,0:0:0:0:
320,192,58726,1,0,0:0:0:0:
448,192,58726,128,0,59545:0:0:0:0:
64,192,58931,1,0,0:0:0:0:
320,192,58999,1,0,0:0:0:0:
192,192,59136,1,0,0:0:0:0:
64,192,59272,1,0,0:0:0:0:
320,192,59408,1,0,0:0:0:0:
192,192,59545,128,0,59817:0:0:0:0:
64,192,59545,1,0,0:0:0:0:
448,192,59817,1,0,0:0:0:0:
192,192,60090,1,0,0:0:0:0:
448,192,60363,1,4,0:0:0:0:
64,192,60363,1,0,0:0:0:0:
192,192,60499,1,0,0:0:0:0:
320,192,60636,1,0,0:0:0:0:
192,192,60772,1,0,0:0:0:0:
64,192,60908,1,0,0:0:0:0:
448,192,61045,1,0,0:0:0:0:
64,192,61181,1,0,0:0:0:0:
320,192,61181,1,0,0:0:0:0:
448,192,61317,1,0,0:0:0:0:
192,192,61454,1,0,0:0:0:0:
320,192,61590,1,0,0:0:0:0:
448,192,61726,1,0,0:0:0:0:
320,192,61863,1,0,0:0:0:0:
64,192,61999,1,0,0:0:0:0:
192,192,61999,1,0,0:0:0:0:
448,192,62136,1,0,0:0:0:0:
192,192,62272,1,0,0:0:0:0:
320,192,62340,1,0,0:0:0:0:
64,192,62408,1,0,0:0:0:0:
192,192,62545,1,0,0:0:0:0:
320,192,62681,1,0,0:0:0:0:
448,192,62817,1,0,0:0:0:0:
64,192,62817,1,0,0:0:0:0:
192,192,62954,1,0,0:0:0:0:
320,192,63090,1,0,0:0:0:0:
448,192,63226,1,0,0:0:0:0:
192,192,63363,1,0,0:0:0:0:
192,192,63499,1,0,0:0:0:0:
448,192,63636,1,0,0:0:0:0:
64,192,63636,1,0,0:0:0:0:
320,192,63772,1,0,0:0:0:0:
64,192,63908,1,0,0:0:0:0:
192,192,64045,1,0,0:0:0:0:
320,192,64181,1,0,0:0:0:0:
448,192,64317,1,0,0:0:0:0:
64,192,64454,1,0,0:0:0:0:
192,192,64454,1,0,0:0:0:0:
448,192,64590,1,0,0:0:0:0:
64,192,64726,1,0,0:0:0:0:
192,192,64863,1,0,0:0:0:0:
320,192,64999,1,0,0:0:0:0:
64,192,65136,1,0,0:0:0:0:
192,192,65272,1,0,0:0:0:0:
448,192,65272,1,0,0:0:0:0:
320,192,65408,1,0,0:0:0:0:
64,192,65545,1,0,0:0:0:0:
192,192,65681,1,0,0:0:0:0:
320,192,65817,1,0,0:0:0:0:
64,192,65954,1,0,0:0:0:0:
448,192,66090,128,0,66363:0:0:0:0:
192,192,66226,1,0,0:0:0:0:
64,192,66363,128,0,66636:0:0:0:0:
320,192,66499,1,0,0:0:0:0:
448,192,66636,128,0,66908:0:0:0:0:
192,192,66772,1,0,0:0:0:0:
320,192,66908,1,0,0:0:0:0:
64,192,66908,1,0,0:0:0:0:
448,192,67045,1,0,0:0:0:0:
320,192,67181,1,0,0:0:0:0:
192,192,67317,1,0,0:0:0:0:
64,192,67454,1,0,0:0:0:0:
192,192,67590,1,0,0:0:0:0:
320,192,67726,1,0,0:0:0:0:
448,192,67726,1,0,0:0:0:0:
192,192,67863,1,0,0:0:0:0:
64,192,67999,1,0,0:0:0:0:
320,192,68136,1,0,0:0:0:0:
192,192,68272,1,0,0:0:0:0:
448,192,68408,1,0,0:0:0:0:
320,192,68545,1,0,0:0:0:0:
192,192,68545,1,0,0:0:0:0:
64,192,68681,1,0,0:0:0:0:
192,192,68817,1,0,0:0:0:0:
320,192,68954,1,0,0:0:0:0:
448,192,69090,1,0,0:0:0:0:
64,192,69226,1,0,0:0:0:0:
448,192,69363,1,0,0:0:0:0:
192,192,69363,1,0,0:0:0:0:
320,192,69499,1,0,0:0:0:0:
192,192,69636,1,0,0:0:0:0:
320,192,69772,1,0,0:0:0:0:
192,192,69908,1,0,0:0:0:0:
320,192,70045,1,0,0:0:0:0:
64,192,70181,1,0,0:0:0:0:
192,192,70181,1,0,0:0:0:0:
448,192,70317,1,0,0:0:0:0:
320,192,70454,1,0,0:0:0:0:
192,192,70590,1,0,0:0:0:0:
448,192,70726,1,0,0:0:0:0:
320,192,70863,1,0,0:0:0:0:
64,192,70999,1,0,0:0:0:0:
192,192,70999,1,0,0:0:0:0:
320,192,71136,1,0,0:0:0:0:
192,192,71272,1,0,0:0:0:0:
320,192,71408,1,0,0:0:0:0:
192,192,71545,1,0,0:0:0:0:
320,192,71681,1,0,0:0:0:0:
192,192,71817,1,0,0:0:0:0:
64,192,71817,128,0,72363:0:0:0:0:
448,192,72090,1,0,0:0:0:0:
192,192,72226,1,0,0:0:0:0:
320,192,72363,1,0,0:0:0:0:
448,192,72499,1,0,0:0:0:0:
320,192,72636,128,0,72908:0:0:0:0:
192,192,72636,1,0,0:0:0:0:
64,192,72908,1,0,0:0:0:0:
192,192,73181,1,0,0:0:0:0:
64,192,73454,1,0,0:0:0:0:
448,192,73454,1,0,0:0:0:0:
320,192,73454,1,0,0:0:0:0:
192,192,73726,1,0,0:0:0:0:
320,192,73999,1,0,0:0:0:0:
192,192,74204,1,0,0:0:0:0:
64,192,74272,1,0,0:0:0:0:
448,192,74545,1,0,0:0:0:0:
320,192,74817,1,0,0:0:0:0:
448,192,75090,1,0,0:0:0:0:
64,192,75090,1,0,0:0:0:0:
192,192,75363,1,0,0:0:0:0:
320,192,75636,1,0,0:0:0:0:
448,192,75908,1,0,0:0:0:0:
64,192,75908,1,0,0:0:0:0:
320,192,76181,1,0,0:0:0:0:
320,192,76454,1,0,0:0:0:0:
192,192,76590,1,0,0:0:0:0:
64,192,76726,1,0,0:0:0:0:
448,192,76999,1,0,0:0:0:0:
192,192,77272,1,0,0:0:0:0:
448,192,77272,1,0,0:0:0:0:
64,192,77545,1,0,0:0:0:0:
320,192,77817,1,0,0:0:0:0:
320,192,78090,1,0,0:0:0:0:
192,192,78090,1,0,0:0:0:0:
448,192,78363,1,0,0:0:0:0:
192,192,78636,1,0,0:0:0:0:
192,192,78908,1,0,0:0:0:0:
448,192,78908,1,0,0:0:0:0:
64,192,79181,128,0,79454:0:0:0:0:
192,192,79454,128,0,79726:0:0:0:0:
320,192,79726,128,0,79999:0:0:0:0:
448,192,79999,128,0,80817:0:0:0:0:
64,192,79999,1,0,0:0:0:0:
320,192,80545,128,0,80817:0:0:0:0:
64,192,80817,128,0,81636:0:0:0:0:
192,192,80817,1,0,0:0:0:0:
448,192,81363,128,0,81636:0:0:0:0:
320,192,81636,128,0,82454:0:0:0:0:
192,192,81636,1,0,0:0:0:0:
448,192,82181,128,0,82454:0:0:0:0:
192,192,82454,1,0,0:0:0:0:
64,192,82454,1,0,0:0:0:0:
320,192,82726,1,0,0:0:0:0:
448,192,82726,1,0,0:0:0:0:
192,192,82999,1,0,0:0:0:0:
64,192,82999,1,0,0:0:0:0:
320,192,83272,1,0,0:0:0:0:
448,192,83408,1,0,0:0:0:0:
192,192,83545,1,0,0:0:0:0:
320,192,83681,1,0,0:0:0:0:
448,192,83817,1,0,0:0:0:0:
192,192,83954,1,0,0:0:0:0:
448,192,84090,1,0,0:0:0:0:
320,192,84226,1,0,0:0:0:0:
192,192,84363,1,0,0:0:0:0:
64,192,84499,1,0,0:0:0:0:
320,192,84636,1,0,0:0:0:0:
192,192,84772,1,0,0:0:0:0:
320,192,84840,1,0,0:0:0:0:
448,192,84908,128,0,86272:0:0:0:0:
192,192,85726,128,0,86272:0:0:0:0:
64,192,86272,1,0,0:0:0:0:
320,192,86545,1,0,0:0:0:0:
64,192,86681,1,0,0:0:0:0:
192,192,86749,1,0,0:0:0:0:
320,192,86817,1,0,0:0:0:0:
448,192,86886,1,0,0:0:0:0:
64,192,86954,1,0,0:0:0:0:
192,192,87022,1,0,0:0:0:0:
320,192,87090,1,0,0:0:0:0:
64,192,87226,1,0,0:0:0:0:
448,192,87363,1,0,0:0:0:0:
320,192,87499,1,0,0:0:0:0:
192,192,87567,1,0,0:0:0:0:
64,192,87636,1,0,0:0:0:0:
448,192,87704,1,0,0:0:0:0:
320,192,87772,1,0,0:0:0:0:
192,192,87840,1,0,0:0:0:0:
64,192,87908,128,0,88181:0:0:0:0:
320,192,88181,1,0,0:0:0:0:
448,192,88454,1,0,0:0:0:0:
448,192,88590,128,0,88726:0:0:0:0:
64,192,88863,1,0,0:0:0:0:
64,192,88999,128,0,89817:0:0:0:0:
448,192,89272,1,0,0:0:0:0:
320,192,89408,1,0,0:0:0:0:
192,192,89545,1,0,0:0:0:0:
320,192,89681,1,0,0:0:0:0:
448,192,89817,128,0,89954:0:0:0:0:
192,192,89954,128,0,90090:0:0:0:0:
448,192,90090,1,0,0:0:0:0:
64,192,90226,128,0,90363:0:0:0:0:
320,192,90363,1,0,0:0:0:0:
192,192,90499,128,0,90636:0:0:0:0:
448,192,90636,128,0,90908:0:0:0:0:
320,192,90908,128,0,91181:0:0:0:0:
64,192,91181,1,0,0:0:0:0:
192,192,91317,1,0,0:0:0:0:
448,192,91454,128,0,91999:0:0:0:0:
192,192,91726,1,0,0:0:0:0:
320,192,91999,128,0,92136:0:0:0:0:
192,192,92136,128,0,92272:0:0:0:0:
64,192,92272,128,0,93090:0:0:0:0:
320,192,92408,1,0,0:0:0:0:
448,192,92545,1,0,0:0:0:0:
192,192,92681,1,0,0:0:0:0:
320,192,92817,1,0,0:0:0:0:
448,192,92954,1,0,0:0:0:0:
192,192,93090,128,0,93908:0:0:0:0:
320,192,93090,1,0,0:0:0:0:
448,192,93363,1,0,0:0:0:0:
320,192,93636,1,0,0:0:0:0:
448,192,93908,128,0,94726:0:0:0:0:
64,192,93908,1,0,0:0:0:0:
320,192,94181,1,0,0:0:0:0:
192,192,94454,1,0,0:0:0:0:
64,192,94726,128,0,94999:0:0:0:0:
320,192,94726,1,0,0:0:0:0:
192,192,94999,128,0,95136:0:0:0:0:
448,192,95136,128,0,95272:0:0:0:0:
64,192,95272,128,0,95408:0:0:0:0:
320,192,95408,128,0,95545:0:0:0:0:
192,192,95545,128,0,95681:0:0:0:0:
448,192,95681,128,0,96363:0:0:0:0:
64,192,95817,1,0,0:0:0:0:
192,192,95954,1,0,0:0:0:0:
64,192,96090,1,0,0:0:0:0:
192,192,96226,1,0,0:0:0:0:
320,192,96363,1,0,0:0:0:0:
320,192,96636,1,0,0:0:0:0:
192,192,96908,128,0,97181:0:0:0:0:
64,192,97181,128,0,97454:0:0:0:0:
448,192,97454,1,0,0:0:0:0:
320,192,97590,1,0,0:0:0:0:
192,192,97726,1,0,0:0:0:0:
320,192,97863,1,0,0:0:0:0:
448,192,97999,128,0,98817:0:0:0:0:
64,192,98272,1,0,0:0:0:0:
320,192,98408,1,0,0:0:0:0:
192,192,98545,1,0,0:0:0:0:
64,192,98681,1,0,0:0:0:0:
320,192,98817,128,0,99636:0:0:0:0:
64,192,99090,1,0,0:0:0:0:
192,192,99363,1,0,0:0:0:0:
64,192,99636,1,0,0:0:0:0:
448,192,99636,1,0,0:0:0:0:
192,192,99772,1,0,0:0:0:0:
448,192,99908,1,0,0:0:0:0:
320,192,100045,1,0,0:0:0:0:
192,192,100181,1,0,0:0:0:0:
64,192,100317,1,0,0:0:0:0:
320,192,100454,1,0,0:0:0:0:
448,192,100454,1,0,0:0:0:0:
64,192,100590,1,0,0:0:0:0:
192,192,100726,1,0,0:0:0:0:
448,192,100863,1,0,0:0:0:0:
320,192,100999,1,0,0:0:0:0:
192,192,101136,1,0,0:0:0:0:
64,192,101272,1,0,0:0:0:0:
448,192,101272,1,0,0:0:0:0:
320,192,101408,1,0,0:0:0:0:
192,192,101545,128,0,101681:0:0:0:0:
64,192,101681,128,0,101817:0:0:0:0:
192,192,101817,128,0,101954:0:0:0:0:
320,192,101954,128,0,102090:0:0:0:0:
448,192,102090,128,0,102908:0:0:0:0:
64,192,102090,1,0,0:0:0:0:
192,192,102226,1,0,0:0:0:0:
320,192,102363,1,0,0:0:0:0:
64,192,102499,1,0,0:0:0:0:
192,192,102636,1,0,0:0:0:0:
320,192,102772,1,0,0:0:0:0:
192,192,102908,1,0,0:0:0:0:
64,192,102908,1,0,0:0:0:0:
320,192,103045,1,0,0:0:0:0:
448,192,103181,1,0,0:0:0:0:
192,192,103317,1,0,0:0:0:0:
64,192,103454,1,0,0:0:0:0:
320,192,103590,1,0,0:0:0:0:
192,192,103726,1,0,0:0:0:0:
64,192,103726,1,0,0:0:0:0:
448,192,103863,1,0,0:0:0:0:
320,192,103999,1,0,0:0:0:0:
64,192,104136,1,0,0:0:0:0:
192,192,104272,1,0,0:0:0:0:
320,192,104408,1,0,0:0:0:0:
448,192,104545,1,0,0:0:0:0:
64,192,104545,1,0,0:0:0:0:
320,192,104681,1,0,0:0:0:0:
192,192,104817,1,0,0:0:0:0:
448,192,104954,1,0,0:0:0:0:
320,192,105090,1,0,0:0:0:0:
64,192,105226,1,0,0:0:0:0:
192,192,105363,1,0,0:0:0:0:
448,192,105363,128,0,105636:0:0:0:0:
64,192,105499,1,0,0:0:0:0:
320,192,105636,128,0,105908:0:0:0:0:
192,192,105772,1,0,0:0:0:0:
64,192,105908,128,0,106181:0:0:0:0:
192,192,106045,1,0,0:0:0:0:
320,192,106181,1,0,0:0:0:0:
448,192,106181,1,0,0:0:0:0:
192,192,106317,1,0,0:0:0:0:
64,192,106454,1,0,0:0:0:0:
320,192,106590,1,0,0:0:0:0:
192,192,106726,1,0,0:0:0:0:
448,192,106863,1,0,0:0:0:0:
320,192,106999,1,0,0:0:0:0:
64,192,106999,1,0,0:0:0:0:
448,192,107136,1,0,0:0:0:0:
192,192,107272,1,0,0:0:0:0:
320,192,107408,1,0,0:0:0:0:
448,192,107545,1,0,0:0:0:0:
192,192,107681,1,0,0:0:0:0:
320,192,107817,1,0,0:0:0:0:
64,192,107817,1,0,0:0:0:0:
448,192,107954,1,0,0:0:0:0:
192,192,108090,1,0,0:0:0:0:
64,192,108226,1,0,0:0:0:0:
320,192,108363,1,0,0:0:0:0:
192,192,108499,1,0,0:0:0:0:
64,192,108636,1,0,0:0:0:0:
448,192,108636,128,0,109454:0:0:0:0:
320,192,108908,1,0,0:0:0:0:
64,192,109045,1,0,0:0:0:0:
320,192,109181,1,0,0:0:0:0:
64,192,109317,1,0,0:0:0:0:
192,192,109454,1,0,0:0:0:0:
320,192,109454,1,0,0:0:0:0:
64,192,109590,1,0,0:0:0:0:
448,192,109726,1,0,0:0:0:0:
192,192,109863,1,0,0:0:0:0:
320,192,109999,1,0,0:0:0:0:
448,192,110136,1,0,0:0:0:0:
192,192,110272,1,0,0:0:0:0:
64,192,110272,1,0,0:0:0:0:
448,192,110408,1,0,0:0:0:0:
320,192,110545,1,0,0:0:0:0:
192,192,110681,1,0,0:0:0:0:
64,192,110817,1,0,0:0:0:0:
192,192,110954,1,0,0:0:0:0:
320,192,111090,1,0,0:0:0:0:
448,192,111090,128,0,111908:0:0:0:0:
64,192,111226,1,0,0:0:0:0:
192,192,111363,1,0,0:0:0:0:
320,192,111499,1,0,0:0:0:0:
192,192,111636,1,0,0:0:0:0:
64,192,111772,1,0,0:0:0:0:
320,192,111908,1,0,0:0:0:0:
192,192,111908,128,0,112181:0:0:0:0:
192,192,112454,1,0,0:0:0:0:
64,192,112726,1,0,0:0:0:0:
448,192,112726,1,0,0:0:0:0:
320,192,114363,1,0,0:0:0:0:
320,192,114636,1,0,0:0:0:0:
192,192,114772,1,0,0:0:0:0:
64,192,114908,1,0,0:0:0:0:
192,192,115181,1,0,0:0:0:0:
320,192,115454,1,0,0:0:0:0:
64,192,115726,1,0,0:0:0:0:
448,192,115999,1,0,0:0:0:0:
320,192,116272,1,0,0:0:0:0:
192,192,116545,1,0,0:0:0:0:
64,192,116817,128,0,117636:0:0:0:0:
320,192,117090,1,0,0:0:0:0:
192,192,117363,1,0,0:0:0:0:
448,192,117636,1,0,0:0:0:0:
