osu file format v14

[General]
AudioFilename: audio.mp3
AudioLeadIn: 0
PreviewTime: -1
Countdown: 0
SampleSet: None
StackLeniency: 0.7
Mode: 3
LetterboxInBreaks: 0
SpecialStyle: 0
WidescreenStoryboard: 0

[Editor]
DistanceSpacing: 2
BeatDivisor: 8
GridSize: 16
TimelineZoom: 1

[Metadata]
Title:Le Fruit Defendu
TitleUnicode:Le Fruit Defendu
Artist:Morimori Atsushi + Verdammt
ArtistUnicode:Morimori Atsushi + Verdammt
Creator:Riutz
Version:Black Apple
Source:SOUND VOLTEX III GRAVITY WARS
Tags:sdvx 3 appliqué prequel kougei ciel nana 虹霓・シエル・奈奈
BeatmapID:1134815
BeatmapSetID:535791

[Difficulty]
HPDrainRate:8.4
CircleSize:7
OverallDifficulty:7.6
ApproachRate:5
SliderMultiplier:1.4
SliderTickRate:1

[Events]
//Background and Video events
0,0,"art_vocaloid_girl_basket_fruit_shop_anime_ultra_3840x2160_hd-wallpaper-417573.jpg",0,0
//Break Periods
//Storyboard Layer 0 (Background)
//Storyboard Layer 1 (Fail)
//Storyboard Layer 2 (Pass)
//Storyboard Layer 3 (Foreground)
//Storyboard Sound Samples

[TimingPoints]
610,272.727272727273,3,2,0,0,1,0
30882,-100,3,2,0,0,0,1
43973,-100,3,2,0,0,0,0
60337,-100,3,2,0,0,0,1
73428,-100,3,2,0,0,0,0
86519,-100,3,2,0,0,0,1
93064,-100,3,2,0,0,0,0
99610,-100,3,2,0,0,0,1
112700,-100,3,2,0,0,0,0

[HitObjects]
64,192,74,5,0,0:0:0:0:
192,192,74,1,0,0:0:0:0:
109,192,74,1,0,0:0:0:0:
256,192,210,1,0,0:0:0:0:
448,192,346,1,0,0:0:0:0:
64,192,619,1,0,0:0:0:0:
192,192,619,1,0,0:0:0:0:
109,192,619,1,0,0:0:0:0:
320,192,892,1,0,0:0:0:0:
192,192,892,1,0,0:0:0:0:
256,192,892,1,0,0:0:0:0:
448,192,1164,1,0,0:0:0:0:
329,192,1301,1,0,0:0:0:0:
64,192,1437,1,0,0:0:0:0:
192,192,1437,1,0,0:0:0:0:
109,192,1437,1,0,0:0:0:0:
192,192,1710,1,0,0:0:0:0:
320,192,1710,1,0,0:0:0:0:
256,192,1710,1,0,0:0:0:0:
448,192,1983,1,0,0:0:0:0:
64,192,1983,1,0,0:0:0:0:
256,192,1983,1,0,0:0:0:0:
448,192,2255,1,0,0:0:0:0:
320,192,2255,1,0,0:0:0:0:
402,192,2255,1,0,0:0:0:0:
64,192,2392,1,0,0:0:0:0:
109,192,2460,1,0,0:0:0:0:
192,192,2528,1,0,0:0:0:0:
448,192,2528,1,0,0:0:0:0:
256,192,2528,1,0,0:0:0:0:
320,192,2801,1,0,0:0:0:0:
402,192,2971,1,0,0:0:0:0:
192,192,3074,1,0,0:0:0:0:
64,192,3074,1,0,0:0:0:0:
109,192,3074,1,0,0:0:0:0:
448,192,3346,1,0,0:0:0:0:
192,192,3346,1,0,0:0:0:0:
256,192,3346,1,0,0:0:0:0:
109,192,3483,1,0,0:0:0:0:
64,192,3619,1,0,0:0:0:0:
182,192,3789,1,0,0:0:0:0:
448,192,3892,1,0,0:0:0:0:
320,192,3892,1,0,0:0:0:0:
402,192,3892,1,0,0:0:0:0:
448,192,4164,1,0,0:0:0:0:
64,192,4164,1,0,0:0:0:0:
256,192,4164,1,0,0:0:0:0:
320,192,4437,1,0,0:0:0:0:
64,192,4710,1,0,0:0:0:0:
109,192,4710,1,0,0:0:0:0:
192,192,4710,1,0,0:0:0:0:
448,192,4983,1,0,0:0:0:0:
320,192,4983,1,0,0:0:0:0:
256,192,4983,1,0,0:0:0:0:
64,192,5255,128,0,5460:0:0:0:0:
448,192,5528,1,0,0:0:0:0:
320,192,5528,1,0,0:0:0:0:
192,192,5528,1,0,0:0:0:0:
64,192,5528,1,0,0:0:0:0:
256,192,5528,1,0,0:0:0:0:
109,192,5528,1,0,0:0:0:0:
402,192,5528,1,0,0:0:0:0:
64,192,5801,1,0,0:0:0:0:
192,192,5801,1,0,0:0:0:0:
320,192,5801,1,0,0:0:0:0:
448,192,5801,1,0,0:0:0:0:
256,192,5801,1,0,0:0:0:0:
109,192,5801,1,0,0:0:0:0:
402,192,5801,1,0,0:0:0:0:
192,192,6074,128,0,6346:0:0:0:0:
320,192,6346,1,0,0:0:0:0:
448,192,6346,1,0,0:0:0:0:
402,192,6346,1,0,0:0:0:0:
448,192,6619,1,0,0:0:0:0:
402,192,6619,1,0,0:0:0:0:
192,192,6619,1,0,0:0:0:0:
64,192,6619,128,0,6892:0:0:0:0:
109,192,6619,1,0,0:0:0:0:
256,192,6619,1,0,0:0:0:0:
329,192,6619,1,0,0:0:0:0:
448,192,7164,1,0,0:0:0:0:
192,192,7164,1,0,0:0:0:0:
320,192,7164,1,0,0:0:0:0:
64,192,7164,128,0,7369:0:0:0:0:
256,192,7164,1,0,0:0:0:0:
109,192,7164,1,0,0:0:0:0:
402,192,7164,1,0,0:0:0:0:
448,192,7437,1,0,0:0:0:0:
64,192,7437,1,0,0:0:0:0:
192,192,7437,1,0,0:0:0:0:
320,192,7437,128,0,7710:0:0:0:0:
402,192,7437,1,0,0:0:0:0:
109,192,7437,1,0,0:0:0:0:
256,192,7437,1,0,0:0:0:0:
192,192,7983,1,0,0:0:0:0:
320,192,7983,1,0,0:0:0:0:
64,192,7983,1,0,0:0:0:0:
448,192,7983,128,0,8187:0:0:0:0:
256,192,7983,1,0,0:0:0:0:
109,192,7983,1,0,0:0:0:0:
402,192,7983,1,0,0:0:0:0:
448,192,8255,1,0,0:0:0:0:
192,192,8255,1,0,0:0:0:0:
320,192,8255,1,0,0:0:0:0:
64,192,8255,128,0,8460:0:0:0:0:
256,192,8255,1,0,0:0:0:0:
402,192,8255,1,0,0:0:0:0:
109,192,8255,1,0,0:0:0:0:
192,192,8528,1,0,0:0:0:0:
320,192,8528,1,0,0:0:0:0:
64,192,8528,1,0,0:0:0:0:
448,192,8528,128,0,8733:0:0:0:0:
256,192,8528,1,0,0:0:0:0:
109,192,8528,1,0,0:0:0:0:
402,192,8528,1,0,0:0:0:0:
448,192,8801,1,0,0:0:0:0:
64,192,8801,1,0,0:0:0:0:
320,192,8801,1,0,0:0:0:0:
192,192,8801,128,0,9005:0:0:0:0:
256,192,8801,1,0,0:0:0:0:
109,192,8801,1,0,0:0:0:0:
402,192,8801,1,0,0:0:0:0:
192,192,9074,1,0,0:0:0:0:
448,192,9074,1,0,0:0:0:0:
64,192,9074,128,0,9619:0:0:0:0:
320,192,9074,128,0,9346:0:0:0:0:
256,192,9074,1,0,0:0:0:0:
109,192,9074,1,0,0:0:0:0:
402,192,9074,1,0,0:0:0:0:
448,192,9892,1,0,0:0:0:0:
64,192,9892,1,0,0:0:0:0:
192,192,9892,1,0,0:0:0:0:
320,192,9892,1,0,0:0:0:0:
256,192,9892,1,0,0:0:0:0:
109,192,9892,1,0,0:0:0:0:
402,192,9892,1,0,0:0:0:0:
320,192,10437,1,0,0:0:0:0:
402,192,10574,1,0,0:0:0:0:
448,192,10710,1,0,0:0:0:0:
192,192,10966,1,0,0:0:0:0:
64,192,10983,1,0,0:0:0:0:
109,192,11119,1,0,0:0:0:0:
448,192,11255,1,0,0:0:0:0:
320,192,11272,1,0,0:0:0:0:
256,192,11392,1,0,0:0:0:0:
320,192,11528,1,0,0:0:0:0:
192,192,11545,1,0,0:0:0:0:
64,192,11801,1,0,0:0:0:0:
192,192,11801,128,0,12346:0:0:0:0:
256,192,11801,1,0,0:0:0:0:
448,192,12074,1,0,0:0:0:0:
320,192,12346,1,0,0:0:0:0:
448,192,12346,1,0,0:0:0:0:
402,192,12346,1,0,0:0:0:0:
192,192,12414,1,0,0:0:0:0:
64,192,12414,1,0,0:0:0:0:
109,192,12414,1,0,0:0:0:0:
320,192,12483,1,0,0:0:0:0:
448,192,12483,1,0,0:0:0:0:
402,192,12483,1,0,0:0:0:0:
64,192,12551,1,0,0:0:0:0:
192,192,12551,1,0,0:0:0:0:
109,192,12551,1,0,0:0:0:0:
320,192,12619,1,0,0:0:0:0:
448,192,12619,1,0,0:0:0:0:
402,192,12619,1,0,0:0:0:0:
192,192,12687,1,0,0:0:0:0:
64,192,12687,1,0,0:0:0:0:
109,192,12687,1,0,0:0:0:0:
320,192,12755,1,0,0:0:0:0:
448,192,12755,1,0,0:0:0:0:
402,192,12755,1,0,0:0:0:0:
64,192,12824,1,0,0:0:0:0:
192,192,12824,1,0,0:0:0:0:
109,192,12824,1,0,0:0:0:0:
320,192,12892,1,0,0:0:0:0:
448,192,12892,1,0,0:0:0:0:
402,192,12892,1,0,0:0:0:0:
64,192,12960,1,0,0:0:0:0:
192,192,12960,1,0,0:0:0:0:
109,192,12960,1,0,0:0:0:0:
448,192,13028,1,0,0:0:0:0:
320,192,13028,1,0,0:0:0:0:
402,192,13028,1,0,0:0:0:0:
192,192,13096,1,0,0:0:0:0:
64,192,13096,1,0,0:0:0:0:
109,192,13096,1,0,0:0:0:0:
320,192,13164,1,0,0:0:0:0:
448,192,13164,1,0,0:0:0:0:
402,192,13164,1,0,0:0:0:0:
64,192,13233,1,0,0:0:0:0:
109,192,13267,1,0,0:0:0:0:
192,192,13301,1,0,0:0:0:0:
256,192,13335,1,0,0:0:0:0:
320,192,13369,1,0,0:0:0:0:
402,192,13403,1,0,0:0:0:0:
64,192,13437,1,0,0:0:0:0:
192,192,13437,1,0,0:0:0:0:
109,192,13437,1,0,0:0:0:0:
448,192,13505,1,0,0:0:0:0:
320,192,13574,1,0,0:0:0:0:
192,192,13574,1,0,0:0:0:0:
256,192,13574,1,0,0:0:0:0:
64,192,13642,1,0,0:0:0:0:
448,192,13710,1,0,0:0:0:0:
402,192,13744,1,0,0:0:0:0:
320,192,13778,1,0,0:0:0:0:
256,192,13812,1,0,0:0:0:0:
448,192,13846,1,0,0:0:0:0:
192,192,13846,1,0,0:0:0:0:
109,192,13880,1,0,0:0:0:0:
64,192,13914,1,0,0:0:0:0:
320,192,13983,1,0,0:0:0:0:
192,192,13983,1,0,0:0:0:0:
448,192,14051,1,0,0:0:0:0:
256,192,14051,1,0,0:0:0:0:
64,192,14119,1,0,0:0:0:0:
109,192,14153,1,0,0:0:0:0:
192,192,14187,1,0,0:0:0:0:
256,192,14221,1,0,0:0:0:0:
64,192,14255,1,0,0:0:0:0:
448,192,14255,1,0,0:0:0:0:
402,192,14289,1,0,0:0:0:0:
320,192,14324,1,0,0:0:0:0:
256,192,14358,1,0,0:0:0:0:
448,192,14392,1,0,0:0:0:0:
192,192,14392,1,0,0:0:0:0:
109,192,14426,1,0,0:0:0:0:
64,192,14460,1,0,0:0:0:0:
402,192,14460,1,0,0:0:0:0:
320,192,14528,1,0,0:0:0:0:
448,192,14596,1,0,0:0:0:0:
256,192,14596,1,0,0:0:0:0:
192,192,14664,1,0,0:0:0:0:
64,192,14664,1,0,0:0:0:0:
320,192,14733,1,0,0:0:0:0:
109,192,14733,1,0,0:0:0:0:
64,192,14801,1,0,0:0:0:0:
448,192,14801,1,0,0:0:0:0:
256,192,14801,1,0,0:0:0:0:
320,192,14869,1,0,0:0:0:0:
192,192,14937,1,0,0:0:0:0:
64,192,15005,1,0,0:0:0:0:
320,192,15074,1,0,0:0:0:0:
109,192,15074,1,0,0:0:0:0:
192,192,15142,1,0,0:0:0:0:
448,192,15210,1,0,0:0:0:0:
64,192,15278,1,0,0:0:0:0:
256,192,15278,1,0,0:0:0:0:
448,192,15346,1,0,0:0:0:0:
64,192,15414,1,0,0:0:0:0:
182,192,15414,1,0,0:0:0:0:
448,192,15483,1,0,0:0:0:0:
64,192,15551,1,0,0:0:0:0:
256,192,15551,1,0,0:0:0:0:
320,192,15619,1,0,0:0:0:0:
448,192,15619,1,0,0:0:0:0:
402,192,15619,1,0,0:0:0:0:
192,192,15687,1,0,0:0:0:0:
64,192,15687,1,0,0:0:0:0:
109,192,15687,1,0,0:0:0:0:
320,192,15755,1,0,0:0:0:0:
448,192,15755,1,0,0:0:0:0:
402,192,15755,1,0,0:0:0:0:
192,192,15824,1,0,0:0:0:0:
64,192,15824,1,0,0:0:0:0:
109,192,15824,1,0,0:0:0:0:
320,192,15892,1,0,0:0:0:0:
448,192,15892,1,0,0:0:0:0:
402,192,15892,1,0,0:0:0:0:
192,192,15960,1,0,0:0:0:0:
64,192,15960,1,0,0:0:0:0:
109,192,15960,1,0,0:0:0:0:
320,192,16028,1,0,0:0:0:0:
448,192,16028,1,0,0:0:0:0:
402,192,16028,1,0,0:0:0:0:
192,192,16096,1,0,0:0:0:0:
64,192,16096,1,0,0:0:0:0:
109,192,16096,1,0,0:0:0:0:
320,192,16164,1,0,0:0:0:0:
448,192,16164,1,0,0:0:0:0:
402,192,16164,1,0,0:0:0:0:
64,192,16233,1,0,0:0:0:0:
192,192,16233,1,0,0:0:0:0:
109,192,16233,1,0,0:0:0:0:
320,192,16301,1,0,0:0:0:0:
448,192,16301,1,0,0:0:0:0:
402,192,16301,1,0,0:0:0:0:
192,192,16369,1,0,0:0:0:0:
64,192,16369,1,0,0:0:0:0:
109,192,16369,1,0,0:0:0:0:
320,192,16437,1,0,0:0:0:0:
448,192,16437,1,0,0:0:0:0:
402,192,16437,1,0,0:0:0:0:
192,192,16471,1,0,0:0:0:0:
64,192,16505,1,0,0:0:0:0:
448,192,16539,1,0,0:0:0:0:
256,192,16539,1,0,0:0:0:0:
320,192,16608,1,0,0:0:0:0:
64,192,16642,1,0,0:0:0:0:
192,192,16676,1,0,0:0:0:0:
448,192,16676,1,0,0:0:0:0:
320,192,16710,1,0,0:0:0:0:
64,192,16778,1,0,0:0:0:0:
256,192,16778,1,0,0:0:0:0:
192,192,16846,1,0,0:0:0:0:
320,192,16846,1,0,0:0:0:0:
109,192,16914,1,0,0:0:0:0:
402,192,16914,1,0,0:0:0:0:
64,192,16983,1,0,0:0:0:0:
448,192,16983,1,0,0:0:0:0:
256,192,16983,1,0,0:0:0:0:
64,192,17255,1,0,0:0:0:0:
448,192,17255,1,0,0:0:0:0:
109,192,17289,1,0,0:0:0:0:
192,192,17324,1,0,0:0:0:0:
256,192,17358,1,0,0:0:0:0:
320,192,17392,1,0,0:0:0:0:
402,192,17426,1,0,0:0:0:0:
448,192,17460,1,0,0:0:0:0:
64,192,17528,1,0,0:0:0:0:
109,192,17562,1,0,0:0:0:0:
192,192,17596,1,0,0:0:0:0:
256,192,17630,1,0,0:0:0:0:
320,192,17664,1,0,0:0:0:0:
402,192,17699,1,0,0:0:0:0:
448,192,17733,1,0,0:0:0:0:
64,192,17801,1,0,0:0:0:0:
192,192,17801,1,0,0:0:0:0:
109,192,17801,1,0,0:0:0:0:
402,192,17937,1,0,0:0:0:0:
448,192,18074,1,0,0:0:0:0:
64,192,18074,1,0,0:0:0:0:
320,192,18074,1,0,0:0:0:0:
256,192,18074,1,0,0:0:0:0:
109,192,18210,1,0,0:0:0:0:
448,192,18210,1,0,0:0:0:0:
64,192,18210,1,0,0:0:0:0:
192,192,18210,1,0,0:0:0:0:
64,192,18346,1,0,0:0:0:0:
448,192,18346,1,0,0:0:0:0:
320,192,18346,1,0,0:0:0:0:
402,192,18346,1,0,0:0:0:0:
64,192,18483,1,0,0:0:0:0:
448,192,18483,1,0,0:0:0:0:
192,192,18483,1,0,0:0:0:0:
109,192,18483,1,0,0:0:0:0:
448,192,18619,1,0,0:0:0:0:
64,192,18619,1,0,0:0:0:0:
329,192,18619,1,0,0:0:0:0:
402,192,18619,1,0,0:0:0:0:
320,192,18755,1,0,0:0:0:0:
192,192,18755,1,0,0:0:0:0:
256,192,18755,1,0,0:0:0:0:
64,192,18892,1,0,0:0:0:0:
192,192,18892,1,0,0:0:0:0:
109,192,18892,1,0,0:0:0:0:
192,192,19028,1,0,0:0:0:0:
320,192,19028,1,0,0:0:0:0:
256,192,19028,1,0,0:0:0:0:
320,192,19164,1,0,0:0:0:0:
448,192,19164,1,0,0:0:0:0:
402,192,19164,1,0,0:0:0:0:
192,192,19301,1,0,0:0:0:0:
320,192,19301,1,0,0:0:0:0:
256,192,19301,1,0,0:0:0:0:
192,192,19437,1,0,0:0:0:0:
64,192,19437,1,0,0:0:0:0:
109,192,19437,1,0,0:0:0:0:
192,192,19574,1,0,0:0:0:0:
320,192,19574,1,0,0:0:0:0:
256,192,19574,1,0,0:0:0:0:
448,192,19710,1,0,0:0:0:0:
320,192,19710,1,0,0:0:0:0:
402,192,19710,1,0,0:0:0:0:
64,192,19846,1,0,0:0:0:0:
109,192,19914,1,0,0:0:0:0:
192,192,19983,1,0,0:0:0:0:
320,192,20119,1,0,0:0:0:0:
448,192,20119,1,0,0:0:0:0:
402,192,20119,1,0,0:0:0:0:
64,192,20255,1,0,0:0:0:0:
109,192,20324,1,0,0:0:0:0:
320,192,20392,1,0,0:0:0:0:
192,192,20392,1,0,0:0:0:0:
256,192,20392,1,0,0:0:0:0:
448,192,20528,1,0,0:0:0:0:
64,192,20528,1,0,0:0:0:0:
256,192,20528,1,0,0:0:0:0:
320,192,20664,1,0,0:0:0:0:
64,192,20664,1,0,0:0:0:0:
182,192,20664,1,0,0:0:0:0:
109,192,20801,1,0,0:0:0:0:
448,192,20801,1,0,0:0:0:0:
256,192,20801,1,0,0:0:0:0:
320,192,20937,1,0,0:0:0:0:
182,192,20937,1,0,0:0:0:0:
64,192,21074,1,0,0:0:0:0:
256,192,21074,1,0,0:0:0:0:
402,192,21074,1,0,0:0:0:0:
448,192,21210,1,0,0:0:0:0:
329,192,21210,1,0,0:0:0:0:
109,192,21210,1,0,0:0:0:0:
192,192,21346,1,0,0:0:0:0:
320,192,21346,1,0,0:0:0:0:
448,192,21346,1,0,0:0:0:0:
448,192,21483,1,0,0:0:0:0:
320,192,21483,1,0,0:0:0:0:
192,192,21483,1,0,0:0:0:0:
192,192,21619,1,0,0:0:0:0:
320,192,21619,1,0,0:0:0:0:
448,192,21619,1,0,0:0:0:0:
448,192,21755,1,0,0:0:0:0:
320,192,21755,1,0,0:0:0:0:
192,192,21755,1,0,0:0:0:0:
64,192,21892,1,0,0:0:0:0:
192,192,21892,1,0,0:0:0:0:
256,192,21960,1,0,0:0:0:0:
320,192,22028,1,0,0:0:0:0:
402,192,22096,1,0,0:0:0:0:
448,192,22164,1,0,0:0:0:0:
64,192,22164,1,0,0:0:0:0:
192,192,22233,1,0,0:0:0:0:
320,192,22301,1,0,0:0:0:0:
109,192,22301,1,0,0:0:0:0:
192,192,22369,1,0,0:0:0:0:
64,192,22437,1,0,0:0:0:0:
448,192,22437,1,0,0:0:0:0:
256,192,22437,1,0,0:0:0:0:
320,192,22505,1,0,0:0:0:0:
192,192,22574,1,0,0:0:0:0:
402,192,22574,1,0,0:0:0:0:
320,192,22642,1,0,0:0:0:0:
448,192,22710,1,0,0:0:0:0:
64,192,22710,1,0,0:0:0:0:
256,192,22710,1,0,0:0:0:0:
192,192,22778,1,0,0:0:0:0:
109,192,22846,1,0,0:0:0:0:
256,192,22983,1,0,0:0:0:0:
448,192,22983,1,0,0:0:0:0:
64,192,22983,1,0,0:0:0:0:
192,192,22983,1,0,0:0:0:0:
320,192,22983,1,0,0:0:0:0:
448,192,23255,1,0,0:0:0:0:
320,192,23255,1,0,0:0:0:0:
64,192,23255,1,0,0:0:0:0:
192,192,23255,1,0,0:0:0:0:
256,192,23255,1,0,0:0:0:0:
64,192,23528,1,0,0:0:0:0:
192,192,23528,1,0,0:0:0:0:
320,192,23528,1,0,0:0:0:0:
448,192,23528,1,0,0:0:0:0:
256,192,23528,1,0,0:0:0:0:
448,192,23801,1,0,0:0:0:0:
64,192,23801,1,0,0:0:0:0:
109,192,23835,1,0,0:0:0:0:
192,192,23869,1,0,0:0:0:0:
256,192,23903,1,0,0:0:0:0:
320,192,23937,1,0,0:0:0:0:
192,192,24005,1,0,0:0:0:0:
109,192,24039,1,0,0:0:0:0:
64,192,24074,1,0,0:0:0:0:
448,192,24074,1,0,0:0:0:0:
256,192,24074,1,0,0:0:0:0:
320,192,24142,1,0,0:0:0:0:
192,192,24210,1,0,0:0:0:0:
320,192,24278,1,0,0:0:0:0:
109,192,24278,1,0,0:0:0:0:
448,192,24346,1,0,0:0:0:0:
64,192,24346,1,0,0:0:0:0:
256,192,24346,1,0,0:0:0:0:
192,192,24483,1,0,0:0:0:0:
320,192,24483,1,0,0:0:0:0:
448,192,24619,1,0,0:0:0:0:
320,192,24619,1,0,0:0:0:0:
109,192,24619,1,0,0:0:0:0:
64,192,24755,1,0,0:0:0:0:
192,192,24755,1,0,0:0:0:0:
402,192,24755,1,0,0:0:0:0:
320,192,24892,1,0,0:0:0:0:
448,192,24892,1,0,0:0:0:0:
256,192,24892,1,0,0:0:0:0:
192,192,25028,1,0,0:0:0:0:
64,192,25028,1,0,0:0:0:0:
109,192,25028,1,0,0:0:0:0:
320,192,25164,1,0,0:0:0:0:
64,192,25164,1,0,0:0:0:0:
256,192,25164,1,0,0:0:0:0:
64,192,25301,1,0,0:0:0:0:
448,192,25301,1,0,0:0:0:0:
402,192,25301,1,0,0:0:0:0:
448,192,25437,1,0,0:0:0:0:
320,192,25437,1,0,0:0:0:0:
402,192,25437,1,0,0:0:0:0:
182,192,25437,1,0,0:0:0:0:
64,192,25505,1,0,0:0:0:0:
256,192,25505,1,0,0:0:0:0:
320,192,25574,1,0,0:0:0:0:
109,192,25574,1,0,0:0:0:0:
192,192,25642,1,0,0:0:0:0:
448,192,25710,1,0,0:0:0:0:
402,192,25744,1,0,0:0:0:0:
320,192,25778,1,0,0:0:0:0:
256,192,25812,1,0,0:0:0:0:
192,192,25846,1,0,0:0:0:0:
109,192,25880,1,0,0:0:0:0:
64,192,25914,1,0,0:0:0:0:
192,192,25983,1,0,0:0:0:0:
320,192,25983,1,0,0:0:0:0:
448,192,25983,1,0,0:0:0:0:
256,192,25983,1,0,0:0:0:0:
402,192,25983,1,0,0:0:0:0:
64,192,26255,1,0,0:0:0:0:
192,192,26255,1,0,0:0:0:0:
109,192,26255,1,0,0:0:0:0:
448,192,26324,1,0,0:0:0:0:
192,192,26392,1,0,0:0:0:0:
256,192,26426,1,0,0:0:0:0:
320,192,26460,1,0,0:0:0:0:
402,192,26494,1,0,0:0:0:0:
448,192,26528,1,0,0:0:0:0:
64,192,26528,1,0,0:0:0:0:
109,192,26562,1,0,0:0:0:0:
192,192,26596,1,0,0:0:0:0:
256,192,26630,1,0,0:0:0:0:
320,192,26664,1,0,0:0:0:0:
402,192,26699,1,0,0:0:0:0:
448,192,26733,1,0,0:0:0:0:
64,192,26801,1,0,0:0:0:0:
320,192,26801,1,0,0:0:0:0:
192,192,26801,1,0,0:0:0:0:
109,192,26801,1,0,0:0:0:0:
192,192,27074,1,0,0:0:0:0:
64,192,27074,1,0,0:0:0:0:
256,192,27074,1,0,0:0:0:0:
320,192,27142,1,0,0:0:0:0:
192,192,27210,1,0,0:0:0:0:
402,192,27210,1,0,0:0:0:0:
256,192,27278,1,0,0:0:0:0:
36,192,27278,1,0,0:0:0:0:
448,192,27346,1,0,0:0:0:0:
192,192,27346,1,0,0:0:0:0:
402,192,27414,1,0,0:0:0:0:
109,192,27414,1,0,0:0:0:0:
256,192,27483,1,0,0:0:0:0:
402,192,27551,1,0,0:0:0:0:
64,192,27619,1,0,0:0:0:0:
192,192,27619,1,0,0:0:0:0:
320,192,27687,1,0,0:0:0:0:
109,192,27687,1,0,0:0:0:0:
192,192,27755,1,0,0:0:0:0:
256,192,27824,1,0,0:0:0:0:
320,192,27892,1,0,0:0:0:0:
192,192,27892,1,0,0:0:0:0:
448,192,27892,1,0,0:0:0:0:
64,192,27960,1,0,0:0:0:0:
109,192,27994,1,0,0:0:0:0:
192,192,28028,1,0,0:0:0:0:
256,192,28062,1,0,0:0:0:0:
320,192,28096,1,0,0:0:0:0:
402,192,28130,1,0,0:0:0:0:
448,192,28164,1,0,0:0:0:0:
64,192,28164,1,0,0:0:0:0:
109,192,28199,1,0,0:0:0:0:
192,192,28233,1,0,0:0:0:0:
256,192,28267,1,0,0:0:0:0:
448,192,28301,1,0,0:0:0:0:
402,192,28335,1,0,0:0:0:0:
320,192,28369,1,0,0:0:0:0:
256,192,28403,1,0,0:0:0:0:
192,192,28437,1,0,0:0:0:0:
64,192,28437,1,0,0:0:0:0:
109,192,28437,1,0,0:0:0:0:
448,192,28505,1,0,0:0:0:0:
192,192,28574,1,0,0:0:0:0:
402,192,28574,1,0,0:0:0:0:
320,192,28642,1,0,0:0:0:0:
64,192,28710,1,0,0:0:0:0:
256,192,28710,1,0,0:0:0:0:
448,192,28778,1,0,0:0:0:0:
109,192,28778,1,0,0:0:0:0:
192,192,28846,1,0,0:0:0:0:
320,192,28914,1,0,0:0:0:0:
64,192,28983,1,0,0:0:0:0:
256,192,28983,1,0,0:0:0:0:
448,192,29051,1,0,0:0:0:0:
109,192,29051,1,0,0:0:0:0:
192,192,29119,1,0,0:0:0:0:
402,192,29119,1,0,0:0:0:0:
320,192,29187,1,0,0:0:0:0:
64,192,29255,1,0,0:0:0:0:
256,192,29255,1,0,0:0:0:0:
448,192,29324,1,0,0:0:0:0:
182,192,29324,1,0,0:0:0:0:
320,192,29392,1,0,0:0:0:0:
109,192,29392,1,0,0:0:0:0:
192,192,29460,1,0,0:0:0:0:
64,192,29528,1,0,0:0:0:0:
320,192,29528,1,0,0:0:0:0:
448,192,29528,1,0,0:0:0:0:
256,192,29528,1,0,0:0:0:0:
64,192,29801,1,0,0:0:0:0:
192,192,29801,1,0,0:0:0:0:
448,192,29801,1,0,0:0:0:0:
256,192,29801,1,0,0:0:0:0:
448,192,30074,1,0,0:0:0:0:
320,192,30074,1,0,0:0:0:0:
192,192,30074,1,0,0:0:0:0:
109,192,30074,1,0,0:0:0:0:
64,192,30346,1,0,0:0:0:0:
192,192,30346,1,0,0:0:0:0:
448,192,30346,1,0,0:0:0:0:
256,192,30346,1,0,0:0:0:0:
320,192,30437,1,0,0:0:0:0:
256,192,30517,1,0,0:0:0:0:
64,192,30517,1,0,0:0:0:0:
448,192,30619,1,0,0:0:0:0:
320,192,30619,1,0,0:0:0:0:
402,192,30619,1,0,0:0:0:0:
109,192,30619,1,0,0:0:0:0:
192,192,30710,1,0,0:0:0:0:
320,192,30801,1,0,0:0:0:0:
448,192,30892,1,0,0:0:0:0:
64,192,30892,1,0,0:0:0:0:
256,192,30892,1,0,0:0:0:0:
192,192,30983,1,0,0:0:0:0:
109,192,31062,1,0,0:0:0:0:
448,192,31074,1,0,0:0:0:0:
64,192,31164,1,0,0:0:0:0:
192,192,31164,1,0,0:0:0:0:
320,192,31255,1,0,0:0:0:0:
256,192,31335,1,0,0:0:0:0:
64,192,31346,1,0,0:0:0:0:
192,192,31437,1,0,0:0:0:0:
320,192,31437,1,0,0:0:0:0:
448,192,31528,1,0,0:0:0:0:
256,192,31608,1,0,0:0:0:0:
64,192,31619,1,0,0:0:0:0:
448,192,31710,1,0,0:0:0:0:
192,192,31710,1,0,0:0:0:0:
320,192,31801,1,0,0:0:0:0:
109,192,31880,1,0,0:0:0:0:
448,192,31892,1,0,0:0:0:0:
64,192,31983,1,0,0:0:0:0:
192,192,31983,1,0,0:0:0:0:
320,192,32074,1,0,0:0:0:0:
256,192,32153,1,0,0:0:0:0:
64,192,32164,1,0,0:0:0:0:
448,192,32255,1,0,0:0:0:0:
320,192,32255,1,0,0:0:0:0:
109,192,32255,1,0,0:0:0:0:
64,192,32346,1,0,0:0:0:0:
256,192,32358,1,0,0:0:0:0:
192,192,32437,1,0,0:0:0:0:
320,192,32528,1,0,0:0:0:0:
448,192,32528,1,0,0:0:0:0:
109,192,32528,1,0,0:0:0:0:
192,192,32619,1,0,0:0:0:0:
402,192,32699,1,0,0:0:0:0:
64,192,32710,1,0,0:0:0:0:
320,192,32801,1,0,0:0:0:0:
448,192,32801,1,0,0:0:0:0:
256,192,32801,1,0,0:0:0:0:
192,192,32892,1,0,0:0:0:0:
109,192,32971,1,0,0:0:0:0:
448,192,32983,1,0,0:0:0:0:
320,192,33074,1,0,0:0:0:0:
64,192,33074,1,0,0:0:0:0:
192,192,33164,1,0,0:0:0:0:
402,192,33176,1,0,0:0:0:0:
256,192,33244,1,0,0:0:0:0:
448,192,33255,1,0,0:0:0:0:
64,192,33346,1,0,0:0:0:0:
192,192,33346,1,0,0:0:0:0:
109,192,33346,1,0,0:0:0:0:
402,192,33431,1,0,0:0:0:0:
320,192,33431,1,0,0:0:0:0:
448,192,33431,1,0,0:0:0:0:
109,192,33517,1,0,0:0:0:0:
192,192,33517,1,0,0:0:0:0:
64,192,33517,1,0,0:0:0:0:
448,192,33619,1,0,0:0:0:0:
320,192,33619,1,0,0:0:0:0:
402,192,33619,1,0,0:0:0:0:
64,192,33710,1,0,0:0:0:0:
256,192,33755,1,0,0:0:0:0:
448,192,33801,1,0,0:0:0:0:
64,192,33892,1,0,0:0:0:0:
256,192,33960,1,0,0:0:0:0:
448,192,33983,1,0,0:0:0:0:
64,192,34074,1,0,0:0:0:0:
256,192,34130,1,0,0:0:0:0:
448,192,34164,1,0,0:0:0:0:
64,192,34255,1,0,0:0:0:0:
256,192,34301,1,0,0:0:0:0:
448,192,34346,1,0,0:0:0:0:
192,192,34437,1,0,0:0:0:0:
64,192,34437,1,0,0:0:0:0:
109,192,34437,1,0,0:0:0:0:
320,192,34528,1,0,0:0:0:0:
475,192,34608,1,0,0:0:0:0:
256,192,34608,1,0,0:0:0:0:
64,192,34619,1,0,0:0:0:0:
448,192,34710,1,0,0:0:0:0:
320,192,34710,1,0,0:0:0:0:
192,192,34801,1,0,0:0:0:0:
109,192,34880,1,0,0:0:0:0:
320,192,34892,1,0,0:0:0:0:
64,192,34983,1,0,0:0:0:0:
448,192,34983,1,0,0:0:0:0:
256,192,34983,1,0,0:0:0:0:
192,192,35074,1,0,0:0:0:0:
256,192,35153,1,0,0:0:0:0:
448,192,35164,1,0,0:0:0:0:
320,192,35255,1,0,0:0:0:0:
64,192,35255,1,0,0:0:0:0:
402,192,35324,1,0,0:0:0:0:
192,192,35346,1,0,0:0:0:0:
320,192,35437,1,0,0:0:0:0:
256,192,35528,1,0,0:0:0:0:
448,192,35528,1,0,0:0:0:0:
64,192,35528,1,0,0:0:0:0:
192,192,35619,1,0,0:0:0:0:
109,192,35699,1,0,0:0:0:0:
448,192,35710,1,0,0:0:0:0:
320,192,35801,1,0,0:0:0:0:
192,192,35801,1,0,0:0:0:0:
64,192,35892,1,0,0:0:0:0:
256,192,35903,1,0,0:0:0:0:
192,192,35983,1,0,0:0:0:0:
448,192,36074,1,0,0:0:0:0:
320,192,36074,1,0,0:0:0:0:
402,192,36074,1,0,0:0:0:0:
64,192,36164,1,0,0:0:0:0:
256,192,36244,1,0,0:0:0:0:
192,192,36255,1,0,0:0:0:0:
320,192,36255,1,0,0:0:0:0:
64,192,36346,1,0,0:0:0:0:
192,192,36346,1,0,0:0:0:0:
109,192,36346,1,0,0:0:0:0:
448,192,36437,1,0,0:0:0:0:
109,192,36517,1,0,0:0:0:0:
192,192,36528,1,0,0:0:0:0:
64,192,36528,1,0,0:0:0:0:
448,192,36619,1,0,0:0:0:0:
192,192,36619,1,0,0:0:0:0:
329,192,36619,1,0,0:0:0:0:
256,192,36789,1,0,0:0:0:0:
64,192,36801,1,0,0:0:0:0:
448,192,36801,1,0,0:0:0:0:
448,192,36892,1,0,0:0:0:0:
320,192,36892,1,0,0:0:0:0:
109,192,36892,1,0,0:0:0:0:
192,192,36983,1,0,0:0:0:0:
448,192,37074,1,0,0:0:0:0:
320,192,37074,1,0,0:0:0:0:
64,192,37164,1,0,0:0:0:0:
320,192,37164,1,0,0:0:0:0:
192,192,37255,1,0,0:0:0:0:
109,192,37267,1,0,0:0:0:0:
320,192,37346,1,0,0:0:0:0:
448,192,37346,1,0,0:0:0:0:
192,192,37437,1,0,0:0:0:0:
64,192,37437,1,0,0:0:0:0:
320,192,37437,1,0,0:0:0:0:
448,192,37437,1,0,0:0:0:0:
402,192,37437,1,0,0:0:0:0:
109,192,37437,1,0,0:0:0:0:
256,192,37505,1,0,0:0:0:0:
64,192,37528,1,0,0:0:0:0:
109,192,37574,1,0,0:0:0:0:
192,192,37619,1,0,0:0:0:0:
320,192,37619,1,0,0:0:0:0:
256,192,37676,1,0,0:0:0:0:
448,192,37710,1,0,0:0:0:0:
320,192,37710,1,0,0:0:0:0:
64,192,37801,1,0,0:0:0:0:
256,192,37812,1,0,0:0:0:0:
320,192,37892,1,0,0:0:0:0:
192,192,37892,1,0,0:0:0:0:
109,192,37914,1,0,0:0:0:0:
192,192,37983,1,0,0:0:0:0:
448,192,37983,1,0,0:0:0:0:
329,192,38017,1,0,0:0:0:0:
64,192,38074,1,0,0:0:0:0:
256,192,38085,1,0,0:0:0:0:
109,192,38153,1,0,0:0:0:0:
320,192,38164,1,0,0:0:0:0:
448,192,38164,1,0,0:0:0:0:
448,192,38255,1,0,0:0:0:0:
320,192,38255,1,0,0:0:0:0:
192,192,38255,1,0,0:0:0:0:
64,192,38255,1,0,0:0:0:0:
64,192,38346,1,0,0:0:0:0:
256,192,38358,1,0,0:0:0:0:
109,192,38426,1,0,0:0:0:0:
448,192,38437,1,0,0:0:0:0:
320,192,38437,1,0,0:0:0:0:
64,192,38528,1,0,0:0:0:0:
320,192,38528,1,0,0:0:0:0:
192,192,38619,1,0,0:0:0:0:
402,192,38630,1,0,0:0:0:0:
109,192,38699,1,0,0:0:0:0:
448,192,38710,1,0,0:0:0:0:
320,192,38710,1,0,0:0:0:0:
448,192,38801,1,0,0:0:0:0:
64,192,38801,1,0,0:0:0:0:
256,192,38801,1,0,0:0:0:0:
320,192,38892,1,0,0:0:0:0:
402,192,38971,1,0,0:0:0:0:
64,192,38983,1,0,0:0:0:0:
192,192,38983,1,0,0:0:0:0:
64,192,39074,1,0,0:0:0:0:
192,192,39074,1,0,0:0:0:0:
320,192,39074,1,0,0:0:0:0:
448,192,39074,1,0,0:0:0:0:
256,192,39074,1,0,0:0:0:0:
448,192,39164,1,0,0:0:0:0:
109,192,39244,1,0,0:0:0:0:
64,192,39255,1,0,0:0:0:0:
192,192,39255,1,0,0:0:0:0:
320,192,39346,1,0,0:0:0:0:
192,192,39346,1,0,0:0:0:0:
256,192,39346,1,0,0:0:0:0:
64,192,39437,1,0,0:0:0:0:
402,192,39517,1,0,0:0:0:0:
448,192,39528,1,0,0:0:0:0:
320,192,39528,1,0,0:0:0:0:
64,192,39619,1,0,0:0:0:0:
320,192,39619,1,0,0:0:0:0:
109,192,39619,1,0,0:0:0:0:
192,192,39710,1,0,0:0:0:0:
402,192,39789,1,0,0:0:0:0:
448,192,39801,1,0,0:0:0:0:
320,192,39801,1,0,0:0:0:0:
64,192,39892,1,0,0:0:0:0:
192,192,39892,1,0,0:0:0:0:
320,192,39892,1,0,0:0:0:0:
448,192,39892,1,0,0:0:0:0:
256,192,39892,1,0,0:0:0:0:
64,192,39983,1,0,0:0:0:0:
109,192,40028,1,0,0:0:0:0:
320,192,40074,1,0,0:0:0:0:
64,192,40164,1,0,0:0:0:0:
192,192,40164,1,0,0:0:0:0:
109,192,40164,1,0,0:0:0:0:
402,192,40233,1,0,0:0:0:0:
320,192,40255,1,0,0:0:0:0:
448,192,40255,1,0,0:0:0:0:
109,192,40335,1,0,0:0:0:0:
192,192,40346,1,0,0:0:0:0:
64,192,40346,1,0,0:0:0:0:
320,192,40437,1,0,0:0:0:0:
448,192,40437,1,0,0:0:0:0:
402,192,40437,1,0,0:0:0:0:
192,192,40528,1,0,0:0:0:0:
64,192,40528,1,0,0:0:0:0:
109,192,40539,1,0,0:0:0:0:
402,192,40608,1,0,0:0:0:0:
320,192,40619,1,0,0:0:0:0:
448,192,40619,1,0,0:0:0:0:
64,192,40710,1,0,0:0:0:0:
192,192,40710,1,0,0:0:0:0:
320,192,40710,1,0,0:0:0:0:
448,192,40710,1,0,0:0:0:0:
402,192,40710,1,0,0:0:0:0:
109,192,40710,1,0,0:0:0:0:
320,192,40801,1,0,0:0:0:0:
448,192,40801,1,0,0:0:0:0:
402,192,40812,1,0,0:0:0:0:
109,192,40880,1,0,0:0:0:0:
192,192,40892,1,0,0:0:0:0:
64,192,40892,1,0,0:0:0:0:
320,192,40983,1,0,0:0:0:0:
448,192,40983,1,0,0:0:0:0:
402,192,40983,1,0,0:0:0:0:
109,192,41051,1,0,0:0:0:0:
192,192,41074,1,0,0:0:0:0:
64,192,41074,1,0,0:0:0:0:
402,192,41153,1,0,0:0:0:0:
320,192,41164,1,0,0:0:0:0:
448,192,41164,1,0,0:0:0:0:
192,192,41255,1,0,0:0:0:0:
64,192,41255,1,0,0:0:0:0:
109,192,41255,1,0,0:0:0:0:
320,192,41346,1,0,0:0:0:0:
448,192,41346,1,0,0:0:0:0:
402,192,41358,1,0,0:0:0:0:
109,192,41426,1,0,0:0:0:0:
192,192,41437,1,0,0:0:0:0:
64,192,41437,1,0,0:0:0:0:
448,192,41528,1,0,0:0:0:0:
320,192,41528,1,0,0:0:0:0:
64,192,41528,1,0,0:0:0:0:
192,192,41528,1,0,0:0:0:0:
109,192,41528,1,0,0:0:0:0:
402,192,41528,1,0,0:0:0:0:
64,192,41619,1,0,0:0:0:0:
192,192,41619,1,0,0:0:0:0:
109,192,41630,1,0,0:0:0:0:
402,192,41699,1,0,0:0:0:0:
320,192,41710,1,0,0:0:0:0:
448,192,41710,1,0,0:0:0:0:
64,192,41801,1,0,0:0:0:0:
109,192,41835,1,0,0:0:0:0:
192,192,41892,1,0,0:0:0:0:
256,192,41937,1,0,0:0:0:0:
320,192,41983,1,0,0:0:0:0:
402,192,42039,1,0,0:0:0:0:
448,192,42074,1,0,0:0:0:0:
64,192,42164,1,0,0:0:0:0:
109,192,42210,1,0,0:0:0:0:
192,192,42255,1,0,0:0:0:0:
320,192,42346,1,0,0:0:0:0:
64,192,42346,1,0,0:0:0:0:
192,192,42346,1,0,0:0:0:0:
448,192,42346,1,0,0:0:0:0:
256,192,42346,1,0,0:0:0:0:
109,192,42346,1,0,0:0:0:0:
402,192,42346,1,0,0:0:0:0:
448,192,42437,1,0,0:0:0:0:
192,192,42528,1,0,0:0:0:0:
109,192,42551,1,0,0:0:0:0:
64,192,42619,1,0,0:0:0:0:
320,192,42710,1,0,0:0:0:0:
402,192,42755,1,0,0:0:0:0:
448,192,42801,1,0,0:0:0:0:
256,192,42858,1,0,0:0:0:0:
64,192,42892,1,0,0:0:0:0:
320,192,42983,1,0,0:0:0:0:
256,192,43028,1,0,0:0:0:0:
192,192,43074,1,0,0:0:0:0:
109,192,43130,1,0,0:0:0:0:
64,192,43164,1,0,0:0:0:0:
448,192,43255,1,0,0:0:0:0:
192,192,43346,1,0,0:0:0:0:
256,192,43369,1,0,0:0:0:0:
320,192,43437,1,0,0:0:0:0:
448,192,43437,128,0,44255:0:0:0:0:
320,192,44255,1,0,0:0:0:0:
256,192,44289,1,0,0:0:0:0:
192,192,44324,1,0,0:0:0:0:
109,192,44358,1,0,0:0:0:0:
64,192,44392,1,0,0:0:0:0:
448,192,44460,1,0,0:0:0:0:
402,192,44494,1,0,0:0:0:0:
320,192,44528,1,0,0:0:0:0:
256,192,44562,1,0,0:0:0:0:
192,192,44596,1,0,0:0:0:0:
109,192,44630,1,0,0:0:0:0:
64,192,44664,1,0,0:0:0:0:
448,192,44733,1,0,0:0:0:0:
402,192,44767,1,0,0:0:0:0:
320,192,44801,1,0,0:0:0:0:
256,192,44835,1,0,0:0:0:0:
64,192,44869,1,0,0:0:0:0:
109,192,44903,1,0,0:0:0:0:
192,192,44937,1,0,0:0:0:0:
256,192,44971,1,0,0:0:0:0:
320,192,45005,1,0,0:0:0:0:
64,192,45074,128,0,45551:0:0:0:0:
192,192,45619,1,0,0:0:0:0:
320,192,45619,1,0,0:0:0:0:
448,192,45619,1,0,0:0:0:0:
64,192,45619,1,0,0:0:0:0:
256,192,45619,1,0,0:0:0:0:
109,192,45619,1,0,0:0:0:0:
402,192,45619,1,0,0:0:0:0:
448,192,45892,5,0,0:0:0:0:
402,192,45926,1,0,0:0:0:0:
320,192,45960,1,0,0:0:0:0:
256,192,45994,1,0,0:0:0:0:
192,192,46028,1,0,0:0:0:0:
109,192,46062,1,0,0:0:0:0:
64,192,46096,1,0,0:0:0:0:
448,192,46164,1,0,0:0:0:0:
402,192,46199,1,0,0:0:0:0:
320,192,46233,1,0,0:0:0:0:
256,192,46267,1,0,0:0:0:0:
192,192,46301,1,0,0:0:0:0:
109,192,46301,1,0,0:0:0:0:
64,192,46369,1,0,0:0:0:0:
448,192,46437,1,0,0:0:0:0:
402,192,46471,1,0,0:0:0:0:
320,192,46505,1,0,0:0:0:0:
64,192,46574,1,0,0:0:0:0:
109,192,46608,1,0,0:0:0:0:
192,192,46642,1,0,0:0:0:0:
329,192,46710,1,0,0:0:0:0:
402,192,46710,1,0,0:0:0:0:
64,192,46710,1,0,0:0:0:0:
256,192,46710,1,0,0:0:0:0:
448,192,46710,128,0,46983:0:0:0:0:
109,192,46710,1,0,0:0:0:0:
448,192,47255,1,0,0:0:0:0:
320,192,47255,1,0,0:0:0:0:
192,192,47255,1,0,0:0:0:0:
64,192,47255,128,0,47460:0:0:0:0:
256,192,47255,1,0,0:0:0:0:
109,192,47255,1,0,0:0:0:0:
402,192,47255,1,0,0:0:0:0:
64,192,47528,1,0,0:0:0:0:
192,192,47528,1,0,0:0:0:0:
320,192,47528,1,0,0:0:0:0:
448,192,47528,128,0,47801:0:0:0:0:
256,192,47528,1,0,0:0:0:0:
109,192,47528,1,0,0:0:0:0:
402,192,47528,1,0,0:0:0:0:
448,192,48074,1,0,0:0:0:0:
320,192,48074,1,0,0:0:0:0:
64,192,48074,1,0,0:0:0:0:
192,192,48074,128,0,48278:0:0:0:0:
256,192,48074,1,0,0:0:0:0:
109,192,48074,1,0,0:0:0:0:
402,192,48074,1,0,0:0:0:0:
64,192,48346,1,0,0:0:0:0:
192,192,48346,1,0,0:0:0:0:
448,192,48346,1,0,0:0:0:0:
320,192,48346,128,0,48551:0:0:0:0:
256,192,48346,1,0,0:0:0:0:
109,192,48346,1,0,0:0:0:0:
402,192,48346,1,0,0:0:0:0:
64,192,48619,1,0,0:0:0:0:
192,192,48619,1,0,0:0:0:0:
320,192,48619,1,0,0:0:0:0:
448,192,48619,128,0,48824:0:0:0:0:
256,192,48619,1,0,0:0:0:0:
109,192,48619,1,0,0:0:0:0:
402,192,48619,1,0,0:0:0:0:
448,192,48892,1,0,0:0:0:0:
192,192,48892,1,0,0:0:0:0:
64,192,48892,1,0,0:0:0:0:
320,192,48892,128,0,49096:0:0:0:0:
256,192,48892,1,0,0:0:0:0:
402,192,48892,1,0,0:0:0:0:
109,192,48892,1,0,0:0:0:0:
320,192,49164,1,0,0:0:0:0:
448,192,49164,1,0,0:0:0:0:
64,192,49164,128,0,49642:0:0:0:0:
192,192,49164,128,0,49437:0:0:0:0:
256,192,49164,1,0,0:0:0:0:
109,192,49164,1,0,0:0:0:0:
402,192,49164,1,0,0:0:0:0:
448,192,49710,1,0,0:0:0:0:
320,192,49710,1,0,0:0:0:0:
192,192,49710,1,0,0:0:0:0:
64,192,49710,1,0,0:0:0:0:
256,192,49710,1,0,0:0:0:0:
109,192,49710,1,0,0:0:0:0:
402,192,49710,1,0,0:0:0:0:
448,192,49983,1,0,0:0:0:0:
64,192,49983,1,0,0:0:0:0:
320,192,49983,1,0,0:0:0:0:
109,192,49983,1,0,0:0:0:0:
192,192,50119,1,0,0:0:0:0:
320,192,50119,1,0,0:0:0:0:
256,192,50119,1,0,0:0:0:0:
448,192,50187,1,0,0:0:0:0:
192,192,50255,1,0,0:0:0:0:
64,192,50255,1,0,0:0:0:0:
320,192,50255,1,0,0:0:0:0:
402,192,50255,1,0,0:0:0:0:
448,192,50392,1,0,0:0:0:0:
320,192,50392,1,0,0:0:0:0:
256,192,50392,1,0,0:0:0:0:
109,192,50528,1,0,0:0:0:0:
64,192,50528,1,0,0:0:0:0:
192,192,50528,1,0,0:0:0:0:
448,192,50528,1,0,0:0:0:0:
192,192,50664,1,0,0:0:0:0:
320,192,50664,1,0,0:0:0:0:
256,192,50664,1,0,0:0:0:0:
448,192,50801,1,0,0:0:0:0:
320,192,50801,1,0,0:0:0:0:
64,192,50801,1,0,0:0:0:0:
402,192,50801,1,0,0:0:0:0:
64,192,50937,1,0,0:0:0:0:
192,192,50937,1,0,0:0:0:0:
109,192,50937,1,0,0:0:0:0:
448,192,51005,1,0,0:0:0:0:
320,192,51074,1,0,0:0:0:0:
192,192,51074,1,0,0:0:0:0:
64,192,51074,1,0,0:0:0:0:
256,192,51074,1,0,0:0:0:0:
109,192,51074,1,0,0:0:0:0:
448,192,51210,1,0,0:0:0:0:
320,192,51210,1,0,0:0:0:0:
402,192,51210,1,0,0:0:0:0:
64,192,51346,1,0,0:0:0:0:
448,192,51346,1,0,0:0:0:0:
320,192,51346,1,0,0:0:0:0:
256,192,51346,1,0,0:0:0:0:
109,192,51483,1,0,0:0:0:0:
192,192,51483,1,0,0:0:0:0:
64,192,51483,1,0,0:0:0:0:
448,192,51619,1,0,0:0:0:0:
256,192,51619,1,0,0:0:0:0:
64,192,51755,1,0,0:0:0:0:
182,192,51755,1,0,0:0:0:0:
320,192,51892,1,0,0:0:0:0:
402,192,51960,1,0,0:0:0:0:
448,192,52028,1,0,0:0:0:0:
64,192,52164,1,0,0:0:0:0:
192,192,52164,1,0,0:0:0:0:
320,192,52164,1,0,0:0:0:0:
448,192,52164,1,0,0:0:0:0:
256,192,52164,1,0,0:0:0:0:
109,192,52164,1,0,0:0:0:0:
402,192,52164,1,0,0:0:0:0:
448,192,52437,1,0,0:0:0:0:
320,192,52437,1,0,0:0:0:0:
192,192,52437,1,0,0:0:0:0:
64,192,52437,1,0,0:0:0:0:
109,192,52437,1,0,0:0:0:0:
402,192,52437,1,0,0:0:0:0:
256,192,52437,1,0,0:0:0:0:
64,192,52710,128,0,53187:0:0:0:0:
448,192,52710,128,0,53187:0:0:0:0:
256,192,52710,128,0,53255:0:0:0:0:
448,192,53255,1,0,0:0:0:0:
320,192,53255,1,0,0:0:0:0:
64,192,53255,1,0,0:0:0:0:
192,192,53255,128,0,53528:0:0:0:0:
109,192,53255,1,0,0:0:0:0:
402,192,53255,1,0,0:0:0:0:
64,192,53801,1,0,0:0:0:0:
192,192,53801,1,0,0:0:0:0:
320,192,53801,1,0,0:0:0:0:
448,192,53801,128,0,54005:0:0:0:0:
256,192,53801,1,0,0:0:0:0:
109,192,53801,1,0,0:0:0:0:
402,192,53801,1,0,0:0:0:0:
448,192,54074,1,0,0:0:0:0:
320,192,54074,1,0,0:0:0:0:
64,192,54074,1,0,0:0:0:0:
192,192,54074,128,0,54346:0:0:0:0:
109,192,54074,1,0,0:0:0:0:
256,192,54074,1,0,0:0:0:0:
402,192,54074,1,0,0:0:0:0:
448,192,54619,1,0,0:0:0:0:
192,192,54619,1,0,0:0:0:0:
64,192,54619,1,0,0:0:0:0:
320,192,54619,128,0,54824:0:0:0:0:
109,192,54619,1,0,0:0:0:0:
256,192,54619,1,0,0:0:0:0:
402,192,54619,1,0,0:0:0:0:
320,192,54892,1,0,0:0:0:0:
448,192,54892,1,0,0:0:0:0:
192,192,54892,1,0,0:0:0:0:
64,192,54892,128,0,55096:0:0:0:0:
109,192,54892,1,0,0:0:0:0:
256,192,54892,1,0,0:0:0:0:
402,192,54892,1,0,0:0:0:0:
448,192,55164,1,0,0:0:0:0:
64,192,55164,1,0,0:0:0:0:
320,192,55164,1,0,0:0:0:0:
192,192,55164,128,0,55369:0:0:0:0:
109,192,55164,1,0,0:0:0:0:
256,192,55164,1,0,0:0:0:0:
402,192,55164,1,0,0:0:0:0:
64,192,55437,1,0,0:0:0:0:
320,192,55437,1,0,0:0:0:0:
192,192,55437,1,0,0:0:0:0:
448,192,55437,128,0,55710:0:0:0:0:
109,192,55437,1,0,0:0:0:0:
256,192,55437,1,0,0:0:0:0:
402,192,55437,1,0,0:0:0:0:
64,192,55710,128,0,56187:0:0:0:0:
109,192,55778,1,0,0:0:0:0:
192,192,55846,1,0,0:0:0:0:
256,192,55914,1,0,0:0:0:0:
320,192,55983,1,0,0:0:0:0:
402,192,56051,1,0,0:0:0:0:
448,192,56119,1,0,0:0:0:0:
64,192,56255,1,0,0:0:0:0:
320,192,56255,1,0,0:0:0:0:
448,192,56255,1,0,0:0:0:0:
192,192,56255,1,0,0:0:0:0:
109,192,56255,1,0,0:0:0:0:
256,192,56255,1,0,0:0:0:0:
402,192,56255,1,0,0:0:0:0:
448,192,56528,1,0,0:0:0:0:
320,192,56528,1,0,0:0:0:0:
64,192,56528,1,0,0:0:0:0:
192,192,56528,1,0,0:0:0:0:
109,192,56528,1,0,0:0:0:0:
256,192,56528,1,0,0:0:0:0:
402,192,56528,1,0,0:0:0:0:
192,192,56664,1,0,0:0:0:0:
320,192,56664,1,0,0:0:0:0:
256,192,56664,1,0,0:0:0:0:
402,192,56733,1,0,0:0:0:0:
109,192,56733,1,0,0:0:0:0:
64,192,56801,1,0,0:0:0:0:
192,192,56801,1,0,0:0:0:0:
320,192,56801,1,0,0:0:0:0:
448,192,56801,1,0,0:0:0:0:
256,192,56801,1,0,0:0:0:0:
448,192,56937,1,0,0:0:0:0:
64,192,56937,1,0,0:0:0:0:
256,192,56937,1,0,0:0:0:0:
448,192,57074,1,0,0:0:0:0:
320,192,57074,1,0,0:0:0:0:
192,192,57074,1,0,0:0:0:0:
64,192,57074,1,0,0:0:0:0:
256,192,57074,1,0,0:0:0:0:
64,192,57210,1,0,0:0:0:0:
320,192,57210,1,0,0:0:0:0:
256,192,57210,1,0,0:0:0:0:
182,192,57210,1,0,0:0:0:0:
475,192,57210,1,0,0:0:0:0:
64,192,57346,1,0,0:0:0:0:
448,192,57346,1,0,0:0:0:0:
320,192,57346,1,0,0:0:0:0:
192,192,57346,1,0,0:0:0:0:
256,192,57346,1,0,0:0:0:0:
192,192,57483,1,0,0:0:0:0:
320,192,57483,1,0,0:0:0:0:
256,192,57483,1,0,0:0:0:0:
402,192,57551,1,0,0:0:0:0:
109,192,57551,1,0,0:0:0:0:
192,192,57619,1,0,0:0:0:0:
320,192,57619,1,0,0:0:0:0:
64,192,57619,1,0,0:0:0:0:
448,192,57619,1,0,0:0:0:0:
192,192,57755,1,0,0:0:0:0:
329,192,57755,1,0,0:0:0:0:
448,192,57892,1,0,0:0:0:0:
320,192,57892,1,0,0:0:0:0:
192,192,57892,1,0,0:0:0:0:
64,192,57892,1,0,0:0:0:0:
256,192,57892,1,0,0:0:0:0:
109,192,58028,1,0,0:0:0:0:
402,192,58028,1,0,0:0:0:0:
448,192,58164,1,0,0:0:0:0:
320,192,58164,1,0,0:0:0:0:
192,192,58164,1,0,0:0:0:0:
64,192,58164,1,0,0:0:0:0:
256,192,58164,1,0,0:0:0:0:
109,192,58233,1,0,0:0:0:0:
448,192,58301,1,0,0:0:0:0:
192,192,58301,1,0,0:0:0:0:
256,192,58369,1,0,0:0:0:0:
320,192,58437,1,0,0:0:0:0:
64,192,58437,1,0,0:0:0:0:
192,192,58574,1,0,0:0:0:0:
448,192,58574,1,0,0:0:0:0:
256,192,58574,1,0,0:0:0:0:
64,192,58710,128,0,58846:0:0:0:0:
192,192,58710,128,0,58846:0:0:0:0:
109,192,58710,1,0,0:0:0:0:
448,192,58846,128,0,58983:0:0:0:0:
320,192,58846,128,0,58983:0:0:0:0:
402,192,58846,1,0,0:0:0:0:
64,192,58983,1,0,0:0:0:0:
192,192,58983,1,0,0:0:0:0:
109,192,58983,1,0,0:0:0:0:
320,192,59051,1,0,0:0:0:0:
448,192,59051,1,0,0:0:0:0:
402,192,59051,1,0,0:0:0:0:
192,192,59119,1,0,0:0:0:0:
64,192,59119,1,0,0:0:0:0:
109,192,59119,1,0,0:0:0:0:
320,192,59187,1,0,0:0:0:0:
448,192,59187,1,0,0:0:0:0:
402,192,59187,1,0,0:0:0:0:
64,192,59255,1,0,0:0:0:0:
192,192,59255,128,0,59324:0:0:0:0:
109,192,59255,1,0,0:0:0:0:
64,192,59528,1,0,0:0:0:0:
448,192,59528,1,0,0:0:0:0:
256,192,59528,1,0,0:0:0:0:
64,192,59801,1,0,0:0:0:0:
192,192,59801,1,0,0:0:0:0:
448,192,59801,1,0,0:0:0:0:
320,192,59801,128,0,60074:0:0:0:0:
109,192,59801,1,0,0:0:0:0:
256,192,59801,1,0,0:0:0:0:
402,192,59801,1,0,0:0:0:0:
448,192,60346,1,0,0:0:0:0:
320,192,60346,1,0,0:0:0:0:
192,192,60346,1,0,0:0:0:0:
64,192,60346,128,0,60551:0:0:0:0:
109,192,60346,1,0,0:0:0:0:
256,192,60346,1,0,0:0:0:0:
402,192,60346,1,0,0:0:0:0:
64,192,60619,1,0,0:0:0:0:
192,192,60619,1,0,0:0:0:0:
448,192,60619,1,0,0:0:0:0:
320,192,60619,128,0,60892:0:0:0:0:
109,192,60619,1,0,0:0:0:0:
256,192,60619,1,0,0:0:0:0:
402,192,60619,1,0,0:0:0:0:
64,192,61164,1,0,0:0:0:0:
320,192,61164,1,0,0:0:0:0:
448,192,61164,1,0,0:0:0:0:
192,192,61164,128,0,61369:0:0:0:0:
109,192,61164,1,0,0:0:0:0:
256,192,61164,1,0,0:0:0:0:
402,192,61164,1,0,0:0:0:0:
192,192,61437,1,0,0:0:0:0:
64,192,61437,1,0,0:0:0:0:
320,192,61437,1,0,0:0:0:0:
448,192,61437,128,0,61642:0:0:0:0:
109,192,61437,1,0,0:0:0:0:
256,192,61437,1,0,0:0:0:0:
402,192,61437,1,0,0:0:0:0:
64,192,61710,1,0,0:0:0:0:
448,192,61710,1,0,0:0:0:0:
192,192,61710,1,0,0:0:0:0:
320,192,61710,128,0,61914:0:0:0:0:
109,192,61710,1,0,0:0:0:0:
256,192,61710,1,0,0:0:0:0:
402,192,61710,1,0,0:0:0:0:
448,192,61983,1,0,0:0:0:0:
192,192,61983,1,0,0:0:0:0:
320,192,61983,1,0,0:0:0:0:
64,192,61983,128,0,62187:0:0:0:0:
109,192,61983,1,0,0:0:0:0:
256,192,61983,1,0,0:0:0:0:
402,192,61983,1,0,0:0:0:0:
192,192,62255,1,0,0:0:0:0:
64,192,62255,1,0,0:0:0:0:
320,192,62255,128,0,62801:0:0:0:0:
448,192,62255,128,0,62528:0:0:0:0:
109,192,62255,1,0,0:0:0:0:
256,192,62255,1,0,0:0:0:0:
402,192,62255,1,0,0:0:0:0:
192,192,63074,1,0,0:0:0:0:
320,192,63074,1,0,0:0:0:0:
448,192,63074,1,0,0:0:0:0:
64,192,63074,128,0,63346:0:0:0:0:
109,192,63074,1,0,0:0:0:0:
256,192,63074,1,0,0:0:0:0:
402,192,63074,1,0,0:0:0:0:
448,192,63346,128,0,63619:0:0:0:0:
320,192,63346,1,0,0:0:0:0:
192,192,63346,1,0,0:0:0:0:
109,192,63346,1,0,0:0:0:0:
256,192,63346,1,0,0:0:0:0:
402,192,63346,1,0,0:0:0:0:
64,192,63619,128,0,63892:0:0:0:0:
192,192,63619,1,0,0:0:0:0:
320,192,63619,1,0,0:0:0:0:
109,192,63619,1,0,0:0:0:0:
256,192,63619,1,0,0:0:0:0:
402,192,63619,1,0,0:0:0:0:
448,192,63892,128,0,64164:0:0:0:0:
192,192,63892,1,0,0:0:0:0:
320,192,63892,1,0,0:0:0:0:
109,192,63892,1,0,0:0:0:0:
256,192,63892,1,0,0:0:0:0:
402,192,63892,1,0,0:0:0:0:
64,192,64164,128,0,64437:0:0:0:0:
320,192,64164,1,0,0:0:0:0:
192,192,64164,1,0,0:0:0:0:
109,192,64164,1,0,0:0:0:0:
256,192,64164,1,0,0:0:0:0:
402,192,64164,1,0,0:0:0:0:
448,192,64437,128,0,64710:0:0:0:0:
192,192,64437,1,0,0:0:0:0:
320,192,64437,1,0,0:0:0:0:
109,192,64437,1,0,0:0:0:0:
256,192,64437,1,0,0:0:0:0:
402,192,64437,1,0,0:0:0:0:
64,192,64710,1,0,0:0:0:0:
320,192,64710,1,0,0:0:0:0:
192,192,64710,1,0,0:0:0:0:
109,192,64710,1,0,0:0:0:0:
256,192,64710,1,0,0:0:0:0:
402,192,64710,1,0,0:0:0:0:
192,192,64846,1,0,0:0:0:0:
448,192,64846,1,0,0:0:0:0:
320,192,64846,1,0,0:0:0:0:
256,192,64846,1,0,0:0:0:0:
402,192,64846,1,0,0:0:0:0:
320,192,64983,1,0,0:0:0:0:
192,192,64983,1,0,0:0:0:0:
64,192,64983,1,0,0:0:0:0:
109,192,64983,1,0,0:0:0:0:
256,192,64983,1,0,0:0:0:0:
192,192,65119,1,0,0:0:0:0:
320,192,65119,1,0,0:0:0:0:
448,192,65119,1,0,0:0:0:0:
256,192,65119,1,0,0:0:0:0:
402,192,65119,1,0,0:0:0:0:
64,192,65255,1,0,0:0:0:0:
109,192,65289,1,0,0:0:0:0:
192,192,65324,1,0,0:0:0:0:
256,192,65358,1,0,0:0:0:0:
320,192,65392,1,0,0:0:0:0:
402,192,65426,1,0,0:0:0:0:
448,192,65460,1,0,0:0:0:0:
64,192,65528,1,0,0:0:0:0:
192,192,65528,1,0,0:0:0:0:
320,192,65528,1,0,0:0:0:0:
109,192,65528,1,0,0:0:0:0:
256,192,65528,1,0,0:0:0:0:
448,192,65619,1,0,0:0:0:0:
109,192,65699,1,0,0:0:0:0:
64,192,65710,1,0,0:0:0:0:
192,192,65710,1,0,0:0:0:0:
320,192,65801,1,0,0:0:0:0:
448,192,65801,1,0,0:0:0:0:
402,192,65801,1,0,0:0:0:0:
64,192,65892,1,0,0:0:0:0:
402,192,65971,1,0,0:0:0:0:
320,192,65983,1,0,0:0:0:0:
448,192,65983,1,0,0:0:0:0:
192,192,66074,1,0,0:0:0:0:
64,192,66074,1,0,0:0:0:0:
109,192,66074,1,0,0:0:0:0:
448,192,66164,1,0,0:0:0:0:
109,192,66244,1,0,0:0:0:0:
192,192,66255,1,0,0:0:0:0:
64,192,66255,1,0,0:0:0:0:
320,192,66346,1,0,0:0:0:0:
192,192,66346,1,0,0:0:0:0:
64,192,66346,1,0,0:0:0:0:
448,192,66346,128,0,66619:0:0:0:0:
256,192,66346,1,0,0:0:0:0:
109,192,66346,1,0,0:0:0:0:
402,192,66346,1,0,0:0:0:0:
320,192,66892,1,0,0:0:0:0:
448,192,66892,1,0,0:0:0:0:
192,192,66892,1,0,0:0:0:0:
64,192,66892,128,0,67096:0:0:0:0:
109,192,66892,1,0,0:0:0:0:
256,192,66892,1,0,0:0:0:0:
402,192,66892,1,0,0:0:0:0:
64,192,67164,1,0,0:0:0:0:
320,192,67164,1,0,0:0:0:0:
448,192,67164,128,0,67437:0:0:0:0:
192,192,67164,128,0,67642:0:0:0:0:
109,192,67164,1,0,0:0:0:0:
256,192,67164,1,0,0:0:0:0:
402,192,67164,1,0,0:0:0:0:
192,192,67710,5,0,0:0:0:0:
64,192,67710,1,0,0:0:0:0:
448,192,67710,1,0,0:0:0:0:
320,192,67710,128,0,67914:0:0:0:0:
109,192,67710,1,0,0:0:0:0:
256,192,67710,1,0,0:0:0:0:
402,192,67710,1,0,0:0:0:0:
320,192,67983,1,0,0:0:0:0:
448,192,67983,1,0,0:0:0:0:
192,192,67983,1,0,0:0:0:0:
64,192,67983,128,0,68187:0:0:0:0:
109,192,67983,1,0,0:0:0:0:
256,192,67983,1,0,0:0:0:0:
402,192,67983,1,0,0:0:0:0:
64,192,68255,1,0,0:0:0:0:
320,192,68255,1,0,0:0:0:0:
448,192,68255,1,0,0:0:0:0:
192,192,68255,128,0,68460:0:0:0:0:
109,192,68255,1,0,0:0:0:0:
256,192,68255,1,0,0:0:0:0:
402,192,68255,1,0,0:0:0:0:
448,192,68528,1,0,0:0:0:0:
192,192,68528,1,0,0:0:0:0:
64,192,68528,1,0,0:0:0:0:
320,192,68528,128,0,68733:0:0:0:0:
402,192,68528,1,0,0:0:0:0:
256,192,68528,1,0,0:0:0:0:
109,192,68528,1,0,0:0:0:0:
64,192,68801,128,0,68869:0:0:0:0:
192,192,68801,1,0,0:0:0:0:
320,192,68801,1,0,0:0:0:0:
448,192,68801,1,0,0:0:0:0:
109,192,68801,1,0,0:0:0:0:
256,192,68801,1,0,0:0:0:0:
402,192,68801,1,0,0:0:0:0:
448,192,68869,128,0,68937:0:0:0:0:
109,192,68903,128,0,68971:0:0:0:0:
192,192,68937,128,0,69005:0:0:0:0:
256,192,68971,128,0,69039:0:0:0:0:
320,192,69005,128,0,69074:0:0:0:0:
402,192,69039,128,0,69108:0:0:0:0:
64,192,69074,128,0,69142:0:0:0:0:
448,192,69142,128,0,69210:0:0:0:0:
109,192,69142,128,0,69210:0:0:0:0:
192,192,69176,128,0,69244:0:0:0:0:
256,192,69244,128,0,69312:0:0:0:0:
320,192,69278,128,0,69346:0:0:0:0:
402,192,69312,128,0,69380:0:0:0:0:
64,192,69346,128,0,69414:0:0:0:0:
109,192,69414,128,0,69483:0:0:0:0:
448,192,69414,128,0,69483:0:0:0:0:
109,192,69551,128,0,69619:0:0:0:0:
402,192,69551,128,0,69619:0:0:0:0:
256,192,69551,128,0,69619:0:0:0:0:
320,192,69551,1,0,0:0:0:0:
182,192,69551,1,0,0:0:0:0:
192,192,69619,1,0,0:0:0:0:
320,192,69619,1,0,0:0:0:0:
64,192,69619,128,0,69824:0:0:0:0:
448,192,69619,128,0,69824:0:0:0:0:
64,192,69892,1,0,0:0:0:0:
448,192,69892,1,0,0:0:0:0:
320,192,69892,128,0,70096:0:0:0:0:
192,192,69892,128,0,70096:0:0:0:0:
109,192,69892,1,0,0:0:0:0:
256,192,69892,1,0,0:0:0:0:
402,192,69892,1,0,0:0:0:0:
192,192,70164,1,0,0:0:0:0:
64,192,70164,1,0,0:0:0:0:
448,192,70164,128,0,70369:0:0:0:0:
320,192,70164,128,0,70369:0:0:0:0:
109,192,70164,1,0,0:0:0:0:
256,192,70164,1,0,0:0:0:0:
402,192,70164,1,0,0:0:0:0:
320,192,70437,1,0,0:0:0:0:
448,192,70437,1,0,0:0:0:0:
192,192,70437,128,0,70642:0:0:0:0:
64,192,70437,128,0,70642:0:0:0:0:
109,192,70437,1,0,0:0:0:0:
256,192,70437,1,0,0:0:0:0:
402,192,70437,1,0,0:0:0:0:
448,192,70710,1,0,0:0:0:0:
64,192,70710,1,0,0:0:0:0:
320,192,70710,128,0,70914:0:0:0:0:
192,192,70710,128,0,70914:0:0:0:0:
109,192,70710,1,0,0:0:0:0:
256,192,70710,1,0,0:0:0:0:
402,192,70710,1,0,0:0:0:0:
192,192,70983,5,0,0:0:0:0:
448,192,70983,1,0,0:0:0:0:
320,192,70983,128,0,71187:0:0:0:0:
64,192,70983,128,0,71187:0:0:0:0:
109,192,70983,1,0,0:0:0:0:
256,192,70983,1,0,0:0:0:0:
402,192,70983,1,0,0:0:0:0:
448,192,71255,128,0,71801:0:0:0:0:
192,192,71255,128,0,71801:0:0:0:0:
192,192,72074,5,0,0:0:0:0:
320,192,72074,1,0,0:0:0:0:
448,192,72074,1,0,0:0:0:0:
64,192,72074,128,0,72278:0:0:0:0:
109,192,72074,1,0,0:0:0:0:
256,192,72074,1,0,0:0:0:0:
402,192,72074,1,0,0:0:0:0:
64,192,72346,128,0,72551:0:0:0:0:
192,192,72346,1,0,0:0:0:0:
320,192,72346,1,0,0:0:0:0:
448,192,72346,1,0,0:0:0:0:
109,192,72346,1,0,0:0:0:0:
256,192,72346,1,0,0:0:0:0:
402,192,72346,1,0,0:0:0:0:
448,192,72619,1,0,0:0:0:0:
192,192,72619,1,0,0:0:0:0:
320,192,72619,1,0,0:0:0:0:
64,192,72619,128,0,72824:0:0:0:0:
109,192,72619,1,0,0:0:0:0:
256,192,72619,1,0,0:0:0:0:
402,192,72619,1,0,0:0:0:0:
64,192,72892,1,0,0:0:0:0:
320,192,72892,1,0,0:0:0:0:
192,192,72892,1,0,0:0:0:0:
448,192,72892,1,0,0:0:0:0:
109,192,72892,1,0,0:0:0:0:
256,192,72892,1,0,0:0:0:0:
402,192,72892,1,0,0:0:0:0:
448,192,73164,1,0,0:0:0:0:
320,192,73164,1,0,0:0:0:0:
402,192,73164,1,0,0:0:0:0:
64,192,73437,1,0,0:0:0:0:
448,192,73437,1,0,0:0:0:0:
256,192,73437,1,0,0:0:0:0:
109,192,73539,1,0,0:0:0:0:
192,192,73642,1,0,0:0:0:0:
448,192,73710,1,0,0:0:0:0:
320,192,73710,1,0,0:0:0:0:
256,192,73710,1,0,0:0:0:0:
402,192,73710,1,0,0:0:0:0:
64,192,73983,1,0,0:0:0:0:
109,192,73983,1,0,0:0:0:0:
192,192,74000,1,0,0:0:0:0:
256,192,74119,1,0,0:0:0:0:
448,192,74164,1,0,0:0:0:0:
192,192,74255,1,0,0:0:0:0:
320,192,74272,1,0,0:0:0:0:
109,192,74392,1,0,0:0:0:0:
402,192,74392,1,0,0:0:0:0:
64,192,74528,1,0,0:0:0:0:
192,192,74528,1,0,0:0:0:0:
329,192,74528,1,0,0:0:0:0:
448,192,74801,1,0,0:0:0:0:
256,192,74801,1,0,0:0:0:0:
320,192,75074,1,0,0:0:0:0:
64,192,75074,1,0,0:0:0:0:
109,192,75074,1,0,0:0:0:0:
182,192,75210,1,0,0:0:0:0:
448,192,75346,1,0,0:0:0:0:
256,192,75346,1,0,0:0:0:0:
192,192,75619,1,0,0:0:0:0:
36,192,75619,1,0,0:0:0:0:
320,192,75636,1,0,0:0:0:0:
448,192,75892,1,0,0:0:0:0:
320,192,75892,1,0,0:0:0:0:
109,192,75892,1,0,0:0:0:0:
402,192,75892,1,0,0:0:0:0:
64,192,76028,1,0,0:0:0:0:
192,192,76028,1,0,0:0:0:0:
320,192,76096,1,0,0:0:0:0:
448,192,76164,1,0,0:0:0:0:
64,192,76164,1,0,0:0:0:0:
256,192,76164,1,0,0:0:0:0:
109,192,76335,1,0,0:0:0:0:
192,192,76437,1,0,0:0:0:0:
320,192,76454,1,0,0:0:0:0:
256,192,76505,1,0,0:0:0:0:
320,192,76574,1,0,0:0:0:0:
448,192,76710,1,0,0:0:0:0:
64,192,76761,1,0,0:0:0:0:
109,192,76812,1,0,0:0:0:0:
192,192,76846,1,0,0:0:0:0:
448,192,76983,1,0,0:0:0:0:
320,192,76983,1,0,0:0:0:0:
109,192,76983,1,0,0:0:0:0:
64,192,77074,1,0,0:0:0:0:
256,192,77085,1,0,0:0:0:0:
192,192,77164,1,0,0:0:0:0:
320,192,77255,1,0,0:0:0:0:
64,192,77255,1,0,0:0:0:0:
109,192,77324,1,0,0:0:0:0:
448,192,77346,1,0,0:0:0:0:
192,192,77437,1,0,0:0:0:0:
64,192,77528,1,0,0:0:0:0:
448,192,77528,1,0,0:0:0:0:
256,192,77528,1,0,0:0:0:0:
320,192,77619,1,0,0:0:0:0:
109,192,77630,1,0,0:0:0:0:
64,192,77710,1,0,0:0:0:0:
192,192,77801,1,0,0:0:0:0:
320,192,77801,1,0,0:0:0:0:
256,192,77801,1,0,0:0:0:0:
448,192,77869,1,0,0:0:0:0:
64,192,77937,1,0,0:0:0:0:
402,192,77937,1,0,0:0:0:0:
320,192,78005,1,0,0:0:0:0:
256,192,78039,1,0,0:0:0:0:
192,192,78074,1,0,0:0:0:0:
448,192,78074,1,0,0:0:0:0:
109,192,78108,1,0,0:0:0:0:
64,192,78142,1,0,0:0:0:0:
448,192,78210,1,0,0:0:0:0:
182,192,78210,1,0,0:0:0:0:
320,192,78278,1,0,0:0:0:0:
64,192,78346,1,0,0:0:0:0:
448,192,78346,1,0,0:0:0:0:
256,192,78346,1,0,0:0:0:0:
192,192,78414,1,0,0:0:0:0:
320,192,78483,1,0,0:0:0:0:
448,192,78551,1,0,0:0:0:0:
109,192,78551,1,0,0:0:0:0:
402,192,78551,128,0,78687:0:0:0:0:
256,192,78551,128,0,79983:0:0:0:0:
64,192,78619,1,0,0:0:0:0:
192,192,78619,128,0,78755:0:0:0:0:
320,192,78687,128,0,78824:0:0:0:0:
402,192,78755,128,0,78892:0:0:0:0:
109,192,78755,128,0,78892:0:0:0:0:
192,192,78824,128,0,78960:0:0:0:0:
36,192,78858,128,0,78994:0:0:0:0:
475,192,78858,128,0,78994:0:0:0:0:
320,192,78892,128,0,79028:0:0:0:0:
402,192,78960,128,0,79096:0:0:0:0:
109,192,78960,128,0,79096:0:0:0:0:
192,192,79028,128,0,79164:0:0:0:0:
36,192,79096,128,0,79233:0:0:0:0:
402,192,79164,128,0,79301:0:0:0:0:
320,192,79164,1,0,0:0:0:0:
448,192,79164,128,0,79369:0:0:0:0:
109,192,79164,128,0,79301:0:0:0:0:
329,192,79233,128,0,79369:0:0:0:0:
182,192,79233,128,0,79369:0:0:0:0:
64,192,79437,128,0,79983:0:0:0:0:
192,192,79437,128,0,79983:0:0:0:0:
109,192,79437,128,0,79983:0:0:0:0:
320,192,79437,128,0,79983:0:0:0:0:
402,192,79437,128,0,79983:0:0:0:0:
448,192,79437,128,0,79983:0:0:0:0:
36,192,80119,1,0,0:0:0:0:
109,192,80119,1,0,0:0:0:0:
182,192,80119,1,0,0:0:0:0:
256,192,80119,1,0,0:0:0:0:
329,192,80119,1,0,0:0:0:0:
402,192,80119,1,0,0:0:0:0:
475,192,80119,1,0,0:0:0:0:
64,192,80255,1,0,0:0:0:0:
192,192,80255,1,0,0:0:0:0:
320,192,80255,128,0,80801:0:0:0:0:
448,192,80255,128,0,80801:0:0:0:0:
109,192,80324,1,0,0:0:0:0:
256,192,80358,1,0,0:0:0:0:
64,192,80392,1,0,0:0:0:0:
402,192,80392,1,0,0:0:0:0:
192,192,80460,1,0,0:0:0:0:
109,192,80528,1,0,0:0:0:0:
402,192,80528,1,0,0:0:0:0:
192,192,80596,1,0,0:0:0:0:
64,192,80596,1,0,0:0:0:0:
109,192,80664,1,0,0:0:0:0:
182,192,80733,1,0,0:0:0:0:
64,192,80801,1,0,0:0:0:0:
402,192,80801,1,0,0:0:0:0:
109,192,80801,1,0,0:0:0:0:
182,192,80801,1,0,0:0:0:0:
256,192,80801,1,0,0:0:0:0:
182,192,80903,1,0,0:0:0:0:
329,192,80971,1,0,0:0:0:0:
448,192,81074,1,0,0:0:0:0:
64,192,81074,1,0,0:0:0:0:
192,192,81074,128,0,81619:0:0:0:0:
320,192,81074,128,0,81619:0:0:0:0:
109,192,81074,1,0,0:0:0:0:
256,192,81074,1,0,0:0:0:0:
402,192,81074,1,0,0:0:0:0:
256,192,81619,1,0,0:0:0:0:
36,192,81619,1,0,0:0:0:0:
109,192,81619,1,0,0:0:0:0:
402,192,81619,1,0,0:0:0:0:
475,192,81619,1,0,0:0:0:0:
192,192,81892,1,0,0:0:0:0:
64,192,81892,1,0,0:0:0:0:
320,192,81892,1,0,0:0:0:0:
448,192,81892,128,0,82096:0:0:0:0:
109,192,81892,1,0,0:0:0:0:
256,192,81892,1,0,0:0:0:0:
402,192,81892,1,0,0:0:0:0:
109,192,82164,1,0,0:0:0:0:
448,192,82164,1,0,0:0:0:0:
320,192,82164,1,0,0:0:0:0:
192,192,82164,1,0,0:0:0:0:
64,192,82164,128,0,82369:0:0:0:0:
256,192,82164,1,0,0:0:0:0:
402,192,82164,1,0,0:0:0:0:
64,192,82437,1,0,0:0:0:0:
192,192,82437,1,0,0:0:0:0:
320,192,82437,1,0,0:0:0:0:
448,192,82437,128,0,82642:0:0:0:0:
109,192,82437,1,0,0:0:0:0:
256,192,82437,1,0,0:0:0:0:
402,192,82437,1,0,0:0:0:0:
64,192,82710,1,0,0:0:0:0:
448,192,82846,1,0,0:0:0:0:
329,192,82914,1,0,0:0:0:0:
256,192,82949,1,0,0:0:0:0:
192,192,82983,1,0,0:0:0:0:
109,192,83051,1,0,0:0:0:0:
64,192,83119,1,0,0:0:0:0:
402,192,83255,1,0,0:0:0:0:
320,192,83255,1,0,0:0:0:0:
448,192,83255,1,0,0:0:0:0:
64,192,83392,1,0,0:0:0:0:
109,192,83426,1,0,0:0:0:0:
192,192,83460,1,0,0:0:0:0:
256,192,83494,1,0,0:0:0:0:
320,192,83528,1,0,0:0:0:0:
448,192,83664,1,0,0:0:0:0:
64,192,83664,1,0,0:0:0:0:
256,192,83664,1,0,0:0:0:0:
402,192,83699,1,0,0:0:0:0:
320,192,83733,1,0,0:0:0:0:
256,192,83767,1,0,0:0:0:0:
192,192,83801,1,0,0:0:0:0:
109,192,83869,1,0,0:0:0:0:
64,192,83937,1,0,0:0:0:0:
182,192,84005,1,0,0:0:0:0:
448,192,84074,1,0,0:0:0:0:
256,192,84074,1,0,0:0:0:0:
402,192,84108,1,0,0:0:0:0:
329,192,84142,1,0,0:0:0:0:
256,192,84176,1,0,0:0:0:0:
192,192,84210,1,0,0:0:0:0:
109,192,84244,1,0,0:0:0:0:
64,192,84278,1,0,0:0:0:0:
320,192,84346,128,0,84414:0:0:0:0:
256,192,84414,128,0,84483:0:0:0:0:
109,192,84414,128,0,84483:0:0:0:0:
448,192,84414,128,0,84483:0:0:0:0:
402,192,84449,128,0,84619:0:0:0:0:
329,192,84483,128,0,84551:0:0:0:0:
192,192,84483,128,0,84551:0:0:0:0:
109,192,84551,128,0,84619:0:0:0:0:
256,192,84585,128,0,84653:0:0:0:0:
64,192,84619,128,0,84687:0:0:0:0:
192,192,84619,128,0,84687:0:0:0:0:
320,192,84653,128,0,84721:0:0:0:0:
109,192,84687,128,0,84755:0:0:0:0:
448,192,84687,128,0,84755:0:0:0:0:
256,192,84721,128,0,84789:0:0:0:0:
402,192,84721,128,0,84789:0:0:0:0:
64,192,84755,128,0,84824:0:0:0:0:
329,192,84824,128,0,84892:0:0:0:0:
192,192,84858,128,0,84926:0:0:0:0:
256,192,84892,128,0,84960:0:0:0:0:
64,192,84892,128,0,84960:0:0:0:0:
448,192,84892,128,0,84960:0:0:0:0:
320,192,84960,128,0,85028:0:0:0:0:
109,192,84960,128,0,85028:0:0:0:0:
256,192,85028,128,0,85096:0:0:0:0:
402,192,85028,128,0,85096:0:0:0:0:
64,192,85028,128,0,85096:0:0:0:0:
192,192,85096,128,0,85164:0:0:0:0:
256,192,85164,128,0,85233:0:0:0:0:
109,192,85164,128,0,85233:0:0:0:0:
448,192,85164,128,0,85233:0:0:0:0:
402,192,85199,128,0,85267:0:0:0:0:
182,192,85233,128,0,85301:0:0:0:0:
64,192,85233,128,0,85301:0:0:0:0:
329,192,85267,128,0,85335:0:0:0:0:
448,192,85301,128,0,85369:0:0:0:0:
256,192,85369,128,0,85437:0:0:0:0:
64,192,85369,128,0,85437:0:0:0:0:
329,192,85437,128,0,85505:0:0:0:0:
109,192,85437,128,0,85505:0:0:0:0:
448,192,85437,128,0,85505:0:0:0:0:
402,192,85505,128,0,85574:0:0:0:0:
64,192,85505,128,0,85574:0:0:0:0:
192,192,85505,128,0,85574:0:0:0:0:
109,192,85574,128,0,85642:0:0:0:0:
256,192,85574,128,0,85642:0:0:0:0:
320,192,85574,128,0,85642:0:0:0:0:
448,192,85574,128,0,85642:0:0:0:0:
192,192,85642,128,0,85710:0:0:0:0:
64,192,85642,128,0,85710:0:0:0:0:
448,192,85710,1,0,0:0:0:0:
320,192,85710,128,0,85914:0:0:0:0:
64,192,85983,1,0,0:0:0:0:
192,192,85983,1,0,0:0:0:0:
448,192,85983,128,0,86528:0:0:0:0:
109,192,85983,1,0,0:0:0:0:
402,192,86017,1,0,0:0:0:0:
320,192,86051,1,0,0:0:0:0:
256,192,86085,1,0,0:0:0:0:
192,192,86119,1,0,0:0:0:0:
109,192,86153,1,0,0:0:0:0:
64,192,86187,1,0,0:0:0:0:
402,192,86221,1,0,0:0:0:0:
320,192,86255,1,0,0:0:0:0:
256,192,86289,1,0,0:0:0:0:
192,192,86324,1,0,0:0:0:0:
109,192,86358,1,0,0:0:0:0:
64,192,86392,1,0,0:0:0:0:
320,192,86460,1,0,0:0:0:0:
256,192,86494,1,0,0:0:0:0:
192,192,86528,1,0,0:0:0:0:
64,192,86528,1,0,0:0:0:0:
256,192,86630,1,0,0:0:0:0:
64,192,86664,1,0,0:0:0:0:
109,192,86699,1,0,0:0:0:0:
402,192,86699,1,0,0:0:0:0:
192,192,86733,1,0,0:0:0:0:
256,192,86767,1,0,0:0:0:0:
448,192,86801,1,0,0:0:0:0:
320,192,86801,1,0,0:0:0:0:
64,192,86801,128,0,87346:0:0:0:0:
192,192,86869,1,0,0:0:0:0:
256,192,86903,1,0,0:0:0:0:
320,192,86937,1,0,0:0:0:0:
402,192,86971,1,0,0:0:0:0:
448,192,87005,1,0,0:0:0:0:
192,192,87074,1,0,0:0:0:0:
256,192,87108,1,0,0:0:0:0:
320,192,87142,1,0,0:0:0:0:
402,192,87176,1,0,0:0:0:0:
448,192,87210,1,0,0:0:0:0:
192,192,87278,1,0,0:0:0:0:
256,192,87312,1,0,0:0:0:0:
320,192,87346,1,0,0:0:0:0:
448,192,87346,1,0,0:0:0:0:
402,192,87346,1,0,0:0:0:0:
256,192,87483,1,0,0:0:0:0:
448,192,87483,1,0,0:0:0:0:
109,192,87517,1,0,0:0:0:0:
402,192,87517,1,0,0:0:0:0:
320,192,87551,1,0,0:0:0:0:
256,192,87585,1,0,0:0:0:0:
448,192,87619,128,0,88164:0:0:0:0:
64,192,87619,1,0,0:0:0:0:
192,192,87619,1,0,0:0:0:0:
320,192,87687,1,0,0:0:0:0:
256,192,87721,1,0,0:0:0:0:
192,192,87755,1,0,0:0:0:0:
109,192,87789,1,0,0:0:0:0:
64,192,87824,1,0,0:0:0:0:
320,192,87892,1,0,0:0:0:0:
256,192,87926,1,0,0:0:0:0:
192,192,87960,1,0,0:0:0:0:
109,192,87994,1,0,0:0:0:0:
64,192,88028,1,0,0:0:0:0:
320,192,88096,1,0,0:0:0:0:
256,192,88130,1,0,0:0:0:0:
192,192,88164,1,0,0:0:0:0:
64,192,88164,1,0,0:0:0:0:
109,192,88164,1,0,0:0:0:0:
192,192,88301,1,0,0:0:0:0:
320,192,88301,1,0,0:0:0:0:
256,192,88301,1,0,0:0:0:0:
64,192,88437,128,0,88983:0:0:0:0:
448,192,88437,1,0,0:0:0:0:
320,192,88437,1,0,0:0:0:0:
402,192,88437,1,0,0:0:0:0:
192,192,88505,1,0,0:0:0:0:
448,192,88574,1,0,0:0:0:0:
256,192,88574,1,0,0:0:0:0:
320,192,88642,1,0,0:0:0:0:
192,192,88710,1,0,0:0:0:0:
448,192,88778,1,0,0:0:0:0:
109,192,88778,1,0,0:0:0:0:
256,192,88778,1,0,0:0:0:0:
192,192,88846,1,0,0:0:0:0:
402,192,88846,1,0,0:0:0:0:
320,192,88914,1,0,0:0:0:0:
448,192,88983,1,0,0:0:0:0:
192,192,88983,1,0,0:0:0:0:
256,192,89051,1,0,0:0:0:0:
320,192,89119,1,0,0:0:0:0:
64,192,89119,1,0,0:0:0:0:
64,192,89255,1,0,0:0:0:0:
192,192,89255,1,0,0:0:0:0:
320,192,89255,128,0,89460:0:0:0:0:
448,192,89255,128,0,89460:0:0:0:0:
109,192,89255,1,0,0:0:0:0:
256,192,89255,1,0,0:0:0:0:
402,192,89255,1,0,0:0:0:0:
448,192,89528,1,0,0:0:0:0:
192,192,89528,1,0,0:0:0:0:
64,192,89528,128,0,89733:0:0:0:0:
320,192,89528,128,0,89733:0:0:0:0:
402,192,89528,1,0,0:0:0:0:
256,192,89528,1,0,0:0:0:0:
109,192,89528,1,0,0:0:0:0:
64,192,89801,1,0,0:0:0:0:
320,192,89801,1,0,0:0:0:0:
192,192,89801,128,0,90005:0:0:0:0:
448,192,89801,128,0,90005:0:0:0:0:
109,192,89801,1,0,0:0:0:0:
256,192,89801,1,0,0:0:0:0:
402,192,89801,1,0,0:0:0:0:
320,192,90074,1,0,0:0:0:0:
448,192,90074,1,0,0:0:0:0:
64,192,90074,128,0,90278:0:0:0:0:
192,192,90074,128,0,90278:0:0:0:0:
109,192,90074,1,0,0:0:0:0:
256,192,90074,1,0,0:0:0:0:
402,192,90074,1,0,0:0:0:0:
192,192,90346,1,0,0:0:0:0:
448,192,90346,1,0,0:0:0:0:
320,192,90346,128,0,90551:0:0:0:0:
64,192,90346,128,0,90551:0:0:0:0:
402,192,90346,1,0,0:0:0:0:
256,192,90346,1,0,0:0:0:0:
109,192,90346,1,0,0:0:0:0:
64,192,90619,1,0,0:0:0:0:
448,192,90619,1,0,0:0:0:0:
192,192,90619,128,0,90824:0:0:0:0:
320,192,90619,128,0,90824:0:0:0:0:
109,192,90619,1,0,0:0:0:0:
256,192,90619,1,0,0:0:0:0:
402,192,90619,1,0,0:0:0:0:
448,192,90892,1,0,0:0:0:0:
64,192,90892,1,0,0:0:0:0:
256,192,90892,1,0,0:0:0:0:
64,192,91028,5,0,0:0:0:0:
448,192,91028,1,0,0:0:0:0:
256,192,91028,1,0,0:0:0:0:
448,192,91164,1,0,0:0:0:0:
64,192,91164,1,0,0:0:0:0:
256,192,91164,1,0,0:0:0:0:
64,192,91301,1,0,0:0:0:0:
448,192,91301,1,0,0:0:0:0:
256,192,91301,1,0,0:0:0:0:
320,192,91437,1,0,0:0:0:0:
192,192,91437,1,0,0:0:0:0:
256,192,91437,1,0,0:0:0:0:
448,192,91574,1,0,0:0:0:0:
320,192,91574,1,0,0:0:0:0:
402,192,91574,1,0,0:0:0:0:
320,192,91710,1,0,0:0:0:0:
64,192,91710,1,0,0:0:0:0:
192,192,91710,1,0,0:0:0:0:
109,192,91710,1,0,0:0:0:0:
256,192,91710,1,0,0:0:0:0:
320,192,91846,1,0,0:0:0:0:
192,192,91846,1,0,0:0:0:0:
448,192,91846,1,0,0:0:0:0:
256,192,91846,1,0,0:0:0:0:
402,192,91846,1,0,0:0:0:0:
320,192,91983,1,0,0:0:0:0:
192,192,91983,1,0,0:0:0:0:
64,192,91983,1,0,0:0:0:0:
109,192,91983,1,0,0:0:0:0:
256,192,91983,1,0,0:0:0:0:
64,192,92119,1,0,0:0:0:0:
192,192,92119,1,0,0:0:0:0:
320,192,92119,1,0,0:0:0:0:
109,192,92119,1,0,0:0:0:0:
256,192,92119,1,0,0:0:0:0:
448,192,92255,1,0,0:0:0:0:
320,192,92255,1,0,0:0:0:0:
402,192,92255,1,0,0:0:0:0:
182,192,92255,1,0,0:0:0:0:
256,192,92255,1,0,0:0:0:0:
64,192,92324,1,0,0:0:0:0:
109,192,92358,1,0,0:0:0:0:
192,192,92392,1,0,0:0:0:0:
256,192,92426,1,0,0:0:0:0:
329,192,92460,1,0,0:0:0:0:
402,192,92494,1,0,0:0:0:0:
448,192,92528,1,0,0:0:0:0:
64,192,92528,1,0,0:0:0:0:
192,192,92528,128,0,93074:0:0:0:0:
448,192,92596,1,0,0:0:0:0:
109,192,92596,1,0,0:0:0:0:
402,192,92630,1,0,0:0:0:0:
320,192,92664,1,0,0:0:0:0:
64,192,92733,1,0,0:0:0:0:
256,192,92733,1,0,0:0:0:0:
448,192,92801,1,0,0:0:0:0:
109,192,92801,1,0,0:0:0:0:
402,192,92835,1,0,0:0:0:0:
320,192,92869,1,0,0:0:0:0:
256,192,92903,1,0,0:0:0:0:
64,192,92937,1,0,0:0:0:0:
448,192,93005,1,0,0:0:0:0:
109,192,93005,1,0,0:0:0:0:
402,192,93039,1,0,0:0:0:0:
320,192,93074,1,0,0:0:0:0:
64,192,93074,1,0,0:0:0:0:
256,192,93074,1,0,0:0:0:0:
192,192,93210,1,0,0:0:0:0:
448,192,93346,1,0,0:0:0:0:
192,192,93346,1,0,0:0:0:0:
320,192,93346,128,0,93892:0:0:0:0:
64,192,93414,1,0,0:0:0:0:
109,192,93449,1,0,0:0:0:0:
192,192,93483,1,0,0:0:0:0:
256,192,93517,1,0,0:0:0:0:
448,192,93551,1,0,0:0:0:0:
402,192,93585,1,0,0:0:0:0:
64,192,93619,1,0,0:0:0:0:
109,192,93653,1,0,0:0:0:0:
192,192,93687,1,0,0:0:0:0:
256,192,93721,1,0,0:0:0:0:
448,192,93755,1,0,0:0:0:0:
402,192,93789,1,0,0:0:0:0:
64,192,93824,1,0,0:0:0:0:
109,192,93858,1,0,0:0:0:0:
192,192,93892,1,0,0:0:0:0:
448,192,93892,1,0,0:0:0:0:
256,192,93892,1,0,0:0:0:0:
320,192,94028,1,0,0:0:0:0:
320,192,94164,1,0,0:0:0:0:
192,192,94164,1,0,0:0:0:0:
64,192,94164,128,0,94710:0:0:0:0:
256,192,94164,1,0,0:0:0:0:
448,192,94233,1,0,0:0:0:0:
402,192,94267,1,0,0:0:0:0:
320,192,94301,1,0,0:0:0:0:
256,192,94335,1,0,0:0:0:0:
192,192,94369,1,0,0:0:0:0:
109,192,94403,1,0,0:0:0:0:
448,192,94437,1,0,0:0:0:0:
402,192,94471,1,0,0:0:0:0:
320,192,94505,1,0,0:0:0:0:
256,192,94539,1,0,0:0:0:0:
192,192,94574,1,0,0:0:0:0:
109,192,94608,1,0,0:0:0:0:
448,192,94642,1,0,0:0:0:0:
402,192,94676,1,0,0:0:0:0:
320,192,94710,1,0,0:0:0:0:
192,192,94710,1,0,0:0:0:0:
256,192,94710,1,0,0:0:0:0:
64,192,94846,1,0,0:0:0:0:
182,192,94983,1,0,0:0:0:0:
402,192,94983,1,0,0:0:0:0:
448,192,94983,128,0,95051:0:0:0:0:
109,192,94983,1,0,0:0:0:0:
36,192,94983,128,0,95051:0:0:0:0:
329,192,94983,1,0,0:0:0:0:
256,192,94983,128,0,95051:0:0:0:0:
256,192,95119,128,0,95187:0:0:0:0:
36,192,95119,128,0,95187:0:0:0:0:
448,192,95119,128,0,95187:0:0:0:0:
256,192,95255,128,0,95324:0:0:0:0:
36,192,95255,128,0,95324:0:0:0:0:
448,192,95255,128,0,95324:0:0:0:0:
256,192,95392,128,0,95460:0:0:0:0:
36,192,95392,128,0,95460:0:0:0:0:
448,192,95392,128,0,95460:0:0:0:0:
109,192,95562,1,0,0:0:0:0:
192,192,95596,1,0,0:0:0:0:
256,192,95630,1,0,0:0:0:0:
320,192,95664,1,0,0:0:0:0:
448,192,95664,1,0,0:0:0:0:
402,192,95664,1,0,0:0:0:0:
64,192,95801,1,0,0:0:0:0:
320,192,95801,1,0,0:0:0:0:
192,192,95801,128,0,96005:0:0:0:0:
448,192,95801,128,0,96005:0:0:0:0:
109,192,95801,1,0,0:0:0:0:
256,192,95801,1,0,0:0:0:0:
402,192,95801,1,0,0:0:0:0:
448,192,96074,1,0,0:0:0:0:
192,192,96074,1,0,0:0:0:0:
320,192,96074,128,0,96278:0:0:0:0:
64,192,96074,128,0,96278:0:0:0:0:
109,192,96074,1,0,0:0:0:0:
256,192,96074,1,0,0:0:0:0:
402,192,96074,1,0,0:0:0:0:
64,192,96346,1,0,0:0:0:0:
320,192,96346,1,0,0:0:0:0:
192,192,96346,128,0,96551:0:0:0:0:
448,192,96346,128,0,96551:0:0:0:0:
109,192,96346,1,0,0:0:0:0:
256,192,96346,1,0,0:0:0:0:
402,192,96346,1,0,0:0:0:0:
448,192,96619,1,0,0:0:0:0:
192,192,96619,1,0,0:0:0:0:
320,192,96619,128,0,96824:0:0:0:0:
64,192,96619,128,0,96824:0:0:0:0:
109,192,96619,1,0,0:0:0:0:
256,192,96619,1,0,0:0:0:0:
402,192,96619,1,0,0:0:0:0:
320,192,96892,1,0,0:0:0:0:
64,192,96892,128,0,97096:0:0:0:0:
448,192,96892,128,0,97096:0:0:0:0:
192,192,96892,1,0,0:0:0:0:
109,192,96892,1,0,0:0:0:0:
256,192,96892,1,0,0:0:0:0:
402,192,96892,1,0,0:0:0:0:
448,192,97164,5,0,0:0:0:0:
64,192,97164,1,0,0:0:0:0:
320,192,97164,128,0,97369:0:0:0:0:
192,192,97164,128,0,97369:0:0:0:0:
109,192,97164,1,0,0:0:0:0:
256,192,97164,1,0,0:0:0:0:
402,192,97164,1,0,0:0:0:0:
448,192,97437,1,0,0:0:0:0:
64,192,97437,1,0,0:0:0:0:
109,192,97471,1,0,0:0:0:0:
192,192,97505,1,0,0:0:0:0:
256,192,97539,1,0,0:0:0:0:
320,192,97574,1,0,0:0:0:0:
402,192,97608,1,0,0:0:0:0:
448,192,97642,1,0,0:0:0:0:
192,192,97710,1,0,0:0:0:0:
320,192,97710,1,0,0:0:0:0:
256,192,97710,1,0,0:0:0:0:
109,192,97744,1,0,0:0:0:0:
64,192,97778,1,0,0:0:0:0:
448,192,97846,1,0,0:0:0:0:
182,192,97846,1,0,0:0:0:0:
109,192,97880,1,0,0:0:0:0:
64,192,97914,1,0,0:0:0:0:
192,192,97983,1,0,0:0:0:0:
329,192,97983,1,0,0:0:0:0:
402,192,97983,1,0,0:0:0:0:
64,192,98255,5,0,0:0:0:0:
192,192,98255,1,0,0:0:0:0:
109,192,98255,1,0,0:0:0:0:
320,192,98324,1,0,0:0:0:0:
448,192,98324,1,0,0:0:0:0:
402,192,98324,1,0,0:0:0:0:
192,192,98392,1,0,0:0:0:0:
64,192,98392,1,0,0:0:0:0:
109,192,98392,1,0,0:0:0:0:
320,192,98460,1,0,0:0:0:0:
448,192,98460,1,0,0:0:0:0:
402,192,98460,1,0,0:0:0:0:
192,192,98528,1,0,0:0:0:0:
64,192,98528,1,0,0:0:0:0:
109,192,98528,1,0,0:0:0:0:
320,192,98596,1,0,0:0:0:0:
448,192,98596,1,0,0:0:0:0:
402,192,98596,1,0,0:0:0:0:
192,192,98664,1,0,0:0:0:0:
64,192,98664,1,0,0:0:0:0:
109,192,98664,1,0,0:0:0:0:
320,192,98733,1,0,0:0:0:0:
448,192,98733,1,0,0:0:0:0:
402,192,98733,1,0,0:0:0:0:
64,192,98801,1,0,0:0:0:0:
192,192,98801,1,0,0:0:0:0:
109,192,98801,1,0,0:0:0:0:
320,192,98869,1,0,0:0:0:0:
448,192,98869,1,0,0:0:0:0:
402,192,98869,1,0,0:0:0:0:
192,192,98937,1,0,0:0:0:0:
64,192,98937,1,0,0:0:0:0:
109,192,98937,1,0,0:0:0:0:
320,192,99005,1,0,0:0:0:0:
448,192,99005,1,0,0:0:0:0:
402,192,99005,1,0,0:0:0:0:
192,192,99074,1,0,0:0:0:0:
64,192,99074,1,0,0:0:0:0:
109,192,99074,1,0,0:0:0:0:
448,192,99142,1,0,0:0:0:0:
402,192,99176,1,0,0:0:0:0:
192,192,99210,1,0,0:0:0:0:
320,192,99210,1,0,0:0:0:0:
109,192,99244,1,0,0:0:0:0:
64,192,99278,1,0,0:0:0:0:
448,192,99346,1,0,0:0:0:0:
320,192,99346,1,0,0:0:0:0:
402,192,99346,1,0,0:0:0:0:
192,192,99414,1,0,0:0:0:0:
109,192,99449,1,0,0:0:0:0:
64,192,99483,1,0,0:0:0:0:
320,192,99483,1,0,0:0:0:0:
402,192,99517,1,0,0:0:0:0:
448,192,99551,1,0,0:0:0:0:
320,192,99619,1,0,0:0:0:0:
192,192,99619,1,0,0:0:0:0:
109,192,99653,1,0,0:0:0:0:
64,192,99687,1,0,0:0:0:0:
402,192,99687,1,0,0:0:0:0:
448,192,99755,1,0,0:0:0:0:
320,192,99755,1,0,0:0:0:0:
256,192,99789,1,0,0:0:0:0:
192,192,99824,1,0,0:0:0:0:
448,192,99892,1,0,0:0:0:0:
64,192,99892,1,0,0:0:0:0:
192,192,99892,1,0,0:0:0:0:
320,192,99892,1,0,0:0:0:0:
256,192,99892,1,0,0:0:0:0:
402,192,99892,1,0,0:0:0:0:
109,192,99892,128,0,100164:0:0:0:0:
448,192,100164,1,0,0:0:0:0:
320,192,100164,1,0,0:0:0:0:
64,192,100164,1,0,0:0:0:0:
192,192,100164,1,0,0:0:0:0:
402,192,100164,1,0,0:0:0:0:
256,192,100164,128,0,100437:0:0:0:0:
448,192,100437,1,0,0:0:0:0:
320,192,100437,1,0,0:0:0:0:
64,192,100437,1,0,0:0:0:0:
192,192,100437,1,0,0:0:0:0:
109,192,100437,1,0,0:0:0:0:
402,192,100437,1,0,0:0:0:0:
448,192,100574,1,0,0:0:0:0:
64,192,100710,1,0,0:0:0:0:
192,192,100710,1,0,0:0:0:0:
109,192,100710,1,0,0:0:0:0:
256,192,100710,1,0,0:0:0:0:
109,192,100846,1,0,0:0:0:0:
192,192,100846,1,0,0:0:0:0:
64,192,100846,1,0,0:0:0:0:
256,192,100846,1,0,0:0:0:0:
64,192,100983,1,0,0:0:0:0:
192,192,100983,1,0,0:0:0:0:
109,192,100983,1,0,0:0:0:0:
256,192,100983,1,0,0:0:0:0:
64,192,101119,1,0,0:0:0:0:
192,192,101119,1,0,0:0:0:0:
109,192,101119,1,0,0:0:0:0:
256,192,101119,1,0,0:0:0:0:
448,192,101255,1,0,0:0:0:0:
320,192,101255,1,0,0:0:0:0:
402,192,101255,1,0,0:0:0:0:
64,192,101392,1,0,0:0:0:0:
109,192,101460,1,0,0:0:0:0:
192,192,101528,1,0,0:0:0:0:
448,192,101528,1,0,0:0:0:0:
402,192,101562,1,0,0:0:0:0:
320,192,101596,1,0,0:0:0:0:
64,192,101596,1,0,0:0:0:0:
109,192,101630,1,0,0:0:0:0:
192,192,101664,1,0,0:0:0:0:
448,192,101664,1,0,0:0:0:0:
402,192,101699,1,0,0:0:0:0:
320,192,101733,1,0,0:0:0:0:
64,192,101733,1,0,0:0:0:0:
109,192,101767,1,0,0:0:0:0:
192,192,101801,1,0,0:0:0:0:
448,192,101801,1,0,0:0:0:0:
256,192,101835,1,0,0:0:0:0:
402,192,101869,1,0,0:0:0:0:
320,192,101937,1,0,0:0:0:0:
448,192,102074,1,0,0:0:0:0:
320,192,102074,1,0,0:0:0:0:
192,192,102074,1,0,0:0:0:0:
64,192,102074,1,0,0:0:0:0:
109,192,102074,1,0,0:0:0:0:
402,192,102074,1,0,0:0:0:0:
256,192,102074,128,0,102346:0:0:0:0:
64,192,102210,1,0,0:0:0:0:
109,192,102244,1,0,0:0:0:0:
448,192,102346,1,0,0:0:0:0:
192,192,102346,1,0,0:0:0:0:
448,192,102483,1,0,0:0:0:0:
192,192,102619,1,0,0:0:0:0:
64,192,102619,1,0,0:0:0:0:
109,192,102619,1,0,0:0:0:0:
192,192,102755,1,0,0:0:0:0:
320,192,102892,1,0,0:0:0:0:
448,192,102892,1,0,0:0:0:0:
402,192,102892,1,0,0:0:0:0:
320,192,103028,1,0,0:0:0:0:
192,192,103164,1,0,0:0:0:0:
320,192,103164,1,0,0:0:0:0:
448,192,103164,1,0,0:0:0:0:
64,192,103164,128,0,103369:0:0:0:0:
256,192,103164,1,0,0:0:0:0:
402,192,103164,1,0,0:0:0:0:
109,192,103164,1,0,0:0:0:0:
320,192,103437,1,0,0:0:0:0:
192,192,103437,1,0,0:0:0:0:
64,192,103437,1,0,0:0:0:0:
448,192,103437,128,0,103642:0:0:0:0:
109,192,103437,1,0,0:0:0:0:
256,192,103437,1,0,0:0:0:0:
402,192,103437,1,0,0:0:0:0:
64,192,103710,1,0,0:0:0:0:
192,192,103710,1,0,0:0:0:0:
320,192,103710,1,0,0:0:0:0:
448,192,103710,1,0,0:0:0:0:
109,192,103710,1,0,0:0:0:0:
256,192,103710,1,0,0:0:0:0:
402,192,103710,1,0,0:0:0:0:
320,192,103846,1,0,0:0:0:0:
402,192,103914,1,0,0:0:0:0:
64,192,103983,1,0,0:0:0:0:
448,192,103983,1,0,0:0:0:0:
192,192,103983,128,0,104255:0:0:0:0:
256,192,103983,1,0,0:0:0:0:
448,192,104119,1,0,0:0:0:0:
64,192,104119,1,0,0:0:0:0:
256,192,104119,1,0,0:0:0:0:
64,192,104255,1,0,0:0:0:0:
448,192,104255,1,0,0:0:0:0:
320,192,104255,128,0,104528:0:0:0:0:
256,192,104255,1,0,0:0:0:0:
448,192,104392,1,0,0:0:0:0:
64,192,104392,1,0,0:0:0:0:
256,192,104426,1,0,0:0:0:0:
448,192,104528,1,0,0:0:0:0:
64,192,104528,1,0,0:0:0:0:
256,192,104528,1,0,0:0:0:0:
109,192,104596,1,0,0:0:0:0:
192,192,104664,1,0,0:0:0:0:
256,192,104733,1,0,0:0:0:0:
448,192,104801,1,0,0:0:0:0:
320,192,104801,1,0,0:0:0:0:
402,192,104801,1,0,0:0:0:0:
64,192,104892,1,0,0:0:0:0:
109,192,104937,1,0,0:0:0:0:
320,192,104983,1,0,0:0:0:0:
192,192,104983,1,0,0:0:0:0:
256,192,105039,1,0,0:0:0:0:
448,192,105074,1,0,0:0:0:0:
64,192,105074,1,0,0:0:0:0:
109,192,105108,1,0,0:0:0:0:
402,192,105142,1,0,0:0:0:0:
192,192,105164,1,0,0:0:0:0:
256,192,105210,1,0,0:0:0:0:
109,192,105244,1,0,0:0:0:0:
320,192,105255,1,0,0:0:0:0:
448,192,105255,1,0,0:0:0:0:
256,192,105312,1,0,0:0:0:0:
192,192,105346,1,0,0:0:0:0:
64,192,105346,1,0,0:0:0:0:
402,192,105346,1,0,0:0:0:0:
256,192,105414,1,0,0:0:0:0:
448,192,105437,1,0,0:0:0:0:
109,192,105449,1,0,0:0:0:0:
182,192,105517,1,0,0:0:0:0:
320,192,105528,1,0,0:0:0:0:
64,192,105528,1,0,0:0:0:0:
192,192,105619,1,0,0:0:0:0:
448,192,105619,1,0,0:0:0:0:
320,192,105619,1,0,0:0:0:0:
64,192,105619,1,0,0:0:0:0:
109,192,105619,1,0,0:0:0:0:
256,192,105619,1,0,0:0:0:0:
402,192,105619,1,0,0:0:0:0:
448,192,105687,1,0,0:0:0:0:
64,192,105755,1,0,0:0:0:0:
109,192,105789,1,0,0:0:0:0:
192,192,105824,1,0,0:0:0:0:
256,192,105858,1,0,0:0:0:0:
448,192,105892,1,0,0:0:0:0:
320,192,105892,1,0,0:0:0:0:
402,192,105892,1,0,0:0:0:0:
64,192,105960,1,0,0:0:0:0:
109,192,105994,1,0,0:0:0:0:
192,192,106028,1,0,0:0:0:0:
448,192,106096,1,0,0:0:0:0:
64,192,106164,1,0,0:0:0:0:
320,192,106164,1,0,0:0:0:0:
448,192,106164,1,0,0:0:0:0:
192,192,106164,1,0,0:0:0:0:
109,192,106164,1,0,0:0:0:0:
256,192,106164,1,0,0:0:0:0:
402,192,106164,1,0,0:0:0:0:
64,192,106233,1,0,0:0:0:0:
448,192,106301,1,0,0:0:0:0:
192,192,106369,1,0,0:0:0:0:
448,192,106437,1,0,0:0:0:0:
192,192,106437,1,0,0:0:0:0:
64,192,106437,1,0,0:0:0:0:
320,192,106437,1,0,0:0:0:0:
109,192,106437,1,0,0:0:0:0:
256,192,106437,1,0,0:0:0:0:
402,192,106437,1,0,0:0:0:0:
320,192,106505,1,0,0:0:0:0:
64,192,106574,1,0,0:0:0:0:
402,192,106574,1,0,0:0:0:0:
109,192,106608,1,0,0:0:0:0:
192,192,106642,1,0,0:0:0:0:
256,192,106676,1,0,0:0:0:0:
448,192,106710,1,0,0:0:0:0:
64,192,106710,1,0,0:0:0:0:
402,192,106744,1,0,0:0:0:0:
320,192,106778,1,0,0:0:0:0:
256,192,106812,1,0,0:0:0:0:
192,192,106846,1,0,0:0:0:0:
64,192,106914,1,0,0:0:0:0:
448,192,106983,1,0,0:0:0:0:
192,192,106983,1,0,0:0:0:0:
64,192,106983,1,0,0:0:0:0:
320,192,106983,1,0,0:0:0:0:
109,192,106983,1,0,0:0:0:0:
256,192,106983,1,0,0:0:0:0:
402,192,106983,1,0,0:0:0:0:
448,192,107051,1,0,0:0:0:0:
64,192,107119,1,0,0:0:0:0:
320,192,107187,1,0,0:0:0:0:
64,192,107255,1,0,0:0:0:0:
320,192,107255,1,0,0:0:0:0:
448,192,107255,1,0,0:0:0:0:
192,192,107255,1,0,0:0:0:0:
109,192,107255,1,0,0:0:0:0:
256,192,107255,1,0,0:0:0:0:
402,192,107255,1,0,0:0:0:0:
64,192,107324,1,0,0:0:0:0:
192,192,107392,1,0,0:0:0:0:
320,192,107460,1,0,0:0:0:0:
448,192,107528,1,0,0:0:0:0:
192,192,107528,1,0,0:0:0:0:
64,192,107528,1,0,0:0:0:0:
320,192,107528,1,0,0:0:0:0:
109,192,107528,1,0,0:0:0:0:
256,192,107528,1,0,0:0:0:0:
402,192,107528,1,0,0:0:0:0:
64,192,107596,1,0,0:0:0:0:
448,192,107664,1,0,0:0:0:0:
192,192,107733,1,0,0:0:0:0:
64,192,107801,1,0,0:0:0:0:
320,192,107801,1,0,0:0:0:0:
448,192,107801,1,0,0:0:0:0:
192,192,107801,1,0,0:0:0:0:
109,192,107801,1,0,0:0:0:0:
256,192,107801,1,0,0:0:0:0:
402,192,107801,1,0,0:0:0:0:
64,192,107869,1,0,0:0:0:0:
448,192,107937,1,0,0:0:0:0:
320,192,108005,1,0,0:0:0:0:
448,192,108074,1,0,0:0:0:0:
192,192,108074,1,0,0:0:0:0:
64,192,108074,1,0,0:0:0:0:
320,192,108074,1,0,0:0:0:0:
109,192,108074,1,0,0:0:0:0:
256,192,108074,1,0,0:0:0:0:
402,192,108074,1,0,0:0:0:0:
192,192,108142,1,0,0:0:0:0:
64,192,108210,1,0,0:0:0:0:
448,192,108278,1,0,0:0:0:0:
109,192,108278,1,0,0:0:0:0:
64,192,108346,1,0,0:0:0:0:
192,192,108346,1,0,0:0:0:0:
329,192,108346,1,0,0:0:0:0:
448,192,108414,1,0,0:0:0:0:
256,192,108414,1,0,0:0:0:0:
192,192,108483,1,0,0:0:0:0:
64,192,108551,1,0,0:0:0:0:
448,192,108619,1,0,0:0:0:0:
320,192,108619,1,0,0:0:0:0:
109,192,108619,1,0,0:0:0:0:
64,192,108687,1,0,0:0:0:0:
109,192,108721,1,0,0:0:0:0:
192,192,108755,1,0,0:0:0:0:
256,192,108789,1,0,0:0:0:0:
320,192,108824,1,0,0:0:0:0:
402,192,108858,1,0,0:0:0:0:
448,192,108892,1,0,0:0:0:0:
64,192,108892,1,0,0:0:0:0:
192,192,108892,1,0,0:0:0:0:
320,192,108960,1,0,0:0:0:0:
64,192,109028,1,0,0:0:0:0:
448,192,109028,1,0,0:0:0:0:
109,192,109062,1,0,0:0:0:0:
192,192,109096,1,0,0:0:0:0:
402,192,109096,1,0,0:0:0:0:
320,192,109164,1,0,0:0:0:0:
448,192,109164,1,0,0:0:0:0:
64,192,109164,1,0,0:0:0:0:
256,192,109199,1,0,0:0:0:0:
192,192,109233,1,0,0:0:0:0:
64,192,109301,1,0,0:0:0:0:
448,192,109301,1,0,0:0:0:0:
402,192,109335,1,0,0:0:0:0:
109,192,109369,1,0,0:0:0:0:
320,192,109369,1,0,0:0:0:0:
192,192,109437,1,0,0:0:0:0:
64,192,109437,1,0,0:0:0:0:
448,192,109437,1,0,0:0:0:0:
256,192,109471,1,0,0:0:0:0:
320,192,109505,1,0,0:0:0:0:
109,192,109505,1,0,0:0:0:0:
64,192,109574,1,0,0:0:0:0:
192,192,109574,1,0,0:0:0:0:
448,192,109642,1,0,0:0:0:0:
320,192,109710,1,0,0:0:0:0:
192,192,109710,1,0,0:0:0:0:
64,192,109710,1,0,0:0:0:0:
109,192,109710,1,0,0:0:0:0:
256,192,109710,1,0,0:0:0:0:
448,192,109778,1,0,0:0:0:0:
402,192,109812,1,0,0:0:0:0:
64,192,109846,1,0,0:0:0:0:
320,192,109846,1,0,0:0:0:0:
109,192,109880,1,0,0:0:0:0:
192,192,109914,1,0,0:0:0:0:
256,192,109949,1,0,0:0:0:0:
320,192,109983,1,0,0:0:0:0:
448,192,109983,1,0,0:0:0:0:
64,192,109983,1,0,0:0:0:0:
192,192,110051,1,0,0:0:0:0:
402,192,110051,1,0,0:0:0:0:
320,192,110119,1,0,0:0:0:0:
64,192,110119,1,0,0:0:0:0:
448,192,110187,1,0,0:0:0:0:
109,192,110187,1,0,0:0:0:0:
64,192,110255,1,0,0:0:0:0:
192,192,110255,1,0,0:0:0:0:
320,192,110255,1,0,0:0:0:0:
448,192,110324,1,0,0:0:0:0:
256,192,110324,1,0,0:0:0:0:
109,192,110324,1,0,0:0:0:0:
64,192,110392,1,0,0:0:0:0:
192,192,110392,1,0,0:0:0:0:
402,192,110392,1,0,0:0:0:0:
256,192,110426,1,0,0:0:0:0:
320,192,110460,1,0,0:0:0:0:
448,192,110528,1,0,0:0:0:0:
64,192,110528,1,0,0:0:0:0:
109,192,110562,1,0,0:0:0:0:
192,192,110596,1,0,0:0:0:0:
256,192,110630,1,0,0:0:0:0:
320,192,110664,1,0,0:0:0:0:
402,192,110699,1,0,0:0:0:0:
448,192,110733,1,0,0:0:0:0:
64,192,110801,1,0,0:0:0:0:
109,192,110835,1,0,0:0:0:0:
192,192,110869,1,0,0:0:0:0:
256,192,110903,1,0,0:0:0:0:
320,192,110937,1,0,0:0:0:0:
402,192,110971,1,0,0:0:0:0:
448,192,111005,1,0,0:0:0:0:
192,192,111074,1,0,0:0:0:0:
64,192,111074,128,0,111346:0:0:0:0:
320,192,111346,1,0,0:0:0:0:
448,192,111346,1,0,0:0:0:0:
402,192,111346,1,0,0:0:0:0:
64,192,111414,1,0,0:0:0:0:
192,192,111414,1,0,0:0:0:0:
109,192,111414,1,0,0:0:0:0:
320,192,111483,1,0,0:0:0:0:
448,192,111483,1,0,0:0:0:0:
402,192,111483,1,0,0:0:0:0:
192,192,111551,1,0,0:0:0:0:
64,192,111551,1,0,0:0:0:0:
109,192,111551,1,0,0:0:0:0:
320,192,111619,1,0,0:0:0:0:
402,192,111619,1,0,0:0:0:0:
475,192,111619,1,0,0:0:0:0:
64,192,111687,1,0,0:0:0:0:
448,192,111755,1,0,0:0:0:0:
182,192,111755,1,0,0:0:0:0:
256,192,111824,1,0,0:0:0:0:
64,192,111824,1,0,0:0:0:0:
448,192,111892,1,0,0:0:0:0:
402,192,111926,1,0,0:0:0:0:
320,192,111960,1,0,0:0:0:0:
256,192,111994,1,0,0:0:0:0:
192,192,112028,1,0,0:0:0:0:
109,192,112062,1,0,0:0:0:0:
64,192,112096,1,0,0:0:0:0:
320,192,112164,1,0,0:0:0:0:
192,192,112164,1,0,0:0:0:0:
64,192,112164,1,0,0:0:0:0:
448,192,112164,128,0,113801:0:0:0:0:
109,192,112164,1,0,0:0:0:0:
256,192,112164,1,0,0:0:0:0:
402,192,112164,1,0,0:0:0:0:
192,192,113801,1,0,0:0:0:0:
192,192,113869,1,0,0:0:0:0:
192,192,113937,1,0,0:0:0:0:
192,192,114074,1,0,0:0:0:0:
192,192,114210,1,0,0:0:0:0:
192,192,114346,1,0,0:0:0:0:
320,192,114619,1,0,0:0:0:0:
320,192,114687,1,0,0:0:0:0:
320,192,114755,1,0,0:0:0:0:
320,192,114892,1,0,0:0:0:0:
320,192,115164,1,0,0:0:0:0:
109,192,115437,128,0,115778:0:0:0:0:
64,192,115437,128,0,115642:0:0:0:0:
192,192,115437,128,0,115914:0:0:0:0:
320,192,115437,128,0,116187:0:0:0:0:
448,192,115437,128,0,116460:0:0:0:0:
256,192,115437,128,0,116085:0:0:0:0:
402,192,115437,128,0,116358:0:0:0:0:
64,192,115710,128,0,116664:0:0:0:0:
109,192,115846,128,0,116767:0:0:0:0:
192,192,115983,128,0,116596:0:0:0:0:
256,192,116153,128,0,116869:0:0:0:0:
320,192,116255,128,0,116528:0:0:0:0:
402,192,116426,128,0,116937:0:0:0:0:
448,192,116528,128,0,116664:0:0:0:0:
320,192,116596,128,0,116733:0:0:0:0:
192,192,116664,128,0,116801:0:0:0:0:
64,192,116733,128,0,116869:0:0:0:0:
448,192,116801,128,0,116937:0:0:0:0:
320,192,116869,128,0,117005:0:0:0:0:
192,192,116937,128,0,117005:0:0:0:0:
64,192,117005,1,0,0:0:0:0:
64,192,117074,1,0,0:0:0:0:
192,192,117074,1,0,0:0:0:0:
448,192,117074,1,0,0:0:0:0:
320,192,117074,1,0,0:0:0:0:
109,192,117074,1,0,0:0:0:0:
256,192,117074,1,0,0:0:0:0:
402,192,117074,1,0,0:0:0:0:
