osu file format v14

[General]
AudioFilename: audio.mp3
AudioLeadIn: 0
PreviewTime: 67290
Countdown: 0
SampleSet: Normal
StackLeniency: 0.7
Mode: 1
LetterboxInBreaks: 0
WidescreenStoryboard: 0

[Editor]
Bookmarks: 905,15675,23059,37829,52598,67367,82136,96906,111675,126444,133829
DistanceSpacing: 0.5
BeatDivisor: 4
GridSize: 32
TimelineZoom: 3.499998

[Metadata]
Title:Vieille Ville
TitleUnicode:Vieille Ville
Artist:Morimori Atsushi + Ujico*
ArtistUnicode:モリモリあつし + Ujico*
Creator:_DUSK_
Version:Inner Oni
Source:VOEZ
Tags:Rayark Snail's House un deux trois​.​.​. 非可逆リズム Hikagyaku Rhythm
BeatmapID:1987484
BeatmapSetID:951722

[Difficulty]
HPDrainRate:6
CircleSize:4
OverallDifficulty:6
ApproachRate:9
SliderMultiplier:1.4
SliderTickRate:1

[Events]
//Background and Video events
0,0,"vvBG.jpg",0,0
//Break Periods
//Storyboard Layer 0 (Background)
//Storyboard Layer 1 (Fail)
//Storyboard Layer 2 (Pass)
//Storyboard Layer 3 (Foreground)
//Storyboard Sound Samples

[TimingPoints]
906,307.692307692308,4,1,0,70,1,0
906,-142.857142857143,4,1,0,70,0,0
7829,-138.888888888889,4,1,0,70,0,0
7982,-135.135135135135,4,1,0,70,0,0
8136,-131.578947368421,4,1,0,70,0,0
8290,-128.205128205128,4,1,0,70,0,0
8906,-142.857142857143,4,1,0,70,0,0
9982,-138.888888888889,4,1,0,70,0,0
10136,-135.135135135135,4,1,0,70,0,0
10444,-131.578947368421,4,1,0,70,0,0
10752,-128.205128205128,4,1,0,70,0,0
10906,-125,4,1,0,70,0,0
11059,-121.951219512195,4,1,0,70,0,0
11470,-119.047619047619,4,1,0,70,0,0
11572,-116.279069767442,4,1,0,70,0,0
11675,-113.636363636364,4,1,0,70,0,0
11777,-111.111111111111,4,1,0,70,0,0
11880,-108.695652173913,4,1,0,70,0,0
11982,-106.382978723404,4,1,0,70,0,0
12290,-142.857142857143,4,1,0,70,0,0
13008,-138.888888888889,4,1,0,70,0,0
13111,-135.135135135135,4,1,0,70,0,0
13213,-131.578947368421,4,1,0,70,0,0
13316,-128.205128205128,4,1,0,70,0,0
13418,-125,4,1,0,70,0,0
13521,-121.951219512195,4,1,0,70,0,0
13623,-119.047619047619,4,1,0,70,0,0
13726,-116.279069767442,4,1,0,70,0,0
13829,-113.636363636364,4,1,0,70,0,0
13906,-112.359550561798,4,1,0,70,0,0
13982,-111.111111111111,4,1,0,70,0,0
14136,-109.89010989011,4,1,0,70,0,0
14213,-108.695652173913,4,1,0,70,0,0
14290,-107.52688172043,4,1,0,70,0,0
14444,-106.382978723404,4,1,0,70,0,0
14547,-104.166666666667,4,1,0,70,0,0
14649,-102.040816326531,4,1,0,70,0,0
14752,-100,4,1,0,70,0,0
15059,-96.1538461538461,4,1,0,70,0,0
15367,-90.9090909090909,4,1,0,70,0,0
15675,-142.857142857143,4,1,0,70,0,0
18290,-138.888888888889,4,1,0,70,0,0
18444,-135.135135135135,4,1,0,70,0,0
18752,-131.578947368421,4,1,0,70,0,0
19059,-128.205128205128,4,1,0,70,0,0
19367,-100,4,1,0,70,0,0
19444,-142.857142857143,4,1,0,70,0,0
22444,-138.888888888889,4,1,0,70,0,0
22598,-133.333333333333,4,1,0,70,0,0
22752,-126.582278481013,4,1,0,70,0,0
22906,-119.047619047619,4,1,0,70,0,0
23059,-111.111111111111,4,1,0,100,0,0
30188,-109.89010989011,4,1,0,100,0,0
30239,-108.695652173913,4,1,0,100,0,0
30290,-107.52688172043,4,1,0,100,0,0
30341,-106.382978723404,4,1,0,100,0,0
30393,-105.263157894737,4,1,0,100,0,0
30444,-104.166666666667,4,1,0,100,0,0
38136,-103.092783505155,4,1,0,100,0,0
38239,-102.040816326531,4,1,0,100,0,0
38341,-101.010101010101,4,1,0,100,0,0
38444,-100,4,1,0,100,0,0
38547,-99.009900990099,4,1,0,100,0,0
38649,-98.0392156862745,4,1,0,100,0,0
38752,-97.0873786407767,4,1,0,100,0,0
38854,-96.1538461538461,4,1,0,100,0,0
38957,-95.2380952380952,4,1,0,100,0,0
39059,-94.3396226415094,4,1,0,100,0,0
39162,-93.4579439252336,4,1,0,100,0,0
39264,-92.5925925925926,4,1,0,100,0,0
39367,-91.743119266055,4,1,0,100,0,0
39470,-90.9090909090909,4,1,0,100,0,0
39572,-90.0900900900901,4,1,0,100,0,0
39675,-89.2857142857143,4,1,0,100,0,0
39880,-90.0900900900901,4,1,0,100,0,0
39982,-90.9090909090909,4,1,0,100,0,0
40085,-91.743119266055,4,1,0,100,0,0
40188,-92.5925925925926,4,1,0,100,0,0
40290,-93.4579439252336,4,1,0,100,0,0
40393,-94.3396226415094,4,1,0,100,0,0
40495,-95.2380952380952,4,1,0,100,0,0
40675,-94.3396226415094,4,1,0,100,0,0
40752,-93.4579439252336,4,1,0,100,0,0
40829,-92.5925925925926,4,1,0,100,0,0
40906,-91.743119266055,4,1,0,100,0,0
40982,-90.9090909090909,4,1,0,100,0,0
41059,-90.0900900900901,4,1,0,100,0,0
41136,-89.2857142857143,4,1,0,100,0,0
41213,-88.4955752212389,4,1,0,100,0,0
41290,-87.719298245614,4,1,0,100,0,0
41367,-86.9565217391304,4,1,0,100,0,0
41444,-86.2068965517241,4,1,0,100,0,0
41521,-85.4700854700855,4,1,0,100,0,0
41623,-86.2068965517241,4,1,0,100,0,0
41726,-86.9565217391304,4,1,0,100,0,0
41829,-87.719298245614,4,1,0,100,0,0
41931,-88.4955752212389,4,1,0,100,0,0
42034,-89.2857142857143,4,1,0,100,0,0
42136,-90.0900900900901,4,1,0,100,0,0
42239,-90.9090909090909,4,1,0,100,0,0
42341,-91.743119266055,4,1,0,100,0,0
42444,-92.5925925925926,4,1,0,100,0,0
42547,-93.4579439252336,4,1,0,100,0,0
42649,-94.3396226415094,4,1,0,100,0,0
42752,-95.2380952380952,4,1,0,100,0,0
42854,-96.1538461538461,4,1,0,100,0,0
42957,-97.0873786407767,4,1,0,100,0,0
43059,-98.0392156862745,4,1,0,100,0,0
43162,-99.009900990099,4,1,0,100,0,0
43367,-98.0392156862745,4,1,0,100,0,0
43470,-97.0873786407767,4,1,0,100,0,0
43572,-96.1538461538461,4,1,0,100,0,0
43675,-95.2380952380952,4,1,0,100,0,0
43777,-94.3396226415094,4,1,0,100,0,0
43880,-93.4579439252336,4,1,0,100,0,0
43982,-92.5925925925926,4,1,0,100,0,0
44085,-91.743119266055,4,1,0,100,0,0
44188,-90.9090909090909,4,1,0,100,0,0
44290,-90.0900900900901,4,1,0,100,0,0
44393,-89.2857142857143,4,1,0,100,0,0
44495,-88.4955752212389,4,1,0,100,0,0
44598,-87.719298245614,4,1,0,100,0,0
44700,-86.9565217391304,4,1,0,100,0,0
44803,-86.2068965517241,4,1,0,100,0,0
44906,-85.4700854700855,4,1,0,100,0,0
45008,-84.7457627118644,4,1,0,100,0,0
45213,-84.0336134453781,4,1,0,100,0,0
45316,-84.7457627118644,4,1,0,100,0,0
45418,-85.4700854700855,4,1,0,100,0,0
45521,-86.2068965517241,4,1,0,100,0,0
45623,-86.9565217391304,4,1,0,100,0,0
45726,-87.719298245614,4,1,0,100,0,0
45829,-88.4955752212389,4,1,0,100,0,0
45931,-89.2857142857143,4,1,0,100,0,0
46034,-90.0900900900901,4,1,0,100,0,0
46136,-90.9090909090909,4,1,0,100,0,0
46239,-91.743119266055,4,1,0,100,0,0
46341,-92.5925925925926,4,1,0,100,0,0
46444,-93.4579439252336,4,1,0,100,0,0
46547,-94.3396226415094,4,1,0,100,0,0
46649,-95.2380952380952,4,1,0,100,0,0
46752,-96.1538461538461,4,1,0,100,0,0
46854,-97.0873786407767,4,1,0,100,0,0
46957,-98.0392156862745,4,1,0,100,0,0
47059,-99.009900990099,4,1,0,100,0,0
47162,-100,4,1,0,100,0,0
47264,-101.010101010101,4,1,0,100,0,0
47367,-102.040816326531,4,1,0,100,0,0
47470,-103.092783505155,4,1,0,100,0,0
47572,-104.166666666667,4,1,0,100,0,0
47675,-105.263157894737,4,1,0,100,0,0
47777,-106.382978723404,4,1,0,100,0,0
47880,-107.52688172043,4,1,0,100,0,0
48059,-106.382978723404,4,1,0,100,0,0
48136,-105.263157894737,4,1,0,100,0,0
48213,-104.166666666667,4,1,0,100,0,0
48290,-103.092783505155,4,1,0,100,0,0
48367,-102.040816326531,4,1,0,100,0,0
48444,-101.010101010101,4,1,0,100,0,0
48521,-100,4,1,0,100,0,0
48598,-99.009900990099,4,1,0,100,0,0
48675,-98.0392156862745,4,1,0,100,0,0
48752,-97.0873786407767,4,1,0,100,0,0
48829,-96.1538461538461,4,1,0,100,0,0
48906,-95.2380952380952,4,1,0,100,0,0
51059,-96.1538461538461,4,1,0,100,0,0
51290,-97.0873786407767,4,1,0,100,0,0
51367,-98.0392156862745,4,1,0,100,0,0
51675,-99.009900990099,4,1,0,100,0,0
51982,-101.010101010101,4,1,0,100,0,0
52136,-103.092783505155,4,1,0,100,0,0
52290,-105.263157894737,4,1,0,100,0,0
52444,-107.52688172043,4,1,0,100,0,0
52598,-109.89010989011,4,1,0,100,0,0
52906,-112.359550561798,4,1,0,70,0,0
53213,-114.942528735632,4,1,0,70,0,0
53521,-117.647058823529,4,1,0,70,0,0
53829,-120.481927710843,4,1,0,70,0,0
54136,-123.456790123457,4,1,0,70,0,0
54444,-126.582278481013,4,1,0,70,0,0
54752,-129.87012987013,4,1,0,70,0,0
55059,-133.333333333333,4,1,0,70,0,0
55367,-136.986301369863,4,1,0,70,0,0
56290,-142.857142857143,4,1,0,70,0,0
61829,-140.845070422535,4,1,0,70,0,0
62136,-138.888888888889,4,1,0,70,0,0
62444,-136.986301369863,4,1,0,70,0,0
62752,-135.135135135135,4,1,0,70,0,0
63675,-133.333333333333,4,1,0,70,0,0
63982,-131.578947368421,4,1,0,70,0,0
64290,-129.87012987013,4,1,0,70,0,0
64598,-128.205128205128,4,1,0,70,0,0
64906,-126.582278481013,4,1,0,70,0,0
65213,-125,4,1,0,70,0,0
65521,-121.951219512195,4,1,0,70,0,0
65829,-116.279069767442,4,1,0,70,0,0
66136,-108.695652173913,4,1,0,70,0,0
66367,-66.6666666666667,4,1,0,70,0,0
66521,-100,4,1,0,70,0,0
66854,-98.0392156862745,4,1,0,70,0,0
66957,-96.1538461538461,4,1,0,70,0,0
67059,-94.3396226415094,4,1,0,70,0,0
67162,-92.5925925925926,4,1,0,70,0,0
67264,-90.9090909090909,4,1,0,70,0,0
67367,-89.2857142857143,4,1,0,100,0,1
82136,-86.9565217391304,4,1,0,100,0,1
96906,-86.9565217391304,4,1,0,100,0,0
97367,-88.4955752212389,4,1,0,100,0,0
97829,-90.0900900900901,4,1,0,100,0,0
98444,-91.743119266055,4,1,0,100,0,0
98598,-93.4579439252336,4,1,0,100,0,0
98752,-95.2380952380952,4,1,0,100,0,0
99059,-97.0873786407767,4,1,0,100,0,0
99367,-99.009900990099,4,1,0,100,0,0
99675,-101.010101010101,4,1,0,100,0,0
100290,-103.092783505155,4,1,0,100,0,0
100444,-105.263157894737,4,1,0,100,0,0
100598,-107.52688172043,4,1,0,100,0,0
104034,-106.382978723404,4,1,0,100,0,0
104085,-105.263157894737,4,1,0,100,0,0
104136,-104.166666666667,4,1,0,100,0,0
104188,-103.092783505155,4,1,0,100,0,0
104239,-102.040816326531,4,1,0,100,0,0
104290,-101.010101010101,4,1,0,100,0,0
104341,-107.52688172043,4,1,0,100,0,0
110136,-109.89010989011,4,1,0,100,0,0
110444,-112.359550561798,4,1,0,100,0,0
110752,-114.942528735632,4,1,0,100,0,0
111059,-117.647058823529,4,1,0,100,0,0
111367,-120.481927710843,4,1,0,100,0,0
111675,-123.456790123457,4,1,0,70,0,0
111752,-142.857142857143,4,1,0,70,0,0
118598,-138.888888888889,4,1,0,70,0,0
118752,-135.135135135135,4,1,0,70,0,0
118906,-131.578947368421,4,1,0,70,0,0
119059,-128.205128205128,4,1,0,70,0,0
119675,-142.857142857143,4,1,0,70,0,0
120752,-138.888888888889,4,1,0,70,0,0
120906,-135.135135135135,4,1,0,70,0,0
121213,-131.578947368421,4,1,0,70,0,0
121521,-128.205128205128,4,1,0,70,0,0
121675,-125,4,1,0,70,0,0
121829,-121.951219512195,4,1,0,70,0,0
122239,-119.047619047619,4,1,0,70,0,0
122341,-116.279069767442,4,1,0,70,0,0
122444,-113.636363636364,4,1,0,70,0,0
122547,-111.111111111111,4,1,0,70,0,0
122649,-108.695652173913,4,1,0,70,0,0
122752,-106.382978723404,4,1,0,70,0,0
123059,-142.857142857143,4,1,0,70,0,0
123777,-138.888888888889,4,1,0,70,0,0
123880,-135.135135135135,4,1,0,70,0,0
123982,-131.578947368421,4,1,0,70,0,0
124085,-128.205128205128,4,1,0,70,0,0
124188,-125,4,1,0,70,0,0
124290,-121.951219512195,4,1,0,70,0,0
124393,-119.047619047619,4,1,0,70,0,0
124495,-113.636363636364,4,1,0,70,0,0
124598,-112.359550561798,4,1,0,70,0,0
124675,-111.111111111111,4,1,0,70,0,0
124752,-109.89010989011,4,1,0,70,0,0
124906,-108.695652173913,4,1,0,70,0,0
124982,-107.52688172043,4,1,0,70,0,0
125059,-106.382978723404,4,1,0,70,0,0
125213,-104.166666666667,4,1,0,70,0,0
125316,-102.040816326531,4,1,0,70,0,0
125418,-100,4,1,0,70,0,0
125521,-98.0392156862745,4,1,0,70,0,0
125829,-96.1538461538461,4,1,0,70,0,0
126136,-90.9090909090909,4,1,0,70,0,0
126444,-142.857142857143,4,1,0,70,0,0
129059,-138.888888888889,4,1,0,70,0,0
129213,-135.135135135135,4,1,0,70,0,0
129521,-131.578947368421,4,1,0,70,0,0
129829,-125,4,1,0,70,0,0
130059,-66.6666666666667,4,1,0,70,0,0
130213,-142.857142857143,4,1,0,70,0,0
133829,-66.6666666666667,4,1,0,100,0,0

[HitObjects]
256,192,906,5,8,0:0:0:0:
256,192,1521,1,8,0:0:0:0:
256,192,1829,1,0,0:0:0:0:
256,192,2752,1,0,0:0:0:0:
256,192,3367,1,0,0:0:0:0:
256,192,3675,1,8,0:0:0:0:
256,192,4598,1,8,0:0:0:0:
256,192,5213,1,8,0:0:0:0:
256,192,5521,1,8,0:0:0:0:
256,192,6444,1,8,0:0:0:0:
256,192,7059,1,0,0:0:0:0:
256,192,7213,1,0,0:0:0:0:
256,192,7367,1,8,0:0:0:0:
256,192,7675,1,0,0:0:0:0:
256,192,7829,1,0,0:0:0:0:
256,192,7982,1,8,0:0:0:0:
256,192,8136,1,8,0:0:0:0:
256,192,8290,1,0,0:0:0:0:
256,192,8906,1,0,0:0:0:0:
256,192,9213,1,8,0:0:0:0:
256,192,9521,1,0,0:0:0:0:
256,192,9829,1,0,0:0:0:0:
256,192,9982,1,0,0:0:0:0:
256,192,10136,1,8,0:0:0:0:
256,192,10444,1,0,0:0:0:0:
256,192,10752,1,8,0:0:0:0:
256,192,10906,1,0,0:0:0:0:
256,192,11059,1,8,0:0:0:0:
256,192,11367,1,0,0:0:0:0:
256,192,11470,1,0,0:0:0:0:
256,192,11572,1,0,0:0:0:0:
256,192,11675,1,8,0:0:0:0:
256,192,11777,1,8,0:0:0:0:
256,192,11880,1,0,0:0:0:0:
256,192,11982,1,8,0:0:0:0:
256,192,12598,1,0,0:0:0:0:
256,192,12752,1,0,0:0:0:0:
256,192,12906,1,8,0:0:0:0:
256,192,13008,1,8,0:0:0:0:
256,192,13111,1,8,0:0:0:0:
256,192,13213,1,0,0:0:0:0:
256,192,13316,1,0,0:0:0:0:
256,192,13418,1,0,0:0:0:0:
256,192,13521,1,8,0:0:0:0:
256,192,13623,1,0,0:0:0:0:
256,192,13726,1,0,0:0:0:0:
256,192,13829,1,8,0:0:0:0:
256,192,13906,1,0,0:0:0:0:
256,192,13982,1,8,0:0:0:0:
256,192,14136,1,0,0:0:0:0:
256,192,14213,1,0,0:0:0:0:
256,192,14290,1,8,0:0:0:0:
256,192,14444,1,0,0:0:0:0:
256,192,14547,1,8,0:0:0:0:
256,192,14649,1,8,0:0:0:0:
256,192,14752,1,0,0:0:0:0:
256,192,15059,1,0,0:0:0:0:
256,192,15367,1,0,0:0:0:0:
256,192,15675,1,8,0:0:0:0:
256,192,16290,1,8,0:0:0:0:
256,192,16367,1,8,0:0:0:0:
256,192,16598,1,0,0:0:0:0:
256,192,16906,1,0,0:0:0:0:
256,192,17213,1,0,0:0:0:0:
256,192,17521,1,8,0:0:0:0:
256,192,18136,1,8,0:0:0:0:
256,192,18290,1,8,0:0:0:0:
256,192,18444,1,0,0:0:0:0:
256,192,18752,1,0,0:0:0:0:
256,192,19059,1,8,0:0:0:0:
256,192,19367,1,4,0:0:0:0:
256,192,20290,1,8,0:0:0:0:
256,192,21213,1,8,0:0:0:0:
256,192,22136,1,8,0:0:0:0:
256,192,22444,1,8,0:0:0:0:
256,192,22598,1,8,0:0:0:0:
256,192,22752,1,8,0:0:0:0:
256,192,22906,1,8,0:0:0:0:
256,192,23059,1,4,0:0:0:0:
256,192,23367,1,0,0:0:0:0:
256,192,23521,1,8,0:0:0:0:
256,192,23829,1,8,0:0:0:0:
256,192,23982,1,8,0:0:0:0:
256,192,24136,1,0,0:0:0:0:
256,192,24290,1,8,0:0:0:0:
256,192,24598,1,8,0:0:0:0:
256,192,24752,1,0,0:0:0:0:
256,192,24906,1,0,0:0:0:0:
256,192,25213,1,8,0:0:0:0:
256,192,25367,1,0,0:0:0:0:
256,192,25521,1,8,0:0:0:0:
256,192,25598,1,8,0:0:0:0:
256,192,25829,1,8,0:0:0:0:
256,192,26136,1,0,0:0:0:0:
256,192,26290,1,8,0:0:0:0:
256,192,26444,1,0,0:0:0:0:
256,192,26598,1,0,0:0:0:0:
256,192,26752,1,8,0:0:0:0:
256,192,26982,1,0,0:0:0:0:
256,192,27059,1,8,0:0:0:0:
256,192,27290,1,0,0:0:0:0:
256,192,27367,1,0,0:0:0:0:
256,192,27598,1,0,0:0:0:0:
256,192,27675,1,8,0:0:0:0:
256,192,27982,1,8,0:0:0:0:
256,192,28136,1,8,0:0:0:0:
256,192,28290,1,0,0:0:0:0:
256,192,28598,1,8,0:0:0:0:
256,192,28829,1,8,0:0:0:0:
256,192,28906,1,0,0:0:0:0:
256,192,29136,1,0,0:0:0:0:
256,192,29213,1,8,0:0:0:0:
256,192,29444,1,8,0:0:0:0:
256,192,29521,1,0,0:0:0:0:
256,192,29675,1,0,0:0:0:0:
256,192,29829,1,8,0:0:0:0:
256,192,29982,1,0,0:0:0:0:
256,192,30136,1,8,0:0:0:0:
256,192,30188,1,0,0:0:0:0:
256,192,30239,1,0,0:0:0:0:
256,192,30290,1,8,0:0:0:0:
256,192,30341,1,0,0:0:0:0:
256,192,30393,1,0,0:0:0:0:
256,192,30444,1,8,0:0:0:0:
256,192,30752,1,0,0:0:0:0:
256,192,30906,1,8,0:0:0:0:
256,192,31059,1,0,0:0:0:0:
256,192,31213,1,0,0:0:0:0:
256,192,31367,1,8,0:0:0:0:
256,192,31675,1,0,0:0:0:0:
256,192,31982,1,8,0:0:0:0:
256,192,32136,1,8,0:0:0:0:
256,192,32290,1,0,0:0:0:0:
256,192,32598,1,8,0:0:0:0:
256,192,32752,1,0,0:0:0:0:
256,192,32906,1,8,0:0:0:0:
256,192,32982,1,8,0:0:0:0:
256,192,33213,1,8,0:0:0:0:
256,192,33521,1,0,0:0:0:0:
256,192,33675,1,0,0:0:0:0:
256,192,33829,1,8,0:0:0:0:
256,192,34059,1,8,0:0:0:0:
256,192,34136,1,0,0:0:0:0:
256,192,34290,1,0,0:0:0:0:
256,192,34444,1,8,0:0:0:0:
256,192,34598,1,0,0:0:0:0:
256,192,34752,1,8,0:0:0:0:
256,192,34982,1,8,0:0:0:0:
256,192,35059,1,0,0:0:0:0:
256,192,35213,1,8,0:0:0:0:
256,192,35367,1,0,0:0:0:0:
256,192,35521,1,0,0:0:0:0:
256,192,35675,1,8,0:0:0:0:
256,192,35906,1,8,0:0:0:0:
256,192,35982,1,8,0:0:0:0:
256,192,36136,1,0,0:0:0:0:
256,192,36290,1,0,0:0:0:0:
256,192,36367,1,8,0:0:0:0:
256,192,36598,1,8,0:0:0:0:
256,192,36752,1,0,0:0:0:0:
256,192,36906,1,8,0:0:0:0:
256,192,37213,1,8,0:0:0:0:
256,192,37367,1,0,0:0:0:0:
256,192,37521,1,8,0:0:0:0:
256,192,37623,1,8,0:0:0:0:
256,192,37726,1,8,0:0:0:0:
256,192,37829,1,4,0:0:0:0:
256,192,38034,1,8,0:0:0:0:
256,192,38136,1,0,0:0:0:0:
256,192,38239,1,0,0:0:0:0:
256,192,38341,1,8,0:0:0:0:
256,192,38444,1,0,0:0:0:0:
256,192,38547,1,0,0:0:0:0:
256,192,38649,1,8,0:0:0:0:
256,192,38752,1,8,0:0:0:0:
256,192,38854,1,8,0:0:0:0:
256,192,38957,1,0,0:0:0:0:
256,192,39059,1,0,0:0:0:0:
256,192,39162,1,8,0:0:0:0:
256,192,39264,1,0,0:0:0:0:
256,192,39367,1,0,0:0:0:0:
256,192,39470,1,0,0:0:0:0:
256,192,39572,1,8,0:0:0:0:
256,192,39675,1,8,0:0:0:0:
256,192,39777,1,0,0:0:0:0:
256,192,39880,1,8,0:0:0:0:
256,192,39982,1,8,0:0:0:0:
256,192,40085,1,0,0:0:0:0:
256,192,40188,1,8,0:0:0:0:
256,192,40290,1,0,0:0:0:0:
256,192,40393,1,8,0:0:0:0:
256,192,40495,1,8,0:0:0:0:
256,192,40598,1,0,0:0:0:0:
256,192,40675,1,0,0:0:0:0:
256,192,40752,1,8,0:0:0:0:
256,192,40829,1,8,0:0:0:0:
256,192,40906,1,0,0:0:0:0:
256,192,40982,1,8,0:0:0:0:
256,192,41059,1,8,0:0:0:0:
256,192,41136,1,8,0:0:0:0:
256,192,41213,1,0,0:0:0:0:
256,192,41290,1,0,0:0:0:0:
256,192,41367,1,8,0:0:0:0:
256,192,41444,1,8,0:0:0:0:
256,192,41521,1,0,0:0:0:0:
256,192,41623,1,8,0:0:0:0:
256,192,41726,1,8,0:0:0:0:
256,192,41829,1,8,0:0:0:0:
256,192,41931,1,0,0:0:0:0:
256,192,42034,1,8,0:0:0:0:
256,192,42136,1,8,0:0:0:0:
256,192,42239,1,0,0:0:0:0:
256,192,42341,1,8,0:0:0:0:
256,192,42444,1,8,0:0:0:0:
256,192,42547,1,0,0:0:0:0:
256,192,42649,1,0,0:0:0:0:
256,192,42752,1,0,0:0:0:0:
256,192,42854,1,8,0:0:0:0:
256,192,42957,1,0,0:0:0:0:
256,192,43059,1,0,0:0:0:0:
256,192,43162,1,8,0:0:0:0:
256,192,43264,1,0,0:0:0:0:
256,192,43367,1,8,0:0:0:0:
256,192,43470,1,8,0:0:0:0:
256,192,43572,1,0,0:0:0:0:
256,192,43675,1,8,0:0:0:0:
256,192,43777,1,0,0:0:0:0:
256,192,43880,1,0,0:0:0:0:
256,192,43982,1,0,0:0:0:0:
256,192,44085,1,8,0:0:0:0:
256,192,44188,1,0,0:0:0:0:
256,192,44290,1,8,0:0:0:0:
256,192,44393,1,8,0:0:0:0:
256,192,44495,1,0,0:0:0:0:
256,192,44598,1,8,0:0:0:0:
256,192,44700,1,8,0:0:0:0:
256,192,44803,1,0,0:0:0:0:
256,192,44906,1,8,0:0:0:0:
256,192,45008,1,0,0:0:0:0:
256,192,45111,1,0,0:0:0:0:
256,192,45213,1,8,0:0:0:0:
256,192,45316,1,0,0:0:0:0:
256,192,45418,1,8,0:0:0:0:
256,192,45521,1,8,0:0:0:0:
256,192,45623,1,0,0:0:0:0:
256,192,45726,1,8,0:0:0:0:
256,192,45829,1,8,0:0:0:0:
256,192,45931,1,0,0:0:0:0:
256,192,46034,1,8,0:0:0:0:
256,192,46136,1,8,0:0:0:0:
256,192,46239,1,0,0:0:0:0:
256,192,46341,1,8,0:0:0:0:
256,192,46444,1,0,0:0:0:0:
256,192,46547,1,0,0:0:0:0:
256,192,46649,1,0,0:0:0:0:
256,192,46752,1,8,0:0:0:0:
256,192,46854,1,8,0:0:0:0:
256,192,46957,1,0,0:0:0:0:
256,192,47059,1,8,0:0:0:0:
256,192,47162,1,8,0:0:0:0:
256,192,47264,1,8,0:0:0:0:
256,192,47367,1,0,0:0:0:0:
256,192,47470,1,8,0:0:0:0:
256,192,47572,1,8,0:0:0:0:
256,192,47675,1,0,0:0:0:0:
256,192,47777,1,8,0:0:0:0:
256,192,47880,1,0,0:0:0:0:
256,192,47982,1,8,0:0:0:0:
256,192,48059,1,0,0:0:0:0:
256,192,48136,1,8,0:0:0:0:
256,192,48213,1,8,0:0:0:0:
256,192,48290,1,0,0:0:0:0:
256,192,48367,1,8,0:0:0:0:
256,192,48444,1,0,0:0:0:0:
256,192,48521,1,8,0:0:0:0:
256,192,48598,1,8,0:0:0:0:
256,192,48675,1,0,0:0:0:0:
256,192,48752,1,8,0:0:0:0:
256,192,48829,1,8,0:0:0:0:
256,192,48906,1,0,0:0:0:0:
256,192,49136,1,8,0:0:0:0:
256,192,49213,1,0,0:0:0:0:
256,192,49444,1,8,0:0:0:0:
256,192,49521,1,0,0:0:0:0:
256,192,49829,1,8,0:0:0:0:
256,192,49982,1,0,0:0:0:0:
256,192,50136,1,8,0:0:0:0:
256,192,50239,1,0,0:0:0:0:
256,192,50341,1,0,0:0:0:0:
256,192,50444,1,8,0:0:0:0:
256,192,50598,1,0,0:0:0:0:
256,192,50752,1,8,0:0:0:0:
256,192,51059,1,8,0:0:0:0:
256,192,51290,1,8,0:0:0:0:
256,192,51367,1,8,0:0:0:0:
256,192,51675,1,8,0:0:0:0:
256,192,51982,1,8,0:0:0:0:
256,192,52136,1,8,0:0:0:0:
256,192,52290,1,0,0:0:0:0:
256,192,52444,1,0,0:0:0:0:
256,192,52598,1,12,0:0:0:0:
256,192,52906,1,0,0:0:0:0:
256,192,53213,1,0,0:0:0:0:
256,192,53521,1,8,0:0:0:0:
256,192,53829,1,0,0:0:0:0:
256,192,54136,1,8,0:0:0:0:
256,192,54444,1,8,0:0:0:0:
256,192,54752,1,8,0:0:0:0:
256,192,55059,1,0,0:0:0:0:
256,192,55367,1,8,0:0:0:0:
256,192,56290,1,0,0:0:0:0:
256,192,57213,1,8,0:0:0:0:
256,192,57829,1,0,0:0:0:0:
256,192,58136,1,8,0:0:0:0:
256,192,59059,1,0,0:0:0:0:
256,192,59675,1,0,0:0:0:0:
256,192,59829,1,0,0:0:0:0:
256,192,59982,1,8,0:0:0:0:
256,192,60290,1,0,0:0:0:0:
256,192,60598,1,0,0:0:0:0:
256,192,60906,1,8,0:0:0:0:
256,192,61213,1,0,0:0:0:0:
256,192,61521,1,8,0:0:0:0:
256,192,61829,1,8,0:0:0:0:
256,192,62136,1,8,0:0:0:0:
256,192,62444,1,0,0:0:0:0:
256,192,62752,1,8,0:0:0:0:
256,192,63675,1,0,0:0:0:0:
256,192,63982,1,8,0:0:0:0:
256,192,64290,1,8,0:0:0:0:
256,192,64598,1,0,0:0:0:0:
256,192,64906,1,8,0:0:0:0:
256,192,65213,1,8,0:0:0:0:
256,192,65521,1,0,0:0:0:0:
256,192,65829,1,0,0:0:0:0:
256,192,66136,1,0,0:0:0:0:
256,192,66444,1,12,0:0:0:0:
256,192,66752,1,8,0:0:0:0:
256,192,66854,1,8,0:0:0:0:
256,192,66957,1,0,0:0:0:0:
256,192,67059,1,8,0:0:0:0:
256,192,67162,1,0,0:0:0:0:
256,192,67264,1,0,0:0:0:0:
256,192,67367,1,12,0:0:0:0:
256,192,67521,1,8,0:0:0:0:
256,192,67598,1,0,0:0:0:0:
256,192,67675,1,8,0:0:0:0:
256,192,67829,1,8,0:0:0:0:
256,192,68136,1,8,0:0:0:0:
256,192,68213,1,8,0:0:0:0:
256,192,68290,1,0,0:0:0:0:
256,192,68444,1,0,0:0:0:0:
256,192,68598,1,8,0:0:0:0:
256,192,68752,1,0,0:0:0:0:
256,192,68906,1,0,0:0:0:0:
256,192,69059,1,8,0:0:0:0:
256,192,69213,1,0,0:0:0:0:
256,192,69521,1,8,0:0:0:0:
256,192,69675,1,0,0:0:0:0:
256,192,69829,1,8,0:0:0:0:
256,192,69982,1,8,0:0:0:0:
256,192,70136,1,0,0:0:0:0:
256,192,70444,1,0,0:0:0:0:
256,192,70598,1,0,0:0:0:0:
256,192,70752,1,8,0:0:0:0:
256,192,70906,1,0,0:0:0:0:
256,192,70982,1,8,0:0:0:0:
256,192,71059,1,8,0:0:0:0:
256,192,71367,1,0,0:0:0:0:
256,192,71521,1,8,0:0:0:0:
256,192,71675,1,0,0:0:0:0:
256,192,71829,1,0,0:0:0:0:
256,192,71982,1,8,0:0:0:0:
256,192,72290,1,0,0:0:0:0:
256,192,72444,1,8,0:0:0:0:
256,192,72598,1,0,0:0:0:0:
256,192,72906,1,0,0:0:0:0:
256,192,73059,1,8,0:0:0:0:
256,192,73367,1,8,0:0:0:0:
256,192,73521,1,0,0:0:0:0:
256,192,73829,1,8,0:0:0:0:
256,192,73982,1,0,0:0:0:0:
256,192,74136,1,8,0:0:0:0:
256,192,74290,1,8,0:0:0:0:
256,192,74444,1,0,0:0:0:0:
256,192,74598,1,0,0:0:0:0:
256,192,74752,1,12,0:0:0:0:
256,192,74906,1,0,0:0:0:0:
256,192,75059,1,8,0:0:0:0:
256,192,75136,1,0,0:0:0:0:
256,192,75213,1,8,0:0:0:0:
256,192,75521,1,8,0:0:0:0:
256,192,75598,1,8,0:0:0:0:
256,192,75675,1,0,0:0:0:0:
256,192,75829,1,0,0:0:0:0:
256,192,75982,1,8,0:0:0:0:
256,192,76136,1,0,0:0:0:0:
256,192,76290,1,8,0:0:0:0:
256,192,76444,1,8,0:0:0:0:
256,192,76598,1,0,0:0:0:0:
256,192,76906,1,0,0:0:0:0:
256,192,77059,1,0,0:0:0:0:
256,192,77213,1,8,0:0:0:0:
256,192,77367,1,8,0:0:0:0:
256,192,77521,1,0,0:0:0:0:
256,192,77829,1,8,0:0:0:0:
256,192,77982,1,0,0:0:0:0:
256,192,78136,1,8,0:0:0:0:
256,192,78290,1,0,0:0:0:0:
256,192,78367,1,0,0:0:0:0:
256,192,78444,1,8,0:0:0:0:
256,192,78752,1,8,0:0:0:0:
256,192,78906,1,8,0:0:0:0:
256,192,79059,1,0,0:0:0:0:
256,192,79213,1,8,0:0:0:0:
256,192,79290,1,0,0:0:0:0:
256,192,79367,1,8,0:0:0:0:
256,192,79521,1,0,0:0:0:0:
256,192,79675,1,8,0:0:0:0:
256,192,79752,1,8,0:0:0:0:
256,192,79829,1,0,0:0:0:0:
256,192,79906,1,0,0:0:0:0:
256,192,79982,1,8,0:0:0:0:
256,192,80136,1,0,0:0:0:0:
256,192,80213,1,0,0:0:0:0:
256,192,80290,1,8,0:0:0:0:
256,192,80598,1,0,0:0:0:0:
256,192,80752,1,8,0:0:0:0:
256,192,80906,1,0,0:0:0:0:
256,192,81059,1,0,0:0:0:0:
256,192,81213,1,8,0:0:0:0:
256,192,81290,1,8,0:0:0:0:
256,192,81367,1,8,0:0:0:0:
256,192,81675,1,0,0:0:0:0:
256,192,81829,1,8,0:0:0:0:
256,192,81982,1,8,0:0:0:0:
256,192,82136,1,4,0:0:0:0:
256,192,82290,1,0,0:0:0:0:
256,192,82367,1,0,0:0:0:0:
256,192,82444,1,8,0:0:0:0:
256,192,82521,1,0,0:0:0:0:
256,192,82598,1,8,0:0:0:0:
256,192,82906,1,8,0:0:0:0:
256,192,82982,1,8,0:0:0:0:
256,192,83059,1,0,0:0:0:0:
256,192,83213,1,8,0:0:0:0:
256,192,83367,1,0,0:0:0:0:
256,192,83521,1,8,0:0:0:0:
256,192,83675,1,8,0:0:0:0:
256,192,83752,1,8,0:0:0:0:
256,192,83829,1,0,0:0:0:0:
256,192,83982,1,0,0:0:0:0:
256,192,84290,1,8,0:0:0:0:
256,192,84444,1,0,0:0:0:0:
256,192,84598,1,8,0:0:0:0:
256,192,84752,1,8,0:0:0:0:
256,192,84829,1,8,0:0:0:0:
256,192,84906,1,0,0:0:0:0:
256,192,85213,1,0,0:0:0:0:
256,192,85367,1,0,0:0:0:0:
256,192,85521,1,8,0:0:0:0:
256,192,85675,1,0,0:0:0:0:
256,192,85752,1,0,0:0:0:0:
256,192,85829,1,8,0:0:0:0:
256,192,85982,1,0,0:0:0:0:
256,192,86136,1,8,0:0:0:0:
256,192,86290,1,8,0:0:0:0:
256,192,86598,1,8,0:0:0:0:
256,192,86752,1,0,0:0:0:0:
256,192,87059,1,0,0:0:0:0:
256,192,87213,1,8,0:0:0:0:
256,192,87367,1,8,0:0:0:0:
256,192,87521,1,8,0:0:0:0:
256,192,87675,1,0,0:0:0:0:
256,192,87982,1,0,0:0:0:0:
256,192,88136,1,8,0:0:0:0:
256,192,88444,1,8,0:0:0:0:
256,192,88598,1,0,0:0:0:0:
256,192,88752,1,0,0:0:0:0:
256,192,88906,1,8,0:0:0:0:
256,192,88982,1,8,0:0:0:0:
256,192,89059,1,8,0:0:0:0:
256,192,89213,1,0,0:0:0:0:
256,192,89367,1,8,0:0:0:0:
256,192,89444,1,0,0:0:0:0:
256,192,89521,1,0,0:0:0:0:
256,192,89675,1,0,0:0:0:0:
256,192,89752,1,0,0:0:0:0:
256,192,89829,1,8,0:0:0:0:
256,192,89906,1,8,0:0:0:0:
256,192,89982,1,0,0:0:0:0:
256,192,90290,1,8,0:0:0:0:
256,192,90367,1,8,0:0:0:0:
256,192,90444,1,0,0:0:0:0:
256,192,90598,1,0,0:0:0:0:
256,192,90752,1,8,0:0:0:0:
256,192,90906,1,8,0:0:0:0:
256,192,91059,1,0,0:0:0:0:
256,192,91213,1,0,0:0:0:0:
256,192,91290,1,0,0:0:0:0:
256,192,91367,1,8,0:0:0:0:
256,192,91675,1,8,0:0:0:0:
256,192,91829,1,0,0:0:0:0:
256,192,91982,1,8,0:0:0:0:
256,192,92059,1,0,0:0:0:0:
256,192,92136,1,8,0:0:0:0:
256,192,92213,1,8,0:0:0:0:
256,192,92290,1,0,0:0:0:0:
256,192,92598,1,8,0:0:0:0:
256,192,92752,1,0,0:0:0:0:
256,192,92906,1,8,0:0:0:0:
256,192,93059,1,0,0:0:0:0:
256,192,93136,1,0,0:0:0:0:
256,192,93213,1,8,0:0:0:0:
256,192,93367,1,0,0:0:0:0:
256,192,93521,1,8,0:0:0:0:
256,192,93675,1,8,0:0:0:0:
256,192,93829,1,0,0:0:0:0:
256,192,93982,1,8,0:0:0:0:
256,192,94059,1,8,0:0:0:0:
256,192,94136,1,0,0:0:0:0:
256,192,94290,1,0,0:0:0:0:
256,192,94444,1,8,0:0:0:0:
256,192,94598,1,8,0:0:0:0:
256,192,94752,1,0,0:0:0:0:
256,192,94906,1,0,0:0:0:0:
256,192,94982,1,8,0:0:0:0:
256,192,95059,1,8,0:0:0:0:
256,192,95367,1,0,0:0:0:0:
256,192,95521,1,8,0:0:0:0:
256,192,95829,1,8,0:0:0:0:
256,192,95982,1,0,0:0:0:0:
256,192,96290,1,0,0:0:0:0:
256,192,96444,1,8,0:0:0:0:
256,192,96598,1,8,0:0:0:0:
256,192,96752,1,0,0:0:0:0:
256,192,96906,5,4,0:0:0:0:
256,192,97367,1,8,0:0:0:0:
256,192,97829,1,0,0:0:0:0:
256,192,98444,1,8,0:0:0:0:
256,192,98598,1,8,0:0:0:0:
256,192,98752,1,0,0:0:0:0:
256,192,99059,1,0,0:0:0:0:
256,192,99367,1,8,0:0:0:0:
256,192,99675,1,8,0:0:0:0:
256,192,100290,1,8,0:0:0:0:
256,192,100444,1,0,0:0:0:0:
256,192,100598,1,8,0:0:0:0:
256,192,100829,1,0,0:0:0:0:
256,192,100906,1,8,0:0:0:0:
256,192,101136,1,8,0:0:0:0:
256,192,101213,1,0,0:0:0:0:
256,192,101444,1,0,0:0:0:0:
256,192,101521,1,8,0:0:0:0:
256,192,101829,1,8,0:0:0:0:
256,192,102136,1,0,0:0:0:0:
256,192,102444,1,8,0:0:0:0:
256,192,102675,1,8,0:0:0:0:
256,192,102752,1,0,0:0:0:0:
256,192,102982,1,0,0:0:0:0:
256,192,103059,1,8,0:0:0:0:
256,192,103290,1,8,0:0:0:0:
256,192,103367,1,0,0:0:0:0:
256,192,103675,1,0,0:0:0:0:
256,192,103829,1,0,0:0:0:0:
256,192,103982,1,8,0:0:0:0:
256,192,104034,1,0,0:0:0:0:
256,192,104085,1,0,0:0:0:0:
256,192,104136,1,8,0:0:0:0:
256,192,104188,1,0,0:0:0:0:
256,192,104239,1,0,0:0:0:0:
256,192,104290,1,8,0:0:0:0:
256,192,104752,1,8,0:0:0:0:
256,192,105213,1,0,0:0:0:0:
256,192,105829,1,8,0:0:0:0:
256,192,105982,1,0,0:0:0:0:
256,192,106136,1,0,0:0:0:0:
256,192,106444,1,0,0:0:0:0:
256,192,106598,1,0,0:0:0:0:
256,192,106752,1,8,0:0:0:0:
256,192,106906,1,8,0:0:0:0:
256,192,107059,1,0,0:0:0:0:
256,192,107675,1,8,0:0:0:0:
256,192,107906,1,8,0:0:0:0:
256,192,107982,1,0,0:0:0:0:
256,192,108136,1,0,0:0:0:0:
256,192,108290,1,8,0:0:0:0:
256,192,108444,1,0,0:0:0:0:
256,192,108598,1,8,0:0:0:0:
256,192,108829,1,8,0:0:0:0:
256,192,108906,1,0,0:0:0:0:
256,192,109059,1,0,0:0:0:0:
256,192,109213,1,0,0:0:0:0:
256,192,109367,1,8,0:0:0:0:
256,192,109521,1,0,0:0:0:0:
256,192,109752,1,0,0:0:0:0:
256,192,109829,1,8,0:0:0:0:
256,192,110136,1,0,0:0:0:0:
256,192,110444,1,8,0:0:0:0:
256,192,110752,1,8,0:0:0:0:
256,192,111059,1,0,0:0:0:0:
256,192,111367,1,8,0:0:0:0:
256,192,111675,5,8,0:0:0:0:
256,192,112291,1,8,0:0:0:0:
256,192,112599,1,0,0:0:0:0:
256,192,113522,1,0,0:0:0:0:
256,192,114137,1,0,0:0:0:0:
256,192,114445,1,8,0:0:0:0:
256,192,115368,1,8,0:0:0:0:
256,192,115983,1,8,0:0:0:0:
256,192,116291,1,8,0:0:0:0:
256,192,117214,1,8,0:0:0:0:
256,192,117829,1,0,0:0:0:0:
256,192,117983,1,0,0:0:0:0:
256,192,118137,1,8,0:0:0:0:
256,192,118445,1,0,0:0:0:0:
256,192,118599,1,0,0:0:0:0:
256,192,118752,1,8,0:0:0:0:
256,192,118906,1,8,0:0:0:0:
256,192,119060,1,0,0:0:0:0:
256,192,119676,1,0,0:0:0:0:
256,192,119983,1,8,0:0:0:0:
256,192,120291,1,0,0:0:0:0:
256,192,120599,1,0,0:0:0:0:
256,192,120752,1,0,0:0:0:0:
256,192,120906,1,8,0:0:0:0:
256,192,121214,1,0,0:0:0:0:
256,192,121522,1,8,0:0:0:0:
256,192,121676,1,0,0:0:0:0:
256,192,121829,1,8,0:0:0:0:
256,192,122137,1,0,0:0:0:0:
256,192,122240,1,0,0:0:0:0:
256,192,122342,1,0,0:0:0:0:
256,192,122445,1,8,0:0:0:0:
256,192,122547,1,8,0:0:0:0:
256,192,122650,1,0,0:0:0:0:
256,192,122752,1,8,0:0:0:0:
256,192,123368,1,0,0:0:0:0:
256,192,123522,1,0,0:0:0:0:
256,192,123676,1,8,0:0:0:0:
256,192,123778,1,8,0:0:0:0:
256,192,123881,1,8,0:0:0:0:
256,192,123983,1,0,0:0:0:0:
256,192,124086,1,0,0:0:0:0:
256,192,124188,1,0,0:0:0:0:
256,192,124291,1,8,0:0:0:0:
256,192,124393,1,0,0:0:0:0:
256,192,124496,1,0,0:0:0:0:
256,192,124599,1,8,0:0:0:0:
256,192,124676,1,0,0:0:0:0:
256,192,124752,1,8,0:0:0:0:
256,192,124906,1,0,0:0:0:0:
256,192,124983,1,0,0:0:0:0:
256,192,125060,1,8,0:0:0:0:
256,192,125214,1,0,0:0:0:0:
256,192,125317,1,8,0:0:0:0:
256,192,125419,1,8,0:0:0:0:
256,192,125522,1,0,0:0:0:0:
256,192,125829,1,0,0:0:0:0:
256,192,126137,1,0,0:0:0:0:
256,192,126445,1,8,0:0:0:0:
256,192,127059,1,8,0:0:0:0:
256,192,127136,1,8,0:0:0:0:
256,192,127367,1,0,0:0:0:0:
256,192,127675,1,0,0:0:0:0:
256,192,127982,1,0,0:0:0:0:
256,192,128290,1,8,0:0:0:0:
256,192,128905,1,8,0:0:0:0:
256,192,129059,1,8,0:0:0:0:
256,192,129213,1,0,0:0:0:0:
256,192,129521,1,0,0:0:0:0:
256,192,129828,1,8,0:0:0:0:
256,192,130136,1,4,0:0:0:0:
256,192,131059,1,8,0:0:0:0:
256,192,131982,1,8,0:0:0:0:
256,192,132906,1,8,0:0:0:0:
256,192,133829,1,12,0:0:0:0:
