osu file format v14

[General]
AudioFilename: audio.mp3
AudioLeadIn: 0
PreviewTime: 54144
Countdown: 0
SampleSet: Normal
StackLeniency: 0.7
Mode: 0
LetterboxInBreaks: 0
WidescreenStoryboard: 0

[Editor]
DistanceSpacing: 1
BeatDivisor: 2
GridSize: 4
TimelineZoom: 1.3

[Metadata]
Title:ONLY YOUR STARS!
TitleUnicode:ONLY YOUR STARS!
Artist:Morikubo Syoutarou, Kakihara Tetsuya
ArtistUnicode:森久保祥太郎、柿原徹也
Creator:Ryuusei Aika
Version:kanor's Normal
Source:あんさんぶるスターズ!
Tags:あんスタ Ensemble Stars op opening theme 明星スバル Akehoshi Subaru 遊木真 Yuuki Makoto 松井洋平 Matsui Youhei Dir 中士智博 Tomohiro Nakatsuchi Sandrew kanor Amamiya Kanade Zhongren Suzuki_1112 1112deng
BeatmapID:1433586
BeatmapSetID:675185

[Difficulty]
HPDrainRate:4
CircleSize:3.5
OverallDifficulty:4
ApproachRate:5
SliderMultiplier:1.2
SliderTickRate:1

[Events]
//Background and Video events
0,0,"BGNM.jpg",0,0
Video,100,"OP1.avi"
//Break Periods
//Storyboard Layer 0 (Background)
//Storyboard Layer 1 (Fail)
//Storyboard Layer 2 (Pass)
//Storyboard Layer 3 (Foreground)
//Storyboard Sound Samples

[TimingPoints]
346,333.333333333333,4,1,1,20,1,0
595,-133.333333333333,4,1,1,5,0,0
679,-133.333333333333,4,1,1,30,0,0
929,-133.333333333333,4,1,1,5,0,0
1012,-133.333333333333,4,1,1,40,0,0
1262,-133.333333333333,4,1,1,5,0,0
1308,323.450134770889,4,1,2,50,1,0
1408,-100,4,1,2,50,0,0
1550,-133.333333333333,4,1,1,50,0,0
5189,-133.333333333333,4,1,1,60,0,0
5512,-133.333333333333,4,1,1,50,0,0
5836,-133.333333333333,4,1,1,40,0,0
6159,-133.333333333333,4,1,1,50,0,0
6483,-133.333333333333,4,1,1,60,0,0
6644,323.450134770889,4,1,1,60,1,0
6644,-133.333333333333,4,1,1,60,0,0
6968,-133.333333333333,4,1,1,50,0,0
9151,-133.333333333333,4,1,2,50,0,0
9394,-133.333333333333,4,1,1,50,0,0
9555,-133.333333333333,4,1,2,50,0,0
9717,-133.333333333333,4,1,1,50,0,0
9879,-133.333333333333,4,1,2,50,0,0
10041,-133.333333333333,4,1,1,50,0,0
10364,-133.333333333333,4,1,2,50,0,0
10688,-133.333333333333,4,1,1,30,0,0
12290,322.58064516129,4,1,1,50,1,0
12290,-133.333333333333,4,2,0,95,0,0
12935,-133.333333333333,4,1,2,70,0,0
13096,322.58064516129,4,1,1,70,1,0
13096,-133.333333333333,4,1,1,70,0,0
18095,-133.333333333333,4,1,1,60,0,0
20676,-133.333333333333,4,1,1,70,0,0
20837,-133.333333333333,4,1,2,70,0,0
22289,-133.333333333333,4,1,1,40,0,0
23257,-133.333333333333,4,1,1,50,0,0
32289,-133.333333333333,4,1,1,50,0,0
32531,-133.333333333333,4,1,1,5,0,0
32612,-133.333333333333,4,1,1,45,0,0
32854,-133.333333333333,4,1,1,5,0,0
32934,-133.333333333333,4,1,1,40,0,0
33176,-133.333333333333,4,1,1,5,0,0
33257,-133.333333333333,4,1,1,35,0,0
33499,-133.333333333333,4,1,1,5,0,0
33579,-133.333333333333,4,1,1,55,0,0
43579,-133.333333333333,4,1,2,55,0,0
43902,-133.333333333333,4,1,1,60,0,0
49547,-133.333333333333,4,1,1,50,0,0
51805,-133.333333333333,4,1,1,52,0,0
51966,-133.333333333333,4,1,1,54,0,0
52128,-133.333333333333,4,1,1,56,0,0
52289,-133.333333333333,4,1,1,58,0,0
52450,-133.333333333333,4,1,2,60,0,0
52531,-133.333333333333,4,1,2,62,0,0
52612,-133.333333333333,4,1,2,64,0,0
52692,-133.333333333333,4,1,2,66,0,0
52773,-133.333333333333,4,1,2,68,0,0
52854,-133.333333333333,4,1,2,70,0,0
52934,-133.333333333333,4,1,2,72,0,0
53257,-133.333333333333,4,1,1,50,0,0
54225,-133.333333333333,4,1,3,80,0,1
54305,-133.333333333333,4,1,1,80,0,1
62128,-133.333333333333,4,1,2,90,0,1
62289,-133.333333333333,4,1,1,80,0,1
62450,-133.333333333333,4,1,2,90,0,1
62612,-133.333333333333,4,1,1,80,0,1
62773,-133.333333333333,4,1,2,90,0,1
62934,-133.333333333333,4,1,1,80,0,1
63095,-133.333333333333,4,1,2,80,0,1
63257,-133.333333333333,4,1,1,95,0,1
63579,-133.333333333333,4,1,1,75,0,1
64547,-133.333333333333,4,1,2,80,0,1
64628,-133.333333333333,4,1,1,80,0,1
72450,-133.333333333333,4,1,2,90,0,1
72612,-133.333333333333,4,1,1,80,0,1
72773,-133.333333333333,4,1,2,87,0,1
72934,-133.333333333333,4,1,1,77,0,1
73095,-133.333333333333,4,1,2,84,0,1
73257,-133.333333333333,4,1,1,74,0,1
73579,-133.333333333333,4,1,2,100,0,0
73902,-133.333333333333,4,1,1,65,0,0
74870,-133.333333333333,4,1,2,75,0,0
74950,-133.333333333333,4,1,1,75,0,0
82773,-133.333333333333,4,1,2,90,0,0
82934,-133.333333333333,4,1,1,75,0,0
83095,-133.333333333333,4,1,2,90,0,0
83257,-133.333333333333,4,1,1,75,0,0
83418,-133.333333333333,4,1,2,90,0,0
83579,-133.333333333333,4,1,1,75,0,0
83902,-133.333333333333,4,1,2,100,0,0
84225,-133.333333333333,4,1,1,70,0,0
85192,-133.333333333333,4,1,1,80,0,0
87773,-133.333333333333,4,1,1,100,0,0
87854,-133.333333333333,4,1,1,10,0,0

[Colours]
Combo1 : 231,173,223
Combo2 : 250,176,69
Combo3 : 111,58,149
Combo4 : 228,60,38

[HitObjects]
44,48,1308,5,4,0:0:0:0:
128,40,2601,1,4,0:0:0:0:
188,92,3895,5,4,0:0:0:0:
112,120,5189,6,0,P|124:164|112:208,1,90.0000034332277,4|4,0:0|0:0,0:0:0:0:
43,263,5836,2,0,P|31:307|43:351,1,90.0000034332277,4|4,0:0|0:0,0:0:0:0:
121,307,6483,6,0,B|216:307|216:307|256:340,1,135.000005149841,4|2,0:0|0:0,0:0:0:0:
334,355,7290,1,2,0:0:0:0:
313,267,7614,1,2,0:0:0:0:
398,295,7937,2,0,P|452:304|494:292,1,90.0000034332277,2|2,0:0|0:0,0:0:0:0:
443,215,8584,2,0,L|448:106,1,90.0000034332277,2|2,0:0|0:0,0:0:0:0:
439,80,9069,6,0,P|369:62|312:82,1,135.000005149841,4|2,0:0|0:0,0:0:0:0:
228,116,9878,2,0,L|169:112,2,45.0000017166138,2|2|0,0:0|0:0|0:0,0:0:0:0:
256,151,10363,1,8,0:0:0:0:
44,112,12935,6,0,P|59:182|38:246,1,135.000005149841,4|8,0:0|0:0,0:0:0:0:
39,331,13741,2,0,P|87:323|132:336,1,90.0000034332277,2|8,0:0|0:0,0:0:0:0:
162,360,14225,2,0,P|226:380|305:354,1,135.000005149841,4|8,0:0|0:0,0:0:0:0:
421,329,15192,6,0,L|495:345,2,45.0000017166138,2|8|4,0:0|0:0|0:0,0:0:0:0:
350,272,15837,2,0,L|276:288,2,45.0000017166138,2|8|0,0:0|0:0|0:0,0:0:0:0:
430,232,16483,2,0,L|504:248,2,45.0000017166138,2|8|4,0:0|0:0|0:0,0:0:0:0:
359,175,17128,2,0,L|285:191,2,45.0000017166138,2|8|4,0:0|0:0|0:0,0:0:0:0:
444,146,17773,2,0,L|445:86,1,45.0000017166138,2|8,0:0|0:0,0:0:0:0:
457,57,18095,6,0,P|350:80|239:25,1,225.000008583069,4|2,0:0|0:0,0:0:0:0:
158,41,19225,2,0,L|161:109,1,45.0000017166138,0|2,0:0|0:0,0:0:0:0:
119,106,19547,2,0,L|120:204,2,90.0000034332277,0|2|8,0:0|0:0|0:0,0:0:0:0:
28,208,20676,6,0,L|29:315,1,90.0000034332277,4|0,0:0|0:0,0:0:0:0:
40,340,21160,2,0,L|118:336,1,45.0000017166138,2|0,0:0|0:0,0:0:0:0:
124,312,21483,2,0,L|202:316,1,45.0000017166138,2|0,0:0|0:0,0:0:0:0:
211,329,21805,2,0,L|289:325,1,45.0000017166138,0|8,0:0|0:0,0:0:0:0:
469,40,23257,6,0,L|478:163,1,90.0000034332277,6|0,0:0|0:0,0:0:0:0:
459,172,23741,1,2,0:0:0:0:
459,172,23902,2,0,P|405:185|360:166,1,90.0000034332277,0|0,0:0|0:0,0:0:0:0:
286,150,24547,2,0,L|276:15,1,135.000005149841,0|2,0:0|0:0,0:0:0:0:
186,8,25354,1,2,0:0:0:0:
186,8,25676,1,2,0:0:0:0:
197,97,25999,6,0,L|200:224,1,90.0000034332277,0|2,0:0|0:0,0:0:0:0:
187,229,26483,1,0,0:0:0:0:
187,229,26644,2,0,P|133:242|88:223,1,90.0000034332277,0|2,0:0|0:0,0:0:0:0:
24,185,27289,2,0,L|14:296,1,90.0000034332277,2|2,0:0|0:0,0:0:0:0:
75,342,27934,1,2,0:0:0:0:
75,342,28257,1,2,0:0:0:0:
164,328,28579,6,0,L|277:334,1,90.0000034332277,0|0,0:0|0:0,0:0:0:0:
296,316,29063,2,0,P|307:268|291:212,1,90.0000034332277,0|0,0:0|0:0,0:0:0:0:
220,185,29708,2,0,P|212:140|223:97,1,90.0000034332277,0|0,0:0|0:0,0:0:0:0:
250,61,30192,1,2,0:0:0:0:
250,61,30354,2,0,L|363:55,1,90.0000034332277,0|0,0:0|0:0,0:0:0:0:
419,98,30999,6,0,P|429:141|422:185,1,90.0000034332277,0|0,0:0|0:0,0:0:0:0:
402,225,31483,2,0,P|391:268|398:312,1,90.0000034332277,2|2,0:0|0:0,0:0:0:0:
427,346,31966,2,0,L|493:351,2,45.0000017166138,0|8|2,0:0|0:0|0:0,0:0:0:0:
320,344,33579,6,0,P|266:331|221:350,1,90.0000034332277,4|0,0:0|0:0,0:0:0:0:
190,353,34063,1,8,0:0:0:0:
190,353,34225,2,0,L|199:230,1,90.0000034332277,0|2,0:0|0:0,0:0:0:0:
216,222,34708,1,8,0:0:0:0:
304,239,35031,2,0,P|352:249|395:234,1,90.0000034332277,2|8,0:0|0:0,0:0:0:0:
431,218,35515,2,0,P|441:170|426:127,1,90.0000034332277,0|2,0:0|0:0,0:0:0:0:
419,87,35999,1,8,0:0:0:0:
419,87,36160,6,0,L|314:85,1,90.0000034332277,0|0,0:0|0:0,0:0:0:0:
288,65,36644,1,8,0:0:0:0:
288,65,36805,2,0,L|183:63,1,90.0000034332277,0|0,0:0|0:0,0:0:0:0:
162,35,37289,1,8,0:0:0:0:
125,117,37612,2,0,P|80:108|31:125,1,90.0000034332277,2|8,0:0|0:0,0:0:0:0:
17,160,38095,2,0,P|8:205|25:254,1,90.0000034332277,0|2,0:0|0:0,0:0:0:0:
3,288,38579,1,8,0:0:0:0:
3,288,38741,6,0,P|48:279|97:296,1,90.0000034332277,0|0,0:0|0:0,0:0:0:0:
132,305,39225,1,8,0:0:0:0:
132,305,39386,2,0,P|177:314|226:297,1,90.0000034332277,0|2,0:0|0:0,0:0:0:0:
296,258,40031,2,0,L|292:141,1,90.0000034332277,0|2,0:0|0:0,0:0:0:0:
375,130,40676,2,0,L|378:219,1,90.0000034332277,0|2,0:0|0:0,0:0:0:0:
460,184,41321,6,0,L|456:67,1,90.0000034332277,0|2,0:0|0:0,0:0:0:0:
462,49,41805,2,0,P|420:56|368:39,1,90.0000034332277,8|0,0:0|0:0,0:0:0:0:
285,49,42450,2,0,L|211:47,1,45.0000017166138,8|0,0:0|0:0,0:0:0:0:
195,54,42773,2,0,P|182:96|189:140,1,90.0000034332277,0|8,0:0|0:0,0:0:0:0:
206,182,43257,2,0,L|298:179,1,90.0000034332277,2|8,0:0|0:0,0:0:0:0:
321,265,43902,6,0,L|169:267,1,135.000005149841,6|0,0:0|0:0,0:0:0:0:
141,262,44547,1,2,0:0:0:0:
141,262,44708,2,0,P|150:309|133:355,1,90.0000034332277,8|2,0:0|0:0,0:0:0:0:
59,302,45354,2,0,P|49:258|62:215,1,90.0000034332277,0|0,0:0|0:0,0:0:0:0:
77,173,45837,2,0,P|89:130|80:86,1,90.0000034332277,2|0,0:0|0:0,0:0:0:0:
153,33,46483,6,0,P|216:48|287:21,1,135.000005149841,2|0,0:0|0:0,0:0:0:0:
371,25,47289,1,8,0:0:0:0:
455,56,47612,1,0,0:0:0:0:
499,134,47934,2,0,P|438:142|401:127,1,90.0000034332277,0|8,0:0|0:0,0:0:0:0:
368,124,48418,2,0,L|364:243,1,90.0000034332277,2|2,0:0|0:0,0:0:0:0:
435,270,49063,6,0,P|367:252|304:268,1,135.000005149841,4|2,0:0|0:0,0:0:0:0:
228,313,49870,1,2,0:0:0:0:
170,382,50192,1,2,0:0:0:0:
124,304,50515,2,0,P|109:258|74:232,1,90.0000034332277,2|2,0:0|0:0,0:0:0:0:
39,207,50999,2,0,L|40:116,1,90.0000034332277,0|0,0:0|0:0,0:0:0:0:
50,73,51483,1,2,0:0:0:0:
50,73,51644,6,0,P|108:52|182:82,1,135.000005149841,0|2,0:0|0:0,0:0:0:0:
215,155,52450,2,0,L|331:155,1,90.0000034332277,2|0,0:0|0:0,0:0:0:0:
342,130,52934,1,2,0:0:0:0:
466,336,54225,6,0,P|419:346|377:336,1,90.0000034332277,12|2,0:0|0:0,0:0:0:0:
338,316,54708,2,0,L|298:254,1,45.0000017166138,8|0,0:0|0:0,0:0:0:0:
303,234,55031,2,0,L|343:172,2,45.0000017166138,2|2|8,0:0|0:0|0:0,0:0:0:0:
272,267,55515,2,0,L|163:266,1,90.0000034332277,2|2,0:0|0:0,0:0:0:0:
139,345,56160,2,0,L|35:342,1,90.0000034332277,2|2,0:0|0:0,0:0:0:0:
17,309,56644,1,8,0:0:0:0:
17,309,56805,6,0,P|8:254|19:210,1,90.0000034332277,2|2,0:0|0:0,0:0:0:0:
15,175,57289,2,0,L|36:114,1,45.0000017166138,8|0,0:0|0:0,0:0:0:0:
46,90,57612,2,0,L|68:27,2,45.0000017166138,2|2|8,0:0|0:0|0:0,0:0:0:0:
75,124,58095,2,0,P|129:133|188:107,1,90.0000034332277,4|4,0:0|0:0,0:0:0:0:
233,68,58741,1,4,0:0:0:0:
321,49,59063,1,4,0:0:0:0:
404,82,59386,6,0,L|426:227,1,135.000005149841,4|8,0:0|0:0,0:0:0:0:
448,302,60192,2,0,L|496:294,2,45.0000017166138,2|2|8,0:0|0:0|0:0,0:0:0:0:
379,361,60837,2,0,L|257:343,1,90.0000034332277,0|8,0:0|0:0,0:0:0:0:
246,334,61321,2,0,P|235:281|246:229,1,90.0000034332277,0|2,0:0|0:0,0:0:0:0:
239,200,61805,1,8,0:0:0:0:
239,200,61966,6,0,L|70:225,1,135.000005149841,2|2,0:0|0:0,0:0:0:0:
59,142,62773,2,0,L|38:76,2,45.0000017166138,2|2|2,0:0|0:0|0:0,0:0:0:0:
103,136,63257,2,0,L|199:121,1,90.0000034332277,4|2,0:0|0:0,0:0:0:0:
235,111,63741,2,0,P|280:124|327:111,1,90.0000034332277,8|2,0:0|0:0,0:0:0:0:
359,90,64225,1,8,0:0:0:0:
376,178,64547,6,0,P|423:168|465:178,1,90.0000034332277,4|2,0:0|0:0,0:0:0:0:
499,203,65031,2,0,L|489:279,1,45.0000017166138,8|0,0:0|0:0,0:0:0:0:
503,291,65354,2,0,L|519:372,2,45.0000017166138,2|2|8,0:0|0:0|0:0,0:0:0:0:
458,284,65837,2,0,P|411:294|369:284,1,90.0000034332277,2|2,0:0|0:0,0:0:0:0:
301,342,66483,2,0,P|254:332|212:342,1,90.0000034332277,0|2,0:0|0:0,0:0:0:0:
168,344,66966,1,8,0:0:0:0:
168,344,67128,6,0,L|145:242,1,90.0000034332277,6|2,0:0|0:0,0:0:0:0:
103,248,67612,2,0,L|88:205,1,45.0000017166138,8|0,0:0|0:0,0:0:0:0:
77,161,67934,2,0,L|99:98,2,45.0000017166138,2|2|8,0:0|0:0|0:0,0:0:0:0:
119,176,68418,2,0,P|173:167|232:193,1,90.0000034332277,4|4,0:0|0:0,0:0:0:0:
290,208,69063,1,4,0:0:0:0:
349,275,69386,1,4,0:0:0:0:
366,363,69708,6,0,P|427:381|507:352,1,135.000005149841,4|0,0:0|0:0,0:0:0:0:
495,316,70354,1,2,0:0:0:0:
495,316,70515,2,0,L|488:191,1,90.0000034332277,8|0,0:0|0:0,0:0:0:0:
496,136,71160,2,0,P|450:147|400:135,1,90.0000034332277,0|0,0:0|0:0,0:0:0:0:
370,115,71644,2,0,P|324:104|274:116,1,90.0000034332277,2|0,0:0|0:0,0:0:0:0:
242,133,72128,1,0,0:0:0:0:
242,133,72289,6,0,L|255:278,1,135.000005149841,6|2,0:0|0:0,0:0:0:0:
172,230,73095,2,0,L|164:167,1,45.0000017166138,2|2,0:0|0:0,0:0:0:0:
96,128,73579,1,2,0:0:0:0:
17,338,74386,2,0,L|7:405,2,45.0000017166138,8|0|2,0:0|0:0|0:0,0:0:0:0:
59,317,74870,6,0,P|116:303|208:328,1,135.000005149841,4|8,0:0|0:0,0:0:0:0:
276,344,75676,2,0,L|386:349,1,90.0000034332277,2|8,0:0|0:0,0:0:0:0:
409,335,76160,2,0,P|428:283|412:224,1,90.0000034332277,4|2,0:0|0:0,0:0:0:0:
438,206,76644,2,0,L|456:133,1,45.0000017166138,8|0,0:0|0:0,0:0:0:0:
453,117,76966,2,0,L|435:44,2,45.0000017166138,2|2|8,0:0|0:0|0:0,0:0:0:0:
413,138,77450,6,0,P|345:153|276:127,1,135.000005149841,4|8,0:0|0:0,0:0:0:0:
232,59,78257,2,0,P|183:48|123:69,1,90.0000034332277,0|8,0:0|0:0,0:0:0:0:
104,77,78741,2,0,L|70:200,1,90.0000034332277,4|2,0:0|0:0,0:0:0:0:
81,208,79225,1,8,0:0:0:0:
81,208,79386,2,0,P|130:219|190:198,1,90.0000034332277,0|2,0:0|0:0,0:0:0:0:
212,200,79870,1,8,0:0:0:0:
212,200,80031,6,0,L|251:332,1,135.000005149841,4|0,0:0|0:0,0:0:0:0:
334,362,80837,2,0,P|382:373|447:350,1,90.0000034332277,8|0,0:0|0:0,0:0:0:0:
465,354,81321,2,0,L|486:236,1,90.0000034332277,2|0,0:0|0:0,0:0:0:0:
486,220,81805,1,0,0:0:0:0:
440,142,82128,2,0,P|358:154|299:124,1,135.000005149841,8|2,0:0|0:0,0:0:0:0:
275,107,82773,6,0,P|228:96|169:112,1,90.0000034332277,2|2,0:0|0:0,0:0:0:0:
108,148,83418,2,0,L|99:250,1,90.0000034332277,2|2,0:0|0:0,0:0:0:0:
108,281,83902,2,0,P|180:301|253:276,1,135.000005149841,6|8,0:0|0:0,0:0:0:0:
327,286,84708,2,0,L|311:212,2,45.0000017166138,2|2|0,0:0|0:0|0:0,0:0:0:0:
353,322,85192,6,0,P|404:331|465:309,1,90.0000034332277,4|2,0:0|0:0,0:0:0:0:
481,303,85676,2,0,L|456:201,1,90.0000034332277,8|2,0:0|0:0,0:0:0:0:
460,170,86160,2,0,L|476:112,1,45.0000017166138,2|0,0:0|0:0,0:0:0:0:
477,81,86483,6,0,P|432:69|384:79,1,90.0000034332277,4|2,0:0|0:0,0:0:0:0:
347,92,86966,2,0,L|272:93,1,45.0000017166138,8|2,0:0|0:0,0:0:0:0:
261,73,87289,2,0,L|260:-2,2,45.0000017166138,8|2|2,0:0|0:0|0:0,0:0:0:0:
219,90,87773,1,4,0:0:0:0:
256,192,87934,12,0,89225,0:0:0:0:
