osu file format v14

[General]
AudioFilename: audio.mp3
AudioLeadIn: 0
PreviewTime: 54144
Countdown: 0
SampleSet: Normal
StackLeniency: 0.7
Mode: 0
LetterboxInBreaks: 0
WidescreenStoryboard: 0

[Editor]
DistanceSpacing: 0.7
BeatDivisor: 4
GridSize: 4
TimelineZoom: 1.5

[Metadata]
Title:ONLY YOUR STARS!
TitleUnicode:ONLY YOUR STARS!
Artist:Morikubo Syoutarou, Kakihara Tetsuya
ArtistUnicode:森久保祥太郎、柿原徹也
Creator:Ryuusei Aika
Version:Stargazer
Source:あんさんぶるスターズ!
Tags:あんスタ Ensemble Stars op opening theme 明星スバル Akehoshi Subaru 遊木真 Yuuki Makoto 松井洋平 Matsui Youhei Dir 中士智博 Tomohiro Nakatsuchi Sandrew kanor Amamiya Kanade Zhongren Suzuki_1112 1112deng
BeatmapID:1428403
BeatmapSetID:675185

[Difficulty]
HPDrainRate:5.6
CircleSize:4.2
OverallDifficulty:8.7
ApproachRate:9.3
SliderMultiplier:1.8
SliderTickRate:1

[Events]
//Background and Video events
0,0,"BGEX.png",0,0
Video,100,"OP1.avi"
//Break Periods
//Storyboard Layer 0 (Background)
//Storyboard Layer 1 (Fail)
//Storyboard Layer 2 (Pass)
//Storyboard Layer 3 (Foreground)
//Storyboard Sound Samples

[TimingPoints]
346,333.333333333333,4,1,1,20,1,0
346,-166.666666666667,4,1,1,20,0,0
679,-125,4,1,1,30,0,0
1012,-100,4,1,1,40,0,0
1308,323.450134770889,4,1,2,50,1,0
1550,-125,4,1,1,50,0,0
5189,-83.3333333333333,4,1,1,60,0,0
5512,-100,4,1,1,50,0,0
5836,-125,4,1,1,40,0,0
6159,-100,4,1,1,50,0,0
6483,-83.3333333333333,4,1,1,60,0,0
6644,323.450134770889,4,1,1,60,1,0
6644,-83.3333333333333,4,1,1,60,0,0
6968,-100,4,1,1,50,0,0
9151,-100,4,1,2,50,0,0
9394,-100,4,1,1,50,0,0
9555,-100,4,1,2,50,0,0
9717,-100,4,1,1,50,0,0
9879,-100,4,1,2,50,0,0
10041,-100,4,1,1,50,0,0
10364,-100,4,1,2,50,0,0
10688,-125,4,1,1,30,0,0
12290,322.58064516129,4,1,1,50,1,0
12935,-100,4,1,2,70,0,0
13015,-100,4,1,1,70,0,0
13096,322.58064516129,4,1,1,70,1,0
13096,-100,4,1,1,70,0,0
18095,-100,4,1,1,60,0,0
20676,-100,4,1,1,70,0,0
20837,-100,4,1,2,70,0,0
22289,-100,4,1,1,40,0,0
23257,-125,4,1,1,50,0,0
32289,-100,4,1,1,50,0,0
32531,-100,4,1,1,5,0,0
32612,-111.111111111111,4,1,1,45,0,0
32854,-111.111111111111,4,1,1,5,0,0
32934,-125,4,1,1,40,0,0
33176,-125,4,1,1,5,0,0
33257,-142.857142857143,4,1,1,35,0,0
33499,-142.857142857143,4,1,1,5,0,0
33579,-100,4,1,1,55,0,0
43579,-100,4,1,2,55,0,0
43902,-100,4,1,1,60,0,0
49547,-100,4,1,1,50,0,0
51805,-100,4,1,1,52,0,0
51966,-100,4,1,1,54,0,0
52128,-100,4,1,1,56,0,0
52289,-100,4,1,1,58,0,0
52450,-100,4,1,2,60,0,0
52531,-100,4,1,2,62,0,0
52612,-100,4,1,2,64,0,0
52692,-100,4,1,2,66,0,0
52773,-100,4,1,2,68,0,0
52854,-100,4,1,2,70,0,0
52934,-100,4,1,2,72,0,0
53257,-100,4,1,1,50,0,0
54225,-83.3333333333333,4,1,3,80,0,1
54305,-83.3333333333333,4,1,1,80,0,1
62128,-83.3333333333333,4,1,2,90,0,1
62289,-83.3333333333333,4,1,1,80,0,1
62450,-83.3333333333333,4,1,2,90,0,1
62612,-83.3333333333333,4,1,1,80,0,1
62773,-83.3333333333333,4,1,2,90,0,1
62934,-83.3333333333333,4,1,1,80,0,1
63095,-83.3333333333333,4,1,2,80,0,1
63257,-83.3333333333333,4,1,1,95,0,1
63579,-83.3333333333333,4,1,1,75,0,1
64547,-83.3333333333333,4,1,2,80,0,1
64628,-83.3333333333333,4,1,1,80,0,1
72450,-83.3333333333333,4,1,2,90,0,1
72612,-83.3333333333333,4,1,1,80,0,1
72773,-83.3333333333333,4,1,2,87,0,1
72934,-83.3333333333333,4,1,1,77,0,1
73095,-83.3333333333333,4,1,2,84,0,1
73257,-83.3333333333333,4,1,1,74,0,1
73579,-83.3333333333333,4,1,2,100,0,0
73902,-83.3333333333333,4,1,1,65,0,0
74870,-100,4,1,2,75,0,0
74950,-100,4,1,1,75,0,0
82773,-100,4,1,2,90,0,0
82934,-100,4,1,1,75,0,0
83095,-100,4,1,2,90,0,0
83257,-100,4,1,1,75,0,0
83418,-100,4,1,2,90,0,0
83579,-100,4,1,1,75,0,0
83902,-100,4,1,2,100,0,0
84225,-100,4,1,1,70,0,0
85192,-100,4,1,1,80,0,0
87773,-125,4,1,1,100,0,0
87854,-125,4,1,1,10,0,0

[Colours]
Combo1 : 254,233,72
Combo2 : 202,26,14
Combo3 : 0,138,169
Combo4 : 233,91,40

[HitObjects]
191,190,346,6,0,P|203:225|198:269,1,80.9999975280763,0|0,0:0|2:0,0:0:0:0:
116,201,679,2,0,P|163:226|198:268,1,108,0|0,0:0|2:0,0:0:0:0:
67,282,1012,2,0,P|131:261|199:268,1,135,0|0,0:0|2:0,0:0:0:0:
286,281,1308,5,4,0:0:0:0:
355,187,1550,5,0,0:0:0:0:
397,245,1712,1,0,0:0:0:0:
286,281,1874,1,0,0:0:0:0:
286,209,2035,1,0,0:0:0:0:
351,300,2197,1,0,0:0:0:0:
355,304,2601,6,0,P|347:269|355:233,1,72,4|0,0:0|0:0,0:0:0:0:
403,169,2925,2,0,P|410:134|402:99,1,72
355,34,3248,1,0,0:0:0:0:
355,34,3572,1,0,0:0:0:0:
434,25,3733,1,0,0:0:0:0:
323,108,3895,6,0,B|289:120|289:120|254:118,1,72,4|0,0:0|0:0,0:0:0:0:
142,81,4219,5,0,0:0:0:0:
211,59,4380,1,0,0:0:0:0:
211,176,4542,1,0,0:0:0:0:
142,153,4704,1,0,0:0:0:0:
253,117,4865,2,0,B|287:105|287:105|322:107,1,72
157,225,5189,6,0,P|74:245|5:212,1,161.999995056153,4|0,0:0|2:0,0:0:0:0:
80,245,5512,6,0,P|145:272|176:328,1,135,4|0,0:0|2:0,0:0:0:0:
141,268,5836,6,0,P|111:219|117:168,1,108,4|0,0:0|2:0,0:0:0:0:
240,180,6159,6,0,P|171:196|113:169,1,135,4|0,0:0|2:0,0:0:0:0:
240,180,6483,6,0,P|282:277|254:379,1,215.999993408203,4|0,0:0|0:0,0:0:0:0:
281,270,6967,6,0,P|323:262|367:275,1,90,2|0,0:0|0:0,0:0:0:0:
454,281,7290,2,0,P|411:288|367:275,1,90,2|0,0:0|0:0,0:0:0:0:
417,90,7614,6,0,L|417:180,1,90,2|0,0:0|0:0,0:0:0:0:
310,185,7937,2,0,L|310:95,1,90,2|0,0:0|0:0,0:0:0:0:
359,0,8261,1,2,0:0:0:0:
310,95,8422,2,0,P|267:107|223:100,1,90,0|2,0:0|0:0,0:0:0:0:
174,4,8746,1,0,0:0:0:0:
116,95,8908,1,2,0:0:0:0:
152,321,9069,6,0,P|193:296|220:261,1,90,4|0,0:0|0:0,0:0:0:0:
223,100,9393,1,2,0:0:0:0:
296,321,9555,1,2,0:0:0:0:
340,184,9716,1,2,0:0:0:0:
152,321,9878,1,2,0:0:0:0:
108,185,10040,2,0,P|101:142|114:98,1,90,2|0,0:0|0:0,0:0:0:0:
296,321,10363,1,8,0:0:0:0:
296,321,10687,5,0,0:0:0:0:
280,304,10848,1,0,0:0:0:0:
284,281,11010,1,0,0:0:0:0:
303,270,11172,1,0,0:0:0:0:
324,278,11334,1,0,0:0:0:0:
331,300,11495,1,0,0:0:0:0:
318,318,11657,6,0,B|342:266|323:213|323:213|304:161|327:108,1,216
396,13,12290,1,2,0:0:0:0:
396,130,12451,1,0,0:0:0:0:
327,35,12612,1,2,0:0:0:0:
437,70,12773,1,0,0:0:0:0:
327,107,12935,6,0,P|286:126|242:125,1,90,4|0,0:0|0:0,0:0:0:0:
167,42,13257,1,2,0:0:0:0:
77,195,13418,2,0,P|61:238|67:282,1,90,8|0,0:0|0:0,0:0:0:0:
187,218,13741,1,2,0:0:0:0:
241,124,13902,1,2,0:0:0:0:
66,87,14063,1,8,0:0:0:0:
187,218,14225,6,0,P|223:245|267:255,1,90,4|0,0:0|0:0,0:0:0:0:
343,130,14547,1,0,0:0:0:0:
438,257,14708,2,0,P|398:275|353:275,1,90,8|0,0:0|0:0,0:0:0:0:
267,255,15031,1,2,0:0:0:0:
343,130,15192,1,2,0:0:0:0:
353,275,15354,1,8,0:0:0:0:
259,164,15515,6,0,P|253:119|268:78,1,90,4|0,0:0|0:0,0:0:0:0:
403,199,15837,1,2,0:0:0:0:
267,255,15999,1,8,0:0:0:0:
343,130,16160,6,0,P|383:110|427:111,1,90
354,276,16483,1,2,0:0:0:0:
259,164,16644,1,8,0:0:0:0:
122,218,16805,6,0,B|76:219|76:219|35:203,1,90,4|0,0:0|0:0,0:0:0:0:
201,95,17128,1,2,0:0:0:0:
259,164,17289,1,8,0:0:0:0:
116,128,17450,6,0,B|100:85|100:85|103:41,1,90,4|0,0:0|0:0,0:0:0:0:
212,241,17773,1,2,0:0:0:0:
122,218,17934,1,8,0:0:0:0:
259,164,18095,6,0,B|304:162|304:162|345:178,1,90,4|0,0:0|0:0,0:0:0:0:
271,310,18418,1,0,0:0:0:0:
212,241,18579,1,2,0:0:0:0:
345,178,18741,1,2,0:0:0:0:
355,276,18902,1,2,0:0:0:0:
259,164,19063,2,0,B|216:148|216:148|171:149,1,90
63,231,19386,6,0,B|106:247|106:247|151:246,1,90,2|0,0:0|0:0,0:0:0:0:
192,50,19708,1,2,0:0:0:0:
106,0,19870,1,2,0:0:0:0:
31,66,20031,1,2,0:0:0:0:
171,148,20192,2,0,B|262:151|262:151|347:122,1,180,8|0,0:0|0:0,0:0:0:0:
192,50,20676,5,4,0:0:0:0:
211,238,20837,1,2,0:0:0:0:
84,95,20999,1,0,0:0:0:0:
270,137,21160,1,2,0:0:0:0:
96,213,21321,1,0,0:0:0:0:
270,137,21483,6,0,P|301:168|314:211,1,90,2|0,0:0|0:0,0:0:0:0:
204,344,21805,1,0,0:0:0:0:
371,301,21966,1,8,0:0:0:0:
371,301,22289,5,0,0:0:0:0:
211,238,22450,1,0,0:0:0:0:
302,383,22612,1,2,0:0:0:0:
302,383,22692,1,2,0:0:0:0:
302,383,22773,2,0,P|291:362|291:340,1,45,2|0,0:0|0:0,0:0:0:0:
314,211,22934,1,2,0:0:0:0:
314,211,23257,6,0,P|325:177|320:142,1,72,6|0,0:0|0:0,0:0:0:0:
239,44,23579,1,0,0:0:0:0:
198,110,23741,1,2,0:0:0:0:
314,63,23902,2,0,P|349:69|378:90,1,72,0|2,0:0|0:0,0:0:0:0:
246,170,24225,1,0,0:0:0:0:
239,44,24386,1,2,0:0:0:0:
319,141,24547,5,0,0:0:0:0:
198,110,24708,2,0,P|173:84|162:50,1,72,2|0,0:0|0:0,0:0:0:0:
203,234,25031,2,0,P|184:264|154:284,1,72,2|0,0:0|0:0,0:0:0:0:
125,133,25354,1,2,0:0:0:0:
128,212,25515,1,0,0:0:0:0:
246,170,25676,1,2,0:0:0:0:
135,64,25837,6,0,P|121:97|125:133,1,72,0|2,0:0|0:0,0:0:0:0:
203,234,26160,1,0,0:0:0:0:
198,110,26321,1,2,0:0:0:0:
277,231,26483,2,0,P|269:197|246:170,1,72,0|2,0:0|0:0,0:0:0:0:
128,212,26805,1,0,0:0:0:0:
125,133,26966,1,2,0:0:0:0:
53,239,27128,5,0,0:0:0:0:
48,109,27289,2,0,P|64:77|93:57,1,72,2|0,0:0|0:0,0:0:0:0:
128,212,27612,2,0,P|133:247|122:280,1,72,2|0,0:0|0:0,0:0:0:0:
5,177,27934,1,2,0:0:0:0:
125,133,28095,1,0,0:0:0:0:
53,239,28257,1,2,0:0:0:0:
150,58,28418,5,0,0:0:0:0:
253,133,28579,1,2,0:0:0:0:
125,133,28741,1,0,0:0:0:0:
229,58,28902,1,2,0:0:0:0:
189,180,29063,1,0,0:0:0:0:
150,58,29225,1,2,0:0:0:0:
321,122,29386,2,0,P|285:119|253:134,1,72,0|2,0:0|0:0,0:0:0:0:
367,187,29708,5,0,0:0:0:0:
369,60,29870,1,2,0:0:0:0:
443,165,30031,1,0,0:0:0:0:
321,122,30192,1,2,0:0:0:0:
444,84,30354,1,0,0:0:0:0:
367,187,30515,1,2,0:0:0:0:
253,133,30676,2,0,P|285:118|321:122,1,72,0|2,0:0|0:0,0:0:0:0:
490,151,30999,5,0,0:0:0:0:
442,213,31160,1,2,0:0:0:0:
444,84,31321,1,0,0:0:0:0:
367,187,31483,2,0,P|362:223|375:256,1,72,2|0,0:0|0:0,0:0:0:0:
474,337,31805,1,2,0:0:0:0:
502,263,31966,1,0,0:0:0:0:
395,334,32128,1,8,0:0:0:0:
372,110,32289,5,2,0:0:0:0:
319,46,32612,5,0,0:0:0:0:
224,137,32934,5,0,0:0:0:0:
172,74,33257,5,0,0:0:0:0:
87,95,33579,6,0,P|125:76|171:74,1,90,4|0,0:0|0:0,0:0:0:0:
36,183,33902,1,0,0:0:0:0:
196,215,34063,1,8,0:0:0:0:
87,95,34225,2,0,P|81:53|94:8,1,90
103,258,34547,1,2,0:0:0:0:
185,115,34708,1,8,0:0:0:0:
36,183,34870,1,0,0:0:0:0:
196,215,35031,6,0,L|281:187,1,90,2|0,0:0|0:0,0:0:0:0:
361,45,35354,1,8,0:0:0:0:
242,1,35515,2,0,L|270:87,1,90
380,205,35837,1,2,0:0:0:0:
430,119,35999,1,8,0:0:0:0:
269,86,36160,6,0,P|192:48|99:60,1,180
295,275,36644,1,8,0:0:0:0:
281,186,36805,2,0,P|358:148|451:160,1,180
214,314,37289,1,8,0:0:0:0:
295,275,37450,1,0,0:0:0:0:
151,249,37612,6,0,B|62:265,1,90,2|0,0:0|0:0,0:0:0:0:
128,106,37934,1,8,0:0:0:0:
216,119,38095,2,0,B|305:103,1,90,0|0,0:0|0:0,0:0:0:0:
89,186,38418,1,2,0:0:0:0:
128,106,38579,1,8,0:0:0:0:
151,249,38741,6,0,L|165:338,1,90
234,206,39063,1,0,0:0:0:0:
89,186,39225,1,8,0:0:0:0:
164,337,39386,2,0,L|253:323,1,90
151,249,39708,1,2,0:0:0:0:
87,378,39870,1,8,0:0:0:0:
63,235,40031,6,0,P|57:190|70:147,1,90
151,249,40354,1,2,0:0:0:0:
23,315,40515,1,8,0:0:0:0:
151,249,40676,2,0,P|191:229|236:228,1,90
392,249,40999,2,0,P|398:293|385:336,1,90,2|8,0:0|0:0,0:0:0:0:
321,181,41321,6,0,P|314:136|327:93,1,90
392,249,41644,1,2,0:0:0:0:
321,181,41805,2,0,L|232:166,1,90,8|0,0:0|0:0,0:0:0:0:
261,323,42128,2,0,L|349:337,1,90,0|2,0:0|0:0,0:0:0:0:
145,212,42450,6,0,P|132:254|139:298,1,90,8|0,0:0|0:0,0:0:0:0:
232,166,42773,2,0,P|244:123|237:79,1,90,0|2,0:0|0:0,0:0:0:0:
145,212,43095,1,8,0:0:0:0:
267,315,43257,1,2,0:0:0:0:
267,315,43337,1,2,0:0:0:0:
267,315,43418,1,2,0:0:0:0:
163,309,43579,2,0,L|74:304,1,90,8|0,0:0|0:0,0:0:0:0:
306,203,43902,6,0,B|395:207|395:207|478:244,1,180,6|0,0:0|0:0,0:0:0:0:
340,368,44386,1,0,0:0:0:0:
263,298,44547,1,2,0:0:0:0:
381,130,44708,2,0,P|404:168|409:213,1,90,8|0,0:0|0:0,0:0:0:0:
340,368,45031,1,2,0:0:0:0:
306,203,45192,5,2,0:0:0:0:
430,316,45354,2,0,P|474:310|512:287,1,90
409,213,45676,1,0,0:0:0:0:
263,298,45837,2,0,L|174:293,1,90,2|8,0:0|0:0,0:0:0:0:
283,116,46160,2,0,L|306:203,1,90
138,183,46483,6,0,P|116:91|152:14,1,180,2|0,0:0|0:0,0:0:0:0:
159,286,46966,2,0,P|115:296|71:288,1,90,0|2,0:0|0:0,0:0:0:0:
229,131,47289,2,0,P|272:120|316:128,1,90,8|0,0:0|0:0,0:0:0:0:
159,286,47612,1,0,0:0:0:0:
138,183,47773,1,2,0:0:0:0:
263,298,47934,6,0,P|307:296|348:277,1,90,0|2,0:0|0:0,0:0:0:0:
363,138,48257,1,8,0:0:0:0:
431,256,48418,2,0,P|443:299|437:343,1,90,2|0,0:0|0:0,0:0:0:0:
306,200,48741,2,0,P|271:226|249:266,1,90,2|8,0:0|0:0,0:0:0:0:
440,172,49063,2,0,P|434:93|345:55,1,180,4|0,0:0|0:0,0:0:0:0:
189,89,49547,6,0,P|229:108|273:110,1,90,2|0,0:0|0:0,0:0:0:0:
263,276,49870,2,0,P|292:242|305:199,1,90,2|0,0:0|0:0,0:0:0:0:
463,263,50192,2,0,P|439:224|403:198,1,90,2|0,0:0|0:0,0:0:0:0:
512,68,50515,2,0,P|468:78|432:104,1,90,2|0,0:0|0:0,0:0:0:0:
403,198,50837,5,2,0:0:0:0:
352,47,50999,1,0,0:0:0:0:
274,109,51160,1,2,0:0:0:0:
274,109,51241,1,0,0:0:0:0:
274,109,51321,1,0,0:0:0:0:
403,198,51483,1,2,0:0:0:0:
403,198,51563,1,0,0:0:0:0:
403,198,51644,2,0,L|358:194,1,45
256,184,51805,5,2,0:0:0:0:
86,63,51966,1,2,0:0:0:0:
151,261,52128,1,2,0:0:0:0:
215,60,52289,1,2,0:0:0:0:
49,187,52450,5,2,0:0:0:0:
33,228,52531,1,2,0:0:0:0:
37,273,52612,1,2,0:0:0:0:
60,311,52692,1,2,0:0:0:0:
97,336,52773,2,0,L|165:343,1,45,2|2,0:0|0:0,0:0:0:0:
302,306,52934,1,2,0:0:0:0:
355,65,53257,5,0,0:0:0:0:
172,230,53418,1,0,0:0:0:0:
302,306,53579,1,2,0:0:0:0:
302,306,53660,1,0,0:0:0:0:
302,306,53741,1,0,0:0:0:0:
203,78,53902,2,0,P|161:61|113:68,1,90
415,206,54225,6,0,P|418:153|392:101,1,107.999996704102,12|0,0:0|0:0,0:0:0:0:
312,172,54547,1,2,0:0:0:0:
311,347,54708,1,8,0:0:0:0:
415,206,54870,1,0,0:0:0:0:
248,260,55031,1,2,0:0:0:0:
415,314,55192,2,0,P|466:300|507:259,1,107.999996704102,2|8,0:0|0:0,0:0:0:0:
329,140,55515,6,0,L|223:158,1,107.999996704102,2|0,0:0|0:0,0:0:0:0:
49,330,55837,2,0,L|156:313,1,107.999996704102,2|8,0:0|0:0,0:0:0:0:
248,260,56160,1,2,0:0:0:0:
115,145,56321,1,2,0:0:0:0:
156,312,56483,1,2,0:0:0:0:
222,158,56644,1,8,0:0:0:0:
70,243,56805,6,0,P|28:209|8:160,1,107.999996704102,2|0,0:0|0:0,0:0:0:0:
68,76,57128,1,2,0:0:0:0:
169,210,57289,1,8,0:0:0:0:
167,107,57450,1,0,0:0:0:0:
8,160,57612,1,2,0:0:0:0:
167,107,57773,2,0,P|219:120|257:157,1,107.999996704102,2|8,0:0|0:0,0:0:0:0:
270,235,58095,6,0,P|289:157|345:100,1,161.999995056153,4|0,0:0|2:0,0:0:0:0:
362,270,58418,6,0,P|293:227|256:156,1,161.999995056153,4|0,0:0|2:0,0:0:0:0:
423,193,58741,6,0,P|360:245|281:258,1,161.999995056153,4|0,0:0|2:0,0:0:0:0:
368,111,59063,6,0,P|398:186|386:265,1,161.999995056153,4|0,0:0|2:0,0:0:0:0:
273,137,59386,6,0,P|354:131|425:166,1,161.999995056153,4|0,0:0|0:2,0:0:0:0:
450,195,59708,1,0,0:0:0:0:
273,250,59870,1,8,0:0:0:0:
273,137,60031,1,0,0:0:0:0:
450,195,60192,1,2,0:0:0:0:
382,287,60354,1,2,0:0:0:0:
384,102,60515,5,8,0:0:0:0:
273,250,60676,1,0,0:0:0:0:
165,143,60837,2,0,L|272:136,1,107.999996704102,0|2,0:0|0:0,0:0:0:0:
450,195,61160,1,8,0:0:0:0:
422,300,61321,2,0,L|314:306,1,107.999996704102,0|2,0:0|0:0,0:0:0:0:
98,234,61644,1,2,0:0:0:0:
165,327,61805,1,8,0:0:0:0:
248,213,61966,1,2,0:0:0:0:
31,141,62128,5,2,0:0:0:0:
165,327,62289,1,2,0:0:0:0:
166,98,62450,1,2,0:0:0:0:
264,212,62612,1,2,0:0:0:0:
17,131,62773,5,2,0:0:0:0:
170,342,62934,1,2,0:0:0:0:
171,82,63095,1,2,0:0:0:0:
17,292,63257,2,0,P|70:286|114:257,1,107.999996704102,4|0,0:0|0:0,0:0:0:0:
176,65,63579,5,2,0:0:0:0:
114,256,63741,1,8,0:0:0:0:
75,139,63902,1,0,0:0:0:0:
276,140,64063,1,2,0:0:0:0:
237,256,64225,1,8,0:0:0:0:
237,256,64386,1,0,0:0:0:0:
393,34,64547,6,0,L|399:142,1,107.999996704102,4|0,0:0|0:0,0:0:0:0:
436,260,64870,1,2,0:0:0:0:
393,34,65031,1,8,0:0:0:0:
436,260,65192,1,0,0:0:0:0:
276,140,65354,1,2,0:0:0:0:
238,232,65515,2,0,P|187:247|135:236,1,107.999996704102,2|8,0:0|0:0,0:0:0:0:
276,140,65837,6,0,L|384:134,1,107.999996704102,2|0,0:0|0:0,0:0:0:0:
394,337,66160,2,0,L|286:343,1,107.999996704102,2|8,0:0|0:0,0:0:0:0:
134,235,66483,1,0,0:0:0:0:
276,140,66644,1,2,0:0:0:0:
305,241,66805,2,0,P|308:294|286:343,1,107.999996704102,2|8,0:0|0:0,0:0:0:0:
171,137,67128,6,0,P|168:83|191:35,1,107.999996704102,6|0,0:0|0:0,0:0:0:0:
276,140,67450,1,2,0:0:0:0:
135,236,67612,1,8,0:0:0:0:
305,241,67773,1,0,0:0:0:0:
87,72,67934,1,2,0:0:0:0:
73,326,68095,2,0,P|38:284|29:231,1,107.999996704102,2|8,0:0|0:0,0:0:0:0:
276,140,68418,6,0,B|344:98|344:98|378:173,1,161.999995056153,4|0,0:0|2:0,0:0:0:0:
212,224,68741,6,0,B|196:144|196:144|276:140,1,161.999995056153,4|0,0:0|2:0,0:0:0:0:
277,312,69063,6,0,B|197:305|197:305|213:224,1,161.999995056153,4|0,0:0|2:0,0:0:0:0:
377,280,69386,6,0,B|348:354|348:354|277:312,1,161.999995056153,4|0,0:0|2:0,0:0:0:0:
379,173,69708,6,0,B|439:225|439:225|378:280,1,161.999995056153,4|0,0:0|0:0,0:0:0:0:
304,224,70031,1,0,0:0:0:0:
232,168,70192,1,0,0:0:0:0:
354,84,70354,1,2,0:0:0:0:
304,224,70515,2,0,B|288:276|288:276|254:317,1,107.999996704102,8|0,0:0|0:0,0:0:0:0:
354,84,70837,6,0,B|397:50|397:50|449:37,1,107.999996704102,0|2,0:0|0:0,0:0:0:0:
232,168,71160,2,0,B|176:169|176:169|127:149,1,107.999996704102,0|2,0:0|0:0,0:0:0:0:
379,173,71483,1,0,0:0:0:0:
262,81,71644,2,0,B|212:61|212:61|157:62,1,107.999996704102,2|8,0:0|0:0,0:0:0:0:
304,224,71966,1,0,0:0:0:0:
354,84,72128,1,0,0:0:0:0:
185,307,72289,1,6,0:0:0:0:
18,126,72450,5,2,0:0:0:0:
36,277,72612,1,2,0:0:0:0:
157,61,72773,1,2,0:0:0:0:
260,175,72934,1,2,0:0:0:0:
21,290,73095,5,2,0:0:0:0:
1,115,73257,1,2,0:0:0:0:
193,324,73418,1,0,0:0:0:0:
268,22,73579,1,2,0:0:0:0:
193,324,73902,5,8,0:0:0:0:
334,242,74063,1,8,0:0:0:0:
293,333,74225,1,2,0:0:0:0:
174,225,74386,2,0,P|121:234|80:268,1,107.999996704102,8|0,0:0|0:0,0:0:0:0:
193,324,74708,1,2,0:0:0:0:
260,175,74870,6,0,L|260:79,1,90,4|0,0:0|0:0,0:0:0:0:
193,324,75192,1,2,0:0:0:0:
174,225,75354,1,8,0:0:0:0:
334,242,75515,1,0,0:0:0:0:
293,333,75676,1,2,0:0:0:0:
260,175,75837,1,2,0:0:0:0:
88,275,75999,1,8,0:0:0:0:
54,117,76160,6,0,P|47:72|60:29,1,90,4|0,0:0|0:0,0:0:0:0:
153,127,76483,1,2,0:0:0:0:
12,209,76644,1,8,0:0:0:0:
88,275,76805,1,0,0:0:0:0:
54,117,76966,1,2,0:0:0:0:
173,225,77128,2,0,P|215:238|259:230,1,90,2|8,0:0|0:0,0:0:0:0:
467,129,77450,6,0,L|371:118,1,90,4|0,0:0|0:0,0:0:0:0:
220,136,77773,1,2,0:0:0:0:
259,229,77934,1,8,0:0:0:0:
357,217,78095,1,0,0:0:0:0:
293,69,78257,1,2,0:0:0:0:
259,229,78418,1,2,0:0:0:0:
377,118,78579,1,8,0:0:0:0:
220,136,78741,6,0,B|175:137|175:137|132:121,1,90,4|0,0:0|0:0,0:0:0:0:
99,31,79063,1,2,0:0:0:0:
99,31,79225,1,8,0:0:0:0:
220,136,79386,6,0,B|234:178|234:178|232:224,1,90
156,283,79708,1,2,0:0:0:0:
156,283,79870,1,8,0:0:0:0:
220,136,80031,6,0,P|264:143|301:168,1,90,4|0,0:0|0:0,0:0:0:0:
443,188,80354,2,0,P|402:208|357:209,1,90
220,136,80676,1,2,0:0:0:0:
350,81,80837,2,0,P|356:126|344:168,1,90,8|0,0:0|0:0,0:0:0:0:
369,311,81160,1,0,0:0:0:0:
369,311,81321,6,0,P|336:278|322:236,1,90,2|0,0:0|0:0,0:0:0:0:
350,81,81644,1,0,0:0:0:0:
206,113,81805,1,0,0:0:0:0:
343,168,81966,1,2,0:0:0:0:
264,46,82128,6,0,P|223:26|178:27,1,90,8|0,0:0|0:0,0:0:0:0:
253,191,82450,1,0,0:0:0:0:
350,81,82612,1,2,0:0:0:0:
159,295,82773,5,2,0:0:0:0:
171,167,82934,1,2,0:0:0:0:
279,348,83095,1,2,0:0:0:0:
363,249,83257,1,2,0:0:0:0:
122,226,83418,1,2,0:0:0:0:
286,217,83579,1,2,0:0:0:0:
201,362,83741,1,2,0:0:0:0:
234,20,83902,5,6,0:0:0:0:
234,20,84225,1,0,0:0:0:0:
211,272,84386,2,0,L|200:368,1,90,8|0,0:0|0:0,0:0:0:0:
132,136,84708,1,2,0:0:0:0:
376,80,84870,2,0,L|470:60,1,90,2|0,0:0|0:0,0:0:0:0:
363,235,85192,6,0,P|318:230|281:206,1,90,4|0,0:0|0:0,0:0:0:0:
293,67,85515,1,2,0:0:0:0:
132,136,85676,1,8,0:0:0:0:
132,136,85999,1,2,0:0:0:0:
293,67,86160,2,0,P|336:55|380:67,1,90,2|0,0:0|0:0,0:0:0:0:
132,136,86483,6,0,P|98:166|82:207,1,90,4|0,0:0|0:0,0:0:0:0:
187,231,86805,1,2,0:0:0:0:
463,124,86966,1,8,0:0:0:0:
302,370,87128,1,2,0:0:0:0:
302,370,87208,1,2,0:0:0:0:
302,370,87289,1,8,0:0:0:0:
290,80,87450,1,2,0:0:0:0:
473,304,87612,1,2,0:0:0:0:
261,288,87773,6,0,B|328:271|328:271|378:317|378:317|385:248|385:248|444:214|444:214|383:187|383:187|367:122|367:122|324:170|324:170|255:164|255:164|288:223|288:223|273:258,1,648,4|0,0:0|0:0,0:0:0:0:
