osu file format v14

[General]
AudioFilename: audio.mp3
AudioLeadIn: 0
PreviewTime: 54144
Countdown: 0
SampleSet: Normal
StackLeniency: 0.7
Mode: 0
LetterboxInBreaks: 0
WidescreenStoryboard: 0

[Editor]
DistanceSpacing: 1.2
BeatDivisor: 4
GridSize: 4
TimelineZoom: 1.4

[Metadata]
Title:ONLY YOUR STARS!
TitleUnicode:ONLY YOUR STARS!
Artist:Morikubo Syoutarou, Kakihara Tetsuya
ArtistUnicode:森久保祥太郎、柿原徹也
Creator:Ryuusei Aika
Version:Sandrew's Easy
Source:あんさんぶるスターズ!
Tags:あんスタ Ensemble Stars op opening theme 明星スバル Akehoshi Subaru 遊木真 Yuuki Makoto 松井洋平 Matsui Youhei Dir 中士智博 Tomohiro Nakatsuchi Sandrew kanor Amamiya Kanade Zhongren Suzuki_1112 1112deng
BeatmapID:1428405
BeatmapSetID:675185

[Difficulty]
HPDrainRate:2
CircleSize:3
OverallDifficulty:2
ApproachRate:3
SliderMultiplier:0.799999999999999
SliderTickRate:1

[Events]
//Background and Video events
0,0,"BGEZ.png",0,0
Video,100,"OP1.avi"
//Break Periods
//Storyboard Layer 0 (Background)
//Storyboard Layer 1 (Fail)
//Storyboard Layer 2 (Pass)
//Storyboard Layer 3 (Foreground)
//Storyboard Sound Samples

[TimingPoints]
346,333.333333333333,4,1,1,20,1,0
679,-100,4,1,1,30,0,0
929,-100,4,1,1,5,0,0
1012,-100,4,1,1,40,0,0
1262,-100,4,1,1,5,0,0
1308,323.450134770889,4,1,2,50,1,0
1550,-100,4,1,1,50,0,0
5189,-100,4,1,1,60,0,0
5512,-100,4,1,1,50,0,0
5836,-100,4,1,1,40,0,0
6159,-100,4,1,1,50,0,0
6483,-100,4,1,1,60,0,0
6644,323.450134770889,4,1,1,60,1,0
6968,-100,4,1,1,50,0,0
9151,-100,4,1,2,50,0,0
9394,-100,4,1,1,50,0,0
9555,-100,4,1,2,50,0,0
9717,-100,4,1,1,50,0,0
9879,-100,4,1,2,50,0,0
10041,-100,4,1,1,50,0,0
10364,-100,4,1,2,50,0,0
10688,-100,4,1,1,30,0,0
12290,322.58064516129,4,1,1,50,1,0
12935,-100,4,1,2,70,0,0
13096,322.58064516129,4,1,1,70,1,0
18095,-100,4,1,1,60,0,0
20676,-100,4,1,1,70,0,0
20837,-100,4,1,2,70,0,0
22289,-100,4,1,1,40,0,0
23257,-100,4,1,1,50,0,0
32289,-100,4,1,1,50,0,0
32531,-100,4,1,1,5,0,0
32612,-100,4,1,1,45,0,0
32854,-100,4,1,1,5,0,0
32934,-100,4,1,1,40,0,0
33176,-100,4,1,1,5,0,0
33257,-100,4,1,1,35,0,0
33499,-100,4,1,1,5,0,0
33579,-100,4,1,1,55,0,0
43579,-100,4,1,2,55,0,0
43902,-100,4,1,1,60,0,0
49547,-100,4,1,1,50,0,0
51805,-100,4,1,1,52,0,0
51966,-100,4,1,1,54,0,0
52128,-100,4,1,1,56,0,0
52289,-100,4,1,1,58,0,0
52450,-100,4,1,2,60,0,0
52531,-100,4,1,2,62,0,0
52612,-100,4,1,2,64,0,0
52692,-100,4,1,2,66,0,0
52773,-100,4,1,2,68,0,0
52854,-100,4,1,2,70,0,0
52934,-100,4,1,2,72,0,0
53257,-100,4,1,1,50,0,0
54225,-100,4,1,3,80,0,1
54305,-100,4,1,1,80,0,1
62128,-100,4,1,2,90,0,1
62289,-100,4,1,1,80,0,1
62450,-100,4,1,2,90,0,1
62612,-100,4,1,1,80,0,1
62773,-100,4,1,2,90,0,1
62934,-100,4,1,1,80,0,1
63095,-100,4,1,2,80,0,1
63257,-100,4,1,1,95,0,1
63579,-100,4,1,1,75,0,1
64547,-100,4,1,2,80,0,1
64628,-100,4,1,1,80,0,1
72450,-100,4,1,2,90,0,1
72612,-100,4,1,1,80,0,1
72773,-100,4,1,2,87,0,1
72934,-100,4,1,1,77,0,1
73095,-100,4,1,2,84,0,1
73257,-100,4,1,1,74,0,1
73579,-100,4,1,2,100,0,0
73902,-100,4,1,1,65,0,0
74870,-100,4,1,2,75,0,0
74950,-100,4,1,1,75,0,0
82773,-100,4,1,2,90,0,0
82934,-100,4,1,1,75,0,0
83095,-100,4,1,2,90,0,0
83257,-100,4,1,1,75,0,0
83418,-100,4,1,2,90,0,0
83579,-100,4,1,1,75,0,0
83902,-100,4,1,2,100,0,0
84225,-100,4,1,1,70,0,0
85192,-100,4,1,1,80,0,0
87773,-100,4,1,1,100,0,0
87854,-100,4,1,1,10,0,0

[Colours]
Combo1 : 210,200,125
Combo2 : 173,97,74
Combo3 : 76,50,97
Combo4 : 25,92,129

[HitObjects]
76,128,346,6,0,P|60:88|66:38,2,79.9999999999999,0|0|0,0:0|0:0|0:0,0:0:0:0:
156,72,1308,6,0,L|327:68,1,160,4|0,0:0|0:0,0:0:0:0:
394,243,2601,2,0,L|223:247,1,160,4|0,0:0|0:0,0:0:0:0:
67,341,3895,6,0,L|63:170,1,160,4|0,0:0|0:0,0:0:0:0:
205,51,5189,2,0,L|206:138,1,79.9999999999999,4|4,0:0|0:0,0:0:0:0:
268,203,5836,2,0,L|269:285,1,79.9999999999999,4|4,0:0|0:0,0:0:0:0:
184,330,6483,6,0,P|138:344|58:338,1,120,4|2,0:0|0:0,0:0:0:0:
77,245,7290,2,0,P|121:248|168:232,1,79.9999999999999,2|2,0:0|0:0,0:0:0:0:
184,146,7937,2,0,P|261:126|340:133,1,160,2|2,0:0|0:0,0:0:0:0:
447,230,9069,6,0,P|441:289|469:341,2,120,4|2|2,0:0|0:0|0:0,0:0:0:0:
437,134,10363,1,8,0:0:0:0:
435,56,12290,6,0,P|444:93|436:134,1,79.9999999999999,2|2,0:0|0:0,0:0:0:0:
347,96,12935,2,0,P|273:66|193:70,1,160,4|0,0:0|0:0,0:0:0:0:
99,85,13902,1,2,0:0:0:0:
82,179,14225,2,0,P|52:252|56:332,1,160,4|0,0:0|0:0,0:0:0:0:
149,308,15192,2,0,P|147:268|161:231,1,79.9999999999999,2|4,0:0|0:0,0:0:0:0:
240,286,15837,6,0,P|277:300|316:299,1,79.9999999999999,2|0,0:0|0:0,0:0:0:0:
294,208,16483,2,0,P|308:170|307:131,1,79.9999999999999,2|4,0:0|0:0,0:0:0:0:
216,154,17128,2,0,P|178:139|139:140,1,79.9999999999999,2|4,0:0|0:0,0:0:0:0:
160,231,17773,2,0,L|149:303,1,40,2|8,0:0|0:0,0:0:0:0:
172,314,18095,6,0,B|274:301|274:347|398:311,1,200,4|2,0:0|0:0,0:0:0:0:
456,275,19225,2,0,P|470:196|465:116,1,160,0|2,0:0|0:0,0:0:0:0:
384,65,20192,1,8,0:0:0:0:
240,49,20676,6,0,P|161:64|73:45,2,160,4|0|8,0:0|0:0|0:0,0:0:0:0:
459,324,23257,6,0,P|409:338|325:330,1,120,6|2,0:0|0:0,0:0:0:0:
349,238,24063,2,0,P|388:238|427:228,1,79.9999999999999,2|2,0:0|0:0,0:0:0:0:
465,139,24708,2,0,P|478:103|475:60,2,79.9999999999999,2|2|2,0:0|0:0|0:0,0:0:0:0:
384,87,25676,2,0,L|302:47,1,79.9999999999999,2|2,0:0|0:0,0:0:0:0:
216,47,26321,6,0,L|144:82,1,79.9999999999999,2|2,0:0|0:0,0:0:0:0:
54,46,26966,2,0,P|45:86|60:134,1,79.9999999999999,2|2,0:0|0:0,0:0:0:0:
132,178,27612,2,0,P|172:176|215:149,2,79.9999999999999,2|2|2,0:0|0:0|0:0,0:0:0:0:
54,233,28579,6,0,P|45:271|54:310,1,79.9999999999999,2|2,0:0|0:0,0:0:0:0:
140,352,29225,2,0,P|177:340|206:313,1,79.9999999999999,2|2,0:0|0:0,0:0:0:0:
199,216,29870,2,0,P|169:188|131:177,2,79.9999999999999,2|2|2,0:0|0:0|0:0,0:0:0:0:
283,261,30837,2,0,P|312:288|350:299,1,79.9999999999999,2|2,0:0|0:0,0:0:0:0:
428,355,31483,2,0,P|443:319|435:264,1,79.9999999999999,2|2,0:0|0:0,0:0:0:0:
375,208,32128,2,0,L|400:177,1,40,8|2,0:0|0:0,0:0:0:0:
58,55,33579,6,0,L|154:50,1,79.9999999999999,4|0,0:0|0:0,0:0:0:0:
183,66,34063,2,0,L|180:120,1,40,8|0,0:0|0:0,0:0:0:0:
276,119,34547,2,0,L|278:79,1,40,2|8,0:0|0:0,0:0:0:0:
320,56,34870,2,0,B|379:40|385:70|448:51,1,120,0|8,0:0|0:0,0:0:0:0:
462,195,35837,2,0,L|514:193,2,40,2|8|0,0:0|0:0|0:0,0:0:0:0:
427,335,36644,6,0,P|370:337|334:351,1,79.9999999999999,8|0,0:0|0:0,0:0:0:0:
272,285,37289,2,0,L|258:242,1,40,8|0,0:0|0:0,0:0:0:0:
225,213,37612,2,0,L|134:213,1,79.9999999999999,2|8,0:0|0:0,0:0:0:0:
47,319,38418,2,0,L|38:366,2,40,2|8|0,0:0|0:0|0:0,0:0:0:0:
145,213,39225,6,0,L|152:173,1,40,8|0,0:0|0:0,0:0:0:0:
60,145,39708,1,2,0:0:0:0:
125,75,40031,2,0,P|165:71|214:94,1,79.9999999999999,0|2,0:0|0:0,0:0:0:0:
257,163,40676,2,0,P|243:200|247:239,1,79.9999999999999,0|2,0:0|0:0,0:0:0:0:
302,318,41321,6,0,P|339:331|378:327,1,79.9999999999999,0|2,0:0|0:0,0:0:0:0:
416,357,41805,2,0,L|466:357,1,40,8|0,0:0|0:0,0:0:0:0:
488,216,42450,1,8,0:0:0:0:
477,120,42773,2,0,P|476:83|458:40,1,79.9999999999999,0|8,0:0|0:0,0:0:0:0:
412,36,43257,2,0,L|328:38,1,79.9999999999999,2|8,0:0|0:0,0:0:0:0:
256,96,43902,6,0,B|237:190|280:190|253:298,1,200,6|8,0:0|0:0,0:0:0:0:
330,352,45031,2,0,L|348:314,1,40,2|2,0:0|0:0,0:0:0:0:
356,268,45354,2,0,B|382:163|339:163|358:69,1,200,0|0,0:0|0:0,0:0:0:0:
265,45,46483,6,0,L|139:39,1,120,2|0,0:0|0:0,0:0:0:0:
50,57,47289,1,8,0:0:0:0:
35,152,47612,1,0,0:0:0:0:
129,134,47934,2,0,L|248:139,1,120,0|2,0:0|0:0,0:0:0:0:
338,174,48741,1,2,0:0:0:0:
428,205,49063,6,0,P|396:250|330:270,1,120,4|2,0:0|0:0,0:0:0:0:
266,336,49870,2,0,P|224:329|179:341,1,79.9999999999999,2|2,0:0|0:0,0:0:0:0:
94,358,50515,1,2,0:0:0:0:
37,280,50837,2,0,L|34:225,1,40,2|0,0:0|0:0,0:0:0:0:
124,205,51321,2,0,L|126:244,1,40,0|2,0:0|0:0,0:0:0:0:
173,253,51644,6,0,B|267:236|267:271|384:248,1,200,0|2,0:0|0:0,0:0:0:0:
400,342,52773,2,0,L|451:326,1,40,2|2,0:0|0:0,0:0:0:0:
467,238,53257,2,0,L|481:175,1,40,0|0,0:0|0:0,0:0:0:0:
390,153,53741,2,0,L|375:90,1,40,0|0,0:0|0:0,0:0:0:0:
309,49,54225,6,0,L|178:49,1,120,12|8,0:0|0:0,0:0:0:0:
94,66,55031,2,0,L|90:120,1,40,2|2,0:0|0:0,0:0:0:0:
178,144,55515,2,0,L|258:144,2,79.9999999999999,2|2|2,0:0|0:0|0:0,0:0:0:0:
94,191,56483,2,0,L|57:216,1,40,2|8,0:0|0:0,0:0:0:0:
35,253,56805,6,0,P|34:317|78:360,1,120,2|8,0:0|0:0,0:0:0:0:
166,355,57612,2,0,L|199:332,1,40,2|2,0:0|0:0,0:0:0:0:
288,298,58095,2,0,L|379:299,1,79.9999999999999,4|4,0:0|0:0,0:0:0:0:
366,202,58741,2,0,L|286:201,1,79.9999999999999,4|4,0:0|0:0,0:0:0:0:
197,239,59386,6,0,P|193:181|223:128,1,120,4|8,0:0|0:0,0:0:0:0:
267,43,60192,1,2,0:0:0:0:
362,36,60515,2,0,L|420:36,2,40,8|0|0,0:0|0:0|0:0,0:0:0:0:
378,130,61160,2,0,L|418:130,1,40,8|0,0:0|0:0,0:0:0:0:
459,154,61483,2,0,L|453:291,1,120,2|2,0:0|0:0,0:0:0:0:
336,357,62450,6,0,L|338:306,1,40,2|2,0:0|0:0,0:0:0:0:
300,228,62934,2,0,L|301:188,2,40,2|2|4,0:0|0:0|0:0,0:0:0:0:
239,302,63579,2,0,P|185:346|84:338,1,160,2|8,0:0|0:0,0:0:0:0:
45,264,64547,6,0,L|46:134,1,120,4|8,0:0|0:0,0:0:0:0:
74,51,65354,2,0,L|126:47,1,40,2|2,0:0|0:0,0:0:0:0:
143,139,65837,2,0,L|142:218,2,79.9999999999999,2|2|0,0:0|0:0|0:0,0:0:0:0:
206,66,66805,1,2,0:0:0:0:
300,48,67128,6,0,P|358:40|430:51,1,120,6|8,0:0|0:0,0:0:0:0:
380,135,67934,2,0,P|360:132|340:133,1,40,2|2,0:0|0:0,0:0:0:0:
278,207,68418,2,0,L|279:297,1,79.9999999999999,4|4,0:0|0:0,0:0:0:0:
182,288,69063,2,0,L|181:208,1,79.9999999999999,4|4,0:0|0:0,0:0:0:0:
108,144,69708,2,0,P|43:101|123:57,1,200,4|8,0:0|0:0,0:0:0:0:
213,34,70837,6,0,L|307:34,1,79.9999999999999,0|0,0:0|0:0,0:0:0:0:
272,128,71483,2,0,L|232:127,1,40,0|2,0:0|0:0,0:0:0:0:
208,220,71966,2,0,L|247:220,1,40,0|0,0:0|0:0,0:0:0:0:
267,264,72289,2,0,P|261:326|300:383,1,120,6|2,0:0|0:0,0:0:0:0:
356,304,73095,2,0,L|412:304,1,40,2|2,0:0|0:0,0:0:0:0:
473,360,73579,1,2,0:0:0:0:
453,168,74225,6,0,L|461:76,1,79.9999999999999,2|0,0:0|0:0,0:0:0:0:
364,79,74870,2,0,P|290:49|210:53,1,160,4|0,0:0|0:0,0:0:0:0:
116,68,75837,1,2,0:0:0:0:
99,162,76160,2,0,P|69:235|73:315,1,160,4|0,0:0|0:0,0:0:0:0:
169,325,77128,1,2,0:0:0:0:
263,347,77450,6,0,L|356:347,1,79.9999999999999,4|2,0:0|0:0,0:0:0:0:
373,256,78095,2,0,L|293:256,1,79.9999999999999,0|2,0:0|0:0,0:0:0:0:
202,226,78741,2,0,P|198:166|210:80,2,120,4|8|2,0:0|0:0|0:0,0:0:0:0:
111,255,80031,6,0,P|103:165|122:57,1,200,4|8,0:0|0:0,0:0:0:0:
205,107,81160,2,0,P|272:78|390:64,1,160,0|0,0:0|0:0,0:0:0:0:
451,42,82128,1,8,0:0:0:0:
458,138,82450,6,0,B|438:206|470:286|470:286|460:341|460:341|400:321|376:338,1,280,0|2,0:0|0:0,0:0:0:0:
294,342,83902,2,0,L|49:344,1,240,6|2,0:0|0:0,0:0:0:0:
76,251,85192,6,0,L|208:249,1,120,4|8,0:0|0:0,0:0:0:0:
285,212,85999,2,0,L|289:147,1,40,2|2,0:0|0:0,0:0:0:0:
195,150,86483,2,0,L|76:152,1,120,4|8,0:0|0:0,0:0:0:0:
7,84,87289,2,0,L|8:19,1,40,8|2,0:0|0:0,0:0:0:0:
102,30,87773,1,4,0:0:0:0:
