osu file format v14

[General]
AudioFilename: audio.mp3
AudioLeadIn: 0
PreviewTime: 54144
Countdown: 0
SampleSet: Normal
StackLeniency: 0.7
Mode: 0
LetterboxInBreaks: 0
WidescreenStoryboard: 0

[Editor]
Bookmarks: 1179,2440,2520,3006,3086,3167,3248,3329,3410,3491,21982,22063,22143,22224,22304,22385,22466,22546,22627,22708,22788,22869,22950,23030,23111,23192,23272,32385,32466,32546,32627,32708,32788,32869,32950,33030,33111,33192,33272,33353,33434,33514,33595,82128
DistanceSpacing: 1.3
BeatDivisor: 4
GridSize: 4
TimelineZoom: 1.4

[Metadata]
Title:ONLY YOUR STARS!
TitleUnicode:ONLY YOUR STARS!
Artist:Morikubo Syoutarou, Kakihara Tetsuya
ArtistUnicode:森久保祥太郎、柿原徹也
Creator:Ryuusei Aika
Version:Kanade's Hard
Source:あんさんぶるスターズ!
Tags:あんスタ Ensemble Stars op opening theme 明星スバル Akehoshi Subaru 遊木真 Yuuki Makoto 松井洋平 Matsui Youhei Dir 中士智博 Tomohiro Nakatsuchi Sandrew kanor Amamiya Kanade Zhongren Suzuki_1112 1112deng
BeatmapID:1432767
BeatmapSetID:675185

[Difficulty]
HPDrainRate:6
CircleSize:4
OverallDifficulty:7
ApproachRate:8
SliderMultiplier:1.4
SliderTickRate:1

[Events]
//Background and Video events
0,0,"BGHD.png",0,0
Video,100,"OP1.avi"
//Break Periods
//Storyboard Layer 0 (Background)
//Storyboard Layer 1 (Fail)
//Storyboard Layer 2 (Pass)
//Storyboard Layer 3 (Foreground)
//Storyboard Sound Samples

[TimingPoints]
346,333.333333333333,4,1,1,20,1,0
346,-200,4,1,1,20,0,0
679,-200,4,1,1,30,0,0
1012,-200,4,1,1,40,0,0
1308,323.450134770889,4,1,2,50,1,0
1550,-100,4,1,1,50,0,0
5189,-100,4,1,1,60,0,0
5512,-100,4,1,1,50,0,0
5836,-100,4,1,1,40,0,0
6159,-100,4,1,1,50,0,0
6483,-100,4,1,1,60,0,0
6644,323.450134770889,4,1,1,60,1,0
6968,-100,4,1,1,50,0,0
9151,-100,4,1,2,50,0,0
9394,-100,4,1,1,50,0,0
9555,-100,4,1,2,50,0,0
9717,-100,4,1,1,50,0,0
9879,-100,4,1,2,50,0,0
10041,-100,4,1,1,50,0,0
10364,-100,4,1,2,50,0,0
10687,-133.333333333333,5,1,1,30,0,0
10688,-100,5,1,1,30,0,0
12290,322.58064516129,5,1,1,50,1,0
12935,-100,5,1,2,70,0,0
13015,-100,5,1,1,70,0,0
13096,322.58064516129,5,1,1,70,1,0
18095,-100,5,1,1,60,0,0
20676,-100,5,1,2,70,0,0
22289,-100,5,1,1,40,0,0
22304,-100,5,1,1,40,0,0
23257,-100,5,1,1,50,0,0
32289,-100,5,1,1,50,0,0
32531,-100,5,1,1,5,0,0
32546,-100,5,1,1,5,0,0
32612,-100,5,1,1,45,0,0
32854,-100,5,1,1,5,0,0
32934,-100,5,1,1,40,0,0
33176,-100,5,1,1,5,0,0
33257,-100,5,1,1,35,0,0
33499,-100,5,1,1,5,0,0
33579,-100,5,1,1,55,0,0
43579,-100,5,1,2,55,0,0
43902,-133.333333333333,5,1,1,60,0,0
49547,-100,5,1,1,50,0,0
51805,-100,5,1,1,52,0,0
51966,-100,5,1,1,54,0,0
52128,-100,5,1,1,56,0,0
52289,-100,5,1,1,58,0,0
52450,-100,5,1,2,60,0,0
52531,-100,5,1,2,62,0,0
52612,-100,5,1,2,64,0,0
52692,-100,5,1,2,66,0,0
52773,-100,5,1,2,68,0,0
52854,-100,5,1,2,70,0,0
52934,-100,5,1,2,72,0,0
53257,-133.333333333333,5,1,1,50,0,0
54225,-100,5,1,3,80,0,1
54305,-100,5,1,1,80,0,1
62128,-100,5,1,2,90,0,1
62289,-100,5,1,1,80,0,1
62450,-100,5,1,2,90,0,1
62612,-100,5,1,1,80,0,1
62773,-100,5,1,2,90,0,1
62934,-100,5,1,1,80,0,1
63095,-100,5,1,2,80,0,1
63257,-100,5,1,1,95,0,1
63579,-100,5,1,1,75,0,1
64547,-100,5,1,2,80,0,1
64628,-100,5,1,1,80,0,1
72450,-100,5,1,2,90,0,1
72612,-100,5,1,1,80,0,1
72773,-100,5,1,2,87,0,1
72934,-100,5,1,1,77,0,1
73095,-100,5,1,2,84,0,1
73257,-100,5,1,1,74,0,1
73579,-100,5,1,2,100,0,0
73902,-100,5,1,1,65,0,0
74870,-100,5,1,2,75,0,0
74950,-100,5,1,1,75,0,0
82773,-100,5,1,2,90,0,0
82934,-100,5,1,1,75,0,0
83095,-100,5,1,2,90,0,0
83257,-100,5,1,1,75,0,0
83418,-100,5,1,2,90,0,0
83579,-100,5,1,1,75,0,0
83902,-100,5,1,2,100,0,0
84225,-100,5,1,1,70,0,0
85192,-100,5,1,1,80,0,0
87773,-100,5,1,1,100,0,0
87854,-100,5,1,1,10,0,0

[Colours]
Combo1 : 170,40,21
Combo2 : 255,226,169
Combo3 : 231,145,92
Combo4 : 241,218,193

[HitObjects]
104,220,346,6,0,P|68:224|28:220,2,70,0|0|0,0:0|0:0|0:0,0:0:0:0:
276,156,1308,6,0,P|324:136|400:160,1,105,4|0,0:0|0:0,0:0:0:0:
424,220,1712,1,0,0:0:0:0:
368,295,1874,2,0,P|344:269|336:236,1,70,0|0,0:0|0:0,0:0:0:0:
244,224,2197,2,0,P|196:228|148:220,1,70,0|0,0:0|0:0,0:0:0:0:
48,216,2601,2,0,P|32:280|36:308,1,70,4|0,0:0|0:0,0:0:0:0:
108,332,2925,1,0,0:0:0:0:
108,332,3572,2,0,L|188:336,1,70,0|0,0:0|0:0,0:0:0:0:
268,336,3895,6,0,P|324:328|420:348,1,140,4|0,0:0|0:0,0:0:0:0:
492,368,4380,1,0,0:0:0:0:
476,280,4542,2,0,L|476:188,1,70,0|0,0:0|0:0,0:0:0:0:
468,120,4865,1,0,0:0:0:0:
288,88,5189,2,0,L|192:84,1,70,4|0,0:0|0:0,0:0:0:0:
176,164,5512,2,0,L|272:160,1,70,4|0,0:0|0:0,0:0:0:0:
333,253,5836,2,0,L|336:184,1,70,4|0,0:0|0:0,0:0:0:0:
416,224,6159,2,0,L|418:293,1,70,4|0,0:0|0:0,0:0:0:0:
412,140,6483,6,0,P|372:72|308:64,1,140,4|0,0:0|0:0,0:0:0:0:
224,68,6967,2,0,L|124:68,1,70,2|0,0:0|0:0,0:0:0:0:
128,156,7290,2,0,L|200:156,1,70,2|0,0:0|0:0,0:0:0:0:
288,156,7614,2,0,P|316:204|284:288,1,140,2|2,0:0|0:0,0:0:0:0:
132,364,8261,1,2,0:0:0:0:
132,364,8422,2,0,P|76:376|-4:332,1,140,0|0,0:0|0:0,0:0:0:0:
56,264,8908,1,2,0:0:0:0:
112,192,9069,6,0,P|65:142|61:73,1,140,4|2,0:0|0:0,0:0:0:0:
148,101,9555,2,0,L|228:101,1,70,2|2,0:0|0:0,0:0:0:0:
308,108,9878,1,2,0:0:0:0:
308,108,10040,1,2,0:0:0:0:
256,284,10363,1,8,0:0:0:0:
256,284,10687,6,0,L|180:288,2,52.5000020027161,0|0|0,0:0|0:0|0:0,0:0:0:0:
352,272,11172,1,0,0:0:0:0:
439,247,11334,1,0,0:0:0:0:
416,160,11495,1,0,0:0:0:0:
328,183,11657,1,0,0:0:0:0:
132,232,12290,6,0,P|88:240|60:228,2,70,2|0|2,0:0|0:0|0:0,0:0:0:0:
215,192,12773,1,0,0:0:0:0:
136,140,12935,2,0,P|164:108|256:108,1,140,4|2,0:0|0:0,0:0:0:0:
324,168,13418,2,0,L|324:280,1,70,8|0,0:0|0:0,0:0:0:0:
416,252,13741,2,0,L|416:364,2,70,2|2|8,0:0|0:0|0:0,0:0:0:0:
416,160,14225,6,0,P|372:80|324:68,1,140,4|0,0:0|0:0,0:0:0:0:
240,72,14708,2,0,L|136:76,1,70,8|0,0:0|0:0,0:0:0:0:
152,164,15031,2,0,L|48:168,2,70,2|2|8,0:0|0:0|0:0,0:0:0:0:
244,152,15515,2,0,P|236:208|164:256,1,140,4|2,0:0|0:0,0:0:0:0:
84,284,15999,1,8,0:0:0:0:
148,348,16160,2,0,P|196:352|240:336,1,70,0|0,0:0|0:0,0:0:0:0:
300,312,16483,2,0,L|304:384,1,70,2|8,0:0|0:0,0:0:0:0:
380,336,16805,1,4,0:0:0:0:
304,140,17128,6,0,L|308:60,1,70,2|8,0:0|0:0,0:0:0:0:
224,108,17450,1,4,0:0:0:0:
200,288,17773,2,0,P|136:288|104:296,1,70,2|8,0:0|0:0,0:0:0:0:
44,300,18095,2,0,P|24:220|68:156,1,140,4|0,0:0|0:0,0:0:0:0:
100,96,18579,2,0,P|136:92|180:96,1,70,2|2,0:0|0:0,0:0:0:0:
315,144,18902,2,0,P|281:147|247:139,1,70,2|0,0:0|0:0,0:0:0:0:
408,132,19225,1,0,0:0:0:0:
408,132,19386,2,0,P|420:200|404:284,1,140,2|2,0:0|0:0,0:0:0:0:
364,348,19870,2,0,L|284:348,1,70,2|2,0:0|0:0,0:0:0:0:
324,264,20192,1,8,0:0:0:0:
52,236,20676,6,0,P|32:164|84:104,1,140,4|0,0:0|0:0,0:0:0:0:
152,84,21160,2,0,L|240:92,1,70,2|0,0:0|0:0,0:0:0:0:
260,172,21483,2,0,L|191:165,1,70,2|0,0:0|0:0,0:0:0:0:
220,252,21805,1,0,0:0:0:0:
221,90,21966,1,8,0:0:0:0:
440,172,23257,6,0,P|448:228|376:288,1,140,6|0,0:0|0:0,0:0:0:0:
304,288,23741,2,0,L|216:292,1,70,2|0,0:0|0:0,0:0:0:0:
188,368,24063,2,0,L|112:376,2,70,2|0|2,0:0|0:0|0:0,0:0:0:0:
140,288,24547,2,0,P|168:200|224:176,1,140,0|0,0:0|0:0,0:0:0:0:
296,168,25031,2,0,L|388:172,1,70,2|0,0:0|0:0,0:0:0:0:
376,80,25354,2,0,L|468:84,2,70,2|0|2,0:0|0:0|0:0,0:0:0:0:
284,84,25837,6,0,P|193:88|125:100,1,140,0|0,0:0|0:0,0:0:0:0:
68,148,26321,1,2,0:0:0:0:
32,232,26483,2,0,P|123:228|191:216,1,140,0|0,0:0|0:0,0:0:0:0:
264,224,26966,2,0,L|264:308,1,70,2|0,0:0|0:0,0:0:0:0:
348,256,27289,2,0,L|348:336,2,70,2|0|2,0:0|0:0|0:0,0:0:0:0:
340,164,27773,1,0,0:0:0:0:
148,128,28095,1,0,0:0:0:0:
148,128,28257,1,2,0:0:0:0:
60,112,28418,6,0,P|66:181|58:251,1,140,0|0,0:0|0:0,0:0:0:0:
108,328,28902,1,2,0:0:0:0:
200,320,29063,2,0,P|178:254|188:185,1,140,0|0,0:0|0:0,0:0:0:0:
244,112,29547,1,2,0:0:0:0:
328,76,29708,2,0,P|408:84|468:76,1,140,0|0,0:0|0:0,0:0:0:0:
436,160,30192,1,2,0:0:0:0:
348,184,30354,2,0,P|316:252|252:288,1,140,0|0,0:0|0:0,0:0:0:0:
184,340,30837,1,2,0:0:0:0:
104,296,30999,6,0,P|92:216|124:168,1,140,0|0,0:0|0:0,0:0:0:0:
180,241,31483,1,2,0:0:0:0:
396,72,31966,2,0,L|480:80,1,70,0|8,0:0|0:0,0:0:0:0:
424,160,32289,5,2,0:0:0:0:
284,280,33579,6,0,P|224:268|136:276,1,140,4|0,0:0|0:0,0:0:0:0:
64,316,34063,2,0,L|60:220,1,70,8|0,0:0|0:0,0:0:0:0:
100,164,34386,2,0,L|97:94,2,70,0|2|8,0:0|0:0|0:0,0:0:0:0:
188,192,34870,1,0,0:0:0:0:
280,200,35031,2,0,P|332:196|452:212,1,140,2|8,0:0|0:0,0:0:0:0:
380,288,35515,2,0,P|345:284|310:285,1,70,0|0,0:0|0:0,0:0:0:0:
220,304,35837,1,2,0:0:0:0:
152,244,35999,1,8,0:0:0:0:
56,320,36160,6,0,P|56:256|36:176,1,140,0|0,0:0|0:0,0:0:0:0:
96,112,36644,2,0,L|180:120,1,70,8|0,0:0|0:0,0:0:0:0:
248,152,36966,2,0,L|332:144,1,70,0|0,0:0|0:0,0:0:0:0:
380,80,37289,1,8,0:0:0:0:
420,164,37450,1,0,0:0:0:0:
420,164,37612,2,0,P|412:220|424:332,1,140,2|8,0:0|0:0,0:0:0:0:
328,324,38095,2,0,P|252:320|232:324,1,70,0|0,0:0|0:0,0:0:0:0:
168,336,38418,5,2,0:0:0:0:
144,248,38579,1,8,0:0:0:0:
28,324,38741,2,0,P|36:256|24:156,1,140,0|0,0:0|0:0,0:0:0:0:
44,96,39225,2,0,L|124:96,1,70,8|0,0:0|0:0,0:0:0:0:
148,12,39547,2,0,L|78:12,2,70,0|2|8,0:0|0:0|0:0,0:0:0:0:
212,76,40031,6,0,P|296:80|368:48,1,140,0|2,0:0|0:0,0:0:0:0:
424,8,40515,1,8,0:0:0:0:
416,100,40676,2,0,L|416:196,1,70,0|0,0:0|0:0,0:0:0:0:
324,176,40999,2,0,L|324:246,1,70,2|8,0:0|0:0,0:0:0:0:
240,280,41321,2,0,P|172:272|80:288,1,140,0|2,0:0|0:0,0:0:0:0:
16,252,41805,2,0,P|36:184|16:112,1,140,8|0,0:0|0:0,0:0:0:0:
200,124,42450,6,0,L|292:124,1,70,8|0,0:0|0:0,0:0:0:0:
316,200,42773,2,0,L|176:200,1,140,0|8,0:0|0:0,0:0:0:0:
84,204,43257,1,2,0:0:0:0:
44,284,43418,1,2,0:0:0:0:
88,364,43579,1,8,0:0:0:0:
137,278,43741,1,0,0:0:0:0:
137,278,43902,6,0,P|188:285|241:282,1,105.000004005432,6|0,0:0|0:0,0:0:0:0:
328,248,44386,2,0,P|379:240|432:243,2,105.000004005432,0|8|2,0:0|0:0|0:0,0:0:0:0:
248,288,45192,1,2,0:0:0:0:
164,316,45354,2,0,L|160:204,1,105.000004005432,0|0,0:0|0:0,0:0:0:0:
72,236,45837,2,0,L|76:348,2,105.000004005432,2|0|2,0:0|0:0|0:0,0:0:0:0:
300,96,46966,6,0,P|296:64|300:32,1,52.5000020027161,0|2,0:0|0:0,0:0:0:0:
376,136,47289,2,0,P|380:168|376:200,1,52.5000020027161,8|0,0:0|0:0,0:0:0:0:
332,308,47612,2,0,P|328:282|329:255,1,52.5000020027161,0|2,0:0|0:0,0:0:0:0:
296,176,47934,2,0,L|191:176,1,105.000004005432,0|8,0:0|0:0,0:0:0:0:
96,168,48418,2,0,P|105:116|97:64,1,105.000004005432,2|2,0:0|0:0,0:0:0:0:
192,60,48902,1,8,0:0:0:0:
284,44,49063,2,0,P|320:82|371:89,1,105.000004005432,4|0,0:0|0:0,0:0:0:0:
456,124,49547,6,0,L|463:193,1,70,2|0,0:0|0:0,0:0:0:0:
362,273,49870,2,0,L|372:204,1,70,2|0,0:0|0:0,0:0:0:0:
272,264,50192,2,0,L|282:334,1,70,2|0,0:0|0:0,0:0:0:0:
196,304,50515,2,0,P|120:312|44:296,1,140,2|2,0:0|0:0,0:0:0:0:
32,212,50999,2,0,P|60:132|32:64,1,140,0|0,0:0|0:0,0:0:0:0:
136,72,51483,1,2,0:0:0:0:
228,80,51644,1,0,0:0:0:0:
276,156,51805,6,0,P|276:204|288:236,1,70,2|2,0:0|0:0,0:0:0:0:
352,348,52128,2,0,P|354:313|345:279,1,70,2|2,0:0|0:0,0:0:0:0:
401,147,52450,2,0,P|399:182|408:216,1,70,2|2,0:0|0:0,0:0:0:0:
482,348,52773,2,0,P|484:313|476:280,1,70,2|2,0:0|0:0,0:0:0:0:
328,244,53257,6,0,L|324:192,2,52.5000020027161,0|0|2,0:0|0:0|0:0,0:0:0:0:
248,224,53741,1,0,0:0:0:0:
408,216,53902,1,0,0:0:0:0:
476,48,54225,6,0,P|406:43|336:47,1,140,12|2,0:0|0:0,0:0:0:0:
256,92,54708,2,0,L|252:180,1,70,8|0,0:0|0:0,0:0:0:0:
176,208,55031,2,0,L|165:138,1,70,2|2,0:0|0:0,0:0:0:0:
88,188,55354,1,8,0:0:0:0:
112,276,55515,2,0,P|180:260|264:284,1,140,2|2,0:0|0:0,0:0:0:0:
336,296,55999,2,0,L|328:226,2,70,8|2|2,0:0|0:0|0:0,0:0:0:0:
428,280,56483,2,0,L|424:349,1,70,2|8,0:0|0:0,0:0:0:0:
428,184,56805,6,0,P|424:112|352:76,1,140,2|2,0:0|0:0,0:0:0:0:
284,48,57289,2,0,L|168:52,1,70,8|0,0:0|0:0,0:0:0:0:
228,140,57612,2,0,L|112:136,1,70,2|2,0:0|0:0,0:0:0:0:
132,212,57934,1,8,0:0:0:0:
220,236,58095,2,0,B|308:240|308:240|344:204,2,140,4|4|4,0:0|0:0|0:0,0:0:0:0:
40,240,59063,2,0,L|38:171,1,70,4|0,0:0|0:0,0:0:0:0:
132,212,59386,6,0,P|108:360|108:360,1,140,4|0,0:0|0:0,0:0:0:0:
198,356,59870,2,0,P|240:352|292:364,1,70,8|0,0:0|0:0,0:0:0:0:
356,372,60192,2,0,P|364:344|356:288,1,70,2|2,0:0|0:0,0:0:0:0:
348,212,60515,2,0,L|418:212,1,70,8|0,0:0|0:0,0:0:0:0:
258,216,60837,2,0,P|236:148|270:68,1,140,0|8,0:0|0:0,0:0:0:0:
344,68,61321,2,0,L|504:68,1,140,0|2,0:0|0:0,0:0:0:0:
464,156,61805,1,8,0:0:0:0:
464,156,61966,6,0,P|484:216|444:292,1,140,2|2,0:0|0:0,0:0:0:0:
372,320,62450,2,0,P|336:324|284:312,1,70,2|2,0:0|0:0,0:0:0:0:
190,240,62773,2,0,P|225:235|260:240,1,70,2|2,0:0|0:0,0:0:0:0:
302,318,63095,1,2,0:0:0:0:
454,283,63257,1,4,0:0:0:0:
444,100,63579,6,0,L|419:15,2,70,2|8|0,0:0|0:0|0:0,0:0:0:0:
512,40,64063,1,2,0:0:0:0:
356,84,64225,1,8,0:0:0:0:
232,75,64547,6,0,P|291:108|355:84,1,140,4|2,0:0|0:0,0:0:0:0:
148,44,65031,2,0,L|148:148,1,70,8|0,0:0|0:0,0:0:0:0:
64,152,65354,2,0,L|64:82,2,70,2|2|8,0:0|0:0|0:0,0:0:0:0:
132,212,65837,2,0,P|204:220|292:204,1,140,2|2,0:0|0:0,0:0:0:0:
360,220,66321,2,0,L|360:336,2,70,8|0|2,0:0|0:0|0:0,0:0:0:0:
376,132,66805,2,0,L|446:132,1,70,2|8,0:0|0:0,0:0:0:0:
284,132,67128,6,0,P|264:48|300:-12,1,140,6|2,0:0|0:0,0:0:0:0:
216,60,67612,2,0,L|124:60,1,70,8|0,0:0|0:0,0:0:0:0:
60,92,67934,1,2,0:0:0:0:
60,92,68095,1,2,0:0:0:0:
84,272,68418,6,0,L|184:276,1,70,4|0,0:0|0:0,0:0:0:0:
196,196,68741,2,0,L|126:193,1,70,4|0,0:0|0:0,0:0:0:0:
240,280,69063,2,0,L|340:284,1,70,4|0,0:0|0:0,0:0:0:0:
352,204,69386,2,0,L|282:201,1,70,4|0,0:0|0:0,0:0:0:0:
440,216,69708,2,0,P|432:144|444:76,1,140,4|0,0:0|0:0,0:0:0:0:
352,80,70192,6,0,P|316:88|272:80,1,70,0|2,0:0|0:0,0:0:0:0:
127,64,70515,2,0,P|161:56|196:60,1,70,8|0,0:0|0:0,0:0:0:0:
221,215,70837,2,0,P|227:181|220:148,1,70,0|2,0:0|0:0,0:0:0:0:
192,300,71160,2,0,L|352:308,1,140,0|0,0:0|0:0,0:0:0:0:
328,216,71644,2,0,L|488:208,1,140,2|0,0:0|0:0,0:0:0:0:
428,292,72128,1,0,0:0:0:0:
420,128,72289,6,0,P|372:112|276:128,1,140,6|2,0:0|0:0,0:0:0:0:
236,200,72773,2,0,P|196:196|136:200,1,70,2|2,0:0|0:0,0:0:0:0:
6,207,73095,2,0,P|41:211|76:208,1,70,2|2,0:0|0:0,0:0:0:0:
112,124,73418,1,0,0:0:0:0:
236,200,73579,1,2,0:0:0:0:
396,284,73902,6,0,L|484:280,2,70,8|8|2,0:0|0:0|0:0,0:0:0:0:
304,276,74386,2,0,L|292:360,1,70,8|0,0:0|0:0,0:0:0:0:
208,372,74708,1,2,0:0:0:0:
208,280,74870,2,0,L|188:132,1,140,4|2,0:0|0:0,0:0:0:0:
220,56,75354,2,0,P|272:48|300:56,1,70,8|0,0:0|0:0,0:0:0:0:
416,124,75676,2,0,P|381:128|348:120,1,70,2|2,0:0|0:0,0:0:0:0:
288,51,75999,1,8,0:0:0:0:
364,212,76160,1,4,0:0:0:0:
364,212,76483,6,0,L|440:212,2,70,2|8|0,0:0|0:0|0:0,0:0:0:0:
322,124,76966,2,0,L|392:124,1,70,2|2,0:0|0:0,0:0:0:0:
396,296,77289,1,8,0:0:0:0:
396,296,77450,2,0,L|248:296,1,140,4|2,0:0|0:0,0:0:0:0:
168,272,77934,2,0,P|164:228|176:188,1,70,8|0,0:0|0:0,0:0:0:0:
258,135,78257,2,0,P|264:169|260:204,1,70,2|2,0:0|0:0,0:0:0:0:
169,203,78579,1,8,0:0:0:0:
352,204,78741,1,4,0:0:0:0:
396,28,79063,6,0,L|327:32,1,70,2|8,0:0|0:0,0:0:0:0:
488,24,79386,2,0,P|512:76|464:152,1,140,0|2,0:0|0:0,0:0:0:0:
416,216,79870,1,8,0:0:0:0:
308,196,80031,2,0,L|168:188,1,140,4|0,0:0|0:0,0:0:0:0:
76,191,80515,2,0,P|73:226|81:260,1,70,0|2,0:0|0:0,0:0:0:0:
124,112,80837,2,0,P|126:77|119:43,2,70,8|0|0,0:0|0:0|0:0,0:0:0:0:
168,188,81321,2,0,L|238:188,1,70,2|0,0:0|0:0,0:0:0:0:
260,100,81644,5,0,0:0:0:0:
352,92,81805,2,0,L|366:23,1,70,0|2,0:0|0:0,0:0:0:0:
440,76,82128,2,0,L|472:212,1,140,8|0,0:0|0:0,0:0:0:0:
456,304,82612,1,2,0:0:0:0:
372,340,82773,2,0,P|304:332|292:327,1,70,2|2,0:0|0:0,0:0:0:0:
174,359,83095,2,0,P|190:328|214:303,1,70,2|2,0:0|0:0,0:0:0:0:
253,178,83418,2,0,P|271:207|280:241,1,70,2|2,0:0|0:0,0:0:0:0:
336,168,83741,1,2,0:0:0:0:
184,220,83902,6,0,P|180:140|236:100,1,140,6|0,0:0|0:0,0:0:0:0:
304,68,84386,2,0,L|428:88,1,70,8|0,0:0|0:0,0:0:0:0:
312,156,84708,1,2,0:0:0:0:
360,0,84870,1,2,0:0:0:0:
508,108,85192,6,0,P|487:175|497:243,1,140,4|2,0:0|0:0,0:0:0:0:
400,288,85676,1,8,0:0:0:0:
400,288,85837,2,0,P|343:280|232:304,1,140,0|2,0:0|0:0,0:0:0:0:
172,288,86321,1,0,0:0:0:0:
172,288,86483,2,0,P|156:220|180:148,1,140,4|2,0:0|0:0,0:0:0:0:
268,160,86966,2,0,L|356:160,1,70,8|2,0:0|0:0,0:0:0:0:
380,80,87289,2,0,L|292:80,1,70,8|2,0:0|0:0,0:0:0:0:
224,52,87612,1,2,0:0:0:0:
168,160,87773,5,4,0:0:0:0:
256,192,87934,12,0,89225,0:0:0:0:
