osu file format v14

[General]
AudioFilename: audio.mp3
AudioLeadIn: 0
PreviewTime: 54144
Countdown: 0
SampleSet: Normal
StackLeniency: 0.7
Mode: 0
LetterboxInBreaks: 0
WidescreenStoryboard: 0

[Editor]
DistanceSpacing: 1.6
BeatDivisor: 4
GridSize: 8
TimelineZoom: 1.5

[Metadata]
Title:ONLY YOUR STARS!
TitleUnicode:ONLY YOUR STARS!
Artist:Morikubo Syoutarou, Kakihara Tetsuya
ArtistUnicode:森久保祥太郎、柿原徹也
Creator:Ryuusei Aika
Version:Advanced
Source:あんさんぶるスターズ!
Tags:あんスタ Ensemble Stars op opening theme 明星スバル Akehoshi Subaru 遊木真 Yuuki Makoto 松井洋平 Matsui Youhei Dir 中士智博 Tomohiro Nakatsuchi Sandrew kanor Amamiya Kanade Zhongren Suzuki_1112 1112deng
BeatmapID:1434105
BeatmapSetID:675185

[Difficulty]
HPDrainRate:5
CircleSize:3.7
OverallDifficulty:6
ApproachRate:7.5
SliderMultiplier:1.2
SliderTickRate:1

[Events]
//Background and Video events
0,0,"BGADV.png",0,0
Video,100,"OP1.avi"
//Break Periods
//Storyboard Layer 0 (Background)
//Storyboard Layer 1 (Fail)
//Storyboard Layer 2 (Pass)
//Storyboard Layer 3 (Foreground)
//Storyboard Sound Samples

[TimingPoints]
346,333.333333333333,4,1,1,20,1,0
679,-100,4,1,1,30,0,0
1012,-100,4,1,1,40,0,0
1308,323.450134770889,4,1,2,50,1,0
1550,-100,4,1,1,50,0,0
5189,-100,4,1,1,60,0,0
5512,-100,4,1,1,50,0,0
5836,-100,4,1,1,40,0,0
6159,-100,4,1,1,50,0,0
6483,-100,4,1,1,60,0,0
6644,323.450134770889,4,1,1,60,1,0
6644,-100,4,1,1,60,0,0
6968,-100,4,1,1,50,0,0
9151,-100,4,1,2,50,0,0
9394,-100,4,1,1,50,0,0
9555,-100,4,1,2,50,0,0
9717,-100,4,1,1,50,0,0
9879,-100,4,1,2,50,0,0
10041,-100,4,1,1,50,0,0
10364,-100,4,1,2,50,0,0
10688,-100,4,1,1,30,0,0
12290,322.58064516129,4,1,1,50,1,0
12935,-100,4,1,2,70,0,0
13015,-100,4,1,1,70,0,0
13096,322.58064516129,4,1,1,70,1,0
18095,-100,4,1,1,60,0,0
20676,-100,4,1,1,70,0,0
20837,-100,4,1,2,70,0,0
22289,-100,4,1,1,40,0,0
23257,-100,4,1,1,50,0,0
32289,-100,4,1,1,50,0,0
32370,-100,4,1,1,20,0,0
33579,-100,4,1,1,55,0,0
43579,-100,4,1,2,55,0,0
43902,-100,4,1,1,60,0,0
49547,-100,4,1,1,50,0,0
51805,-100,4,1,1,52,0,0
51966,-100,4,1,1,54,0,0
52128,-100,4,1,1,56,0,0
52289,-100,4,1,1,58,0,0
52450,-100,4,1,2,60,0,0
52531,-100,4,1,2,62,0,0
52612,-100,4,1,2,64,0,0
52692,-100,4,1,2,66,0,0
52773,-100,4,1,2,68,0,0
52854,-100,4,1,2,70,0,0
52934,-100,4,1,2,72,0,0
53257,-100,4,1,1,50,0,0
54225,-100,4,1,3,80,0,1
54305,-100,4,1,1,80,0,1
62128,-100,4,1,2,90,0,1
62289,-100,4,1,1,80,0,1
62450,-100,4,1,2,90,0,1
62612,-100,4,1,1,80,0,1
62773,-100,4,1,2,90,0,1
62934,-100,4,1,1,80,0,1
63095,-100,4,1,2,80,0,1
63257,-100,4,1,1,95,0,1
63579,-100,4,1,1,75,0,1
64547,-100,4,1,2,80,0,1
64628,-100,4,1,1,80,0,1
72450,-100,4,1,2,90,0,1
72612,-100,4,1,1,80,0,1
72773,-100,4,1,2,87,0,1
72934,-100,4,1,1,77,0,1
73095,-100,4,1,2,84,0,1
73257,-100,4,1,1,74,0,1
73579,-100,4,1,2,100,0,0
73902,-100,4,1,1,65,0,0
74870,-100,4,1,2,75,0,0
74950,-100,4,1,1,75,0,0
82773,-100,4,1,2,90,0,0
82934,-100,4,1,1,75,0,0
83095,-100,4,1,2,90,0,0
83257,-100,4,1,1,75,0,0
83418,-100,4,1,2,90,0,0
83579,-100,4,1,1,75,0,0
83902,-100,4,1,2,100,0,0
84225,-100,4,1,1,70,0,0
85192,-100,4,1,1,80,0,0
87773,-100,4,1,1,100,0,0
87854,-100,4,1,1,10,0,0

[Colours]
Combo1 : 192,129,185
Combo2 : 253,221,132
Combo3 : 117,230,220
Combo4 : 200,224,132

[HitObjects]
300,207,346,5,0,0:0:0:0:
168,143,679,2,0,L|168:214,1,60,0|0,0:0|0:0,0:0:0:0:
168,203,1012,1,0,0:0:0:0:
236,336,1308,6,0,L|367:329,1,120,4|0,0:0|0:0,0:0:0:0:
439,377,1793,1,0,0:0:0:0:
486,293,1954,2,0,L|483:233,1,60,0|0,0:0|0:0,0:0:0:0:
440,154,2278,2,0,L|443:94,1,60,0|0,0:0|0:0,0:0:0:0:
442,94,2601,2,0,P|390:118|330:108,1,120,4|0,0:0|0:0,0:0:0:0:
29,94,3572,2,0,L|32:154,1,60,0|0,0:0|0:0,0:0:0:0:
78,236,3895,6,0,P|136:225|189:250,1,120,4|0,0:0|0:0,0:0:0:0:
235,332,4380,1,0,0:0:0:0:
147,372,4542,2,0,L|87:375,2,60,0|0|0,0:0|0:0|0:0,0:0:0:0:
235,332,5027,1,0,0:0:0:0:
235,332,5189,2,0,P|293:343|346:318,1,120,4|4,0:0|0:0,0:0:0:0:
398,123,5836,2,0,P|359:167|354:226,1,120,4|4,0:0|0:0,0:0:0:0:
497,368,6483,6,0,P|478:312|429:278,1,120,4|0,0:0|0:0,0:0:0:0:
353,225,6967,2,0,L|293:228,1,60,2|0,0:0|0:0,0:0:0:0:
219,174,7290,2,0,L|159:171,1,60,2|0,0:0|0:0,0:0:0:0:
84,225,7614,2,0,P|55:232|24:228,1,60,2|0,0:0|0:0,0:0:0:0:
49,133,7937,2,0,P|28:111|16:82,2,60,2|0|2,0:0|0:0|0:0,0:0:0:0:
111,57,8422,2,0,P|140:50|171:54,1,60,0|2,0:0|0:0,0:0:0:0:
246,116,8746,2,0,P|275:119|304:112,1,60,0|2,0:0|0:0,0:0:0:0:
381,175,9069,6,0,L|375:295,1,120,4|2,0:0|0:0,0:0:0:0:
451,357,9555,1,2,0:0:0:0:
451,357,9716,1,2,0:0:0:0:
375,294,9878,2,0,P|346:287|317:291,2,60,2|2|0,0:0|0:0|0:0,0:0:0:0:
467,258,10363,1,8,0:0:0:0:
395,199,12290,5,2,0:0:0:0:
395,199,12451,2,0,L|398:139,1,60,0|2,0:0|0:0,0:0:0:0:
469,72,12773,1,0,0:0:0:0:
397,139,12935,6,0,P|339:153|279:147,1,120,4|2,0:0|0:0,0:0:0:0:
207,80,13418,2,0,P|147:74|89:88,1,120,8|2,0:0|0:0,0:0:0:0:
16,156,13902,1,2,0:0:0:0:
16,156,14063,1,8,0:0:0:0:
16,156,14225,2,0,L|10:276,1,120,4|0,0:0|0:0,0:0:0:0:
107,304,14708,2,0,L|227:310,1,120,8|2,0:0|0:0,0:0:0:0:
323,338,15192,1,2,0:0:0:0:
323,338,15354,1,8,0:0:0:0:
323,338,15515,6,0,P|329:281|370:236,1,120,4|2,0:0|0:0,0:0:0:0:
416,320,15999,1,8,0:0:0:0:
416,320,16160,1,0,0:0:0:0:
418,153,16483,1,2,0:0:0:0:
418,153,16644,1,8,0:0:0:0:
511,135,16805,2,0,P|505:191|464:237,1,120,4|2,0:0|0:0,0:0:0:0:
369,236,17289,1,8,0:0:0:0:
369,236,17450,2,0,L|249:230,1,120,4|2,0:0|0:0,0:0:0:0:
166,277,17934,1,8,0:0:0:0:
166,277,18095,6,0,L|46:283,1,120,4|0,0:0|0:0,0:0:0:0:
0,199,18579,2,0,P|-5:169|0:138,1,60,2|2,0:0|0:0,0:0:0:0:
83,94,18902,2,0,P|112:88|141:93,1,60,2|0,0:0|0:0,0:0:0:0:
141,93,19225,1,0,0:0:0:0:
141,93,19386,1,2,0:0:0:0:
313,164,19708,2,0,L|316:224,2,60,2|2|2,0:0|0:0|0:0,0:0:0:0:
264,80,20192,2,0,P|321:67|375:90,1,120,8|0,0:0|0:0,0:0:0:0:
408,180,20676,1,4,0:0:0:0:
408,180,20837,6,0,L|411:240,1,60,2|0,0:0|0:0,0:0:0:0:
348,313,21160,2,0,L|351:373,1,60,2|0,0:0|0:0,0:0:0:0:
255,355,21483,2,0,P|225:349|196:355,2,60,2|0|0,0:0|0:0|0:0,0:0:0:0:
351,373,21966,1,8,0:0:0:0:
351,373,23257,6,0,L|357:253,1,120,6|0,0:0|0:0,0:0:0:0:
419,178,23741,1,2,0:0:0:0:
419,178,23902,2,0,L|413:58,1,120,0|0,0:0|0:0,0:0:0:0:
320,91,24386,2,0,P|290:95|260:90,1,60,2|0,0:0|0:0,0:0:0:0:
167,57,24708,2,0,P|109:43|49:49,2,120,2|2|2,0:0|0:0|0:0,0:0:0:0:
260,90,25515,2,0,P|264:119|259:149,1,60,0|2,0:0|0:0,0:0:0:0:
166,182,25837,6,0,L|172:302,1,120,0|0,0:0|0:0,0:0:0:0:
264,334,26321,1,2,0:0:0:0:
264,334,26483,2,0,L|384:328,1,120,0|0,0:0|0:0,0:0:0:0:
416,235,26966,2,0,L|413:175,1,60,2|0,0:0|0:0,0:0:0:0:
320,142,27289,2,0,P|262:128|202:134,2,120,2|2|2,0:0|0:0|0:0,0:0:0:0:
413,175,28095,2,0,P|442:179|472:175,1,60,0|2,0:0|0:0,0:0:0:0:
450,80,28418,6,0,P|417:38|347:58,2,120,0|0|0,0:0|0:0|0:0,0:0:0:0:
494,268,29386,2,0,L|434:271,1,60,0|2,0:0|0:0,0:0:0:0:
341,296,29708,2,0,P|286:272|229:285,1,120,0|0,0:0|0:0,0:0:0:0:
158,346,30192,1,2,0:0:0:0:
158,346,30354,2,0,L|39:351,1,120,0|0,0:0|0:0,0:0:0:0:
34,141,30999,6,0,L|153:136,1,120,0|0,0:0|0:0,0:0:0:0:
224,196,31483,2,0,P|282:208|336:185,1,120,2|2,0:0|0:0,0:0:0:0:
396,114,31966,2,0,L|393:54,1,60,0|8,0:0|0:0,0:0:0:0:
481,23,32289,6,0,B|482:25|483:52|486:142|486:142|431:248|431:248|435:384,1,360,2|0,0:0|0:0,0:0:0:0:
434,369,33579,6,0,P|379:345|321:357,1,120,4|0,0:0|0:0,0:0:0:0:
262,287,34063,1,8,0:0:0:0:
262,287,34225,2,0,P|207:310|149:298,1,120,0|2,0:0|0:0,0:0:0:0:
90,227,34708,2,0,L|93:167,1,60,8|0,0:0|0:0,0:0:0:0:
45,83,35031,2,0,P|102:70|157:94,1,120,2|8,0:0|0:0,0:0:0:0:
229,156,35515,2,0,P|286:168|341:145,1,120,0|2,0:0|0:0,0:0:0:0:
405,70,35999,1,8,0:0:0:0:
404,69,36160,6,0,P|436:119|433:178,1,120,0|0,0:0|0:0,0:0:0:0:
399,270,36644,1,8,0:0:0:0:
398,269,36805,2,0,P|395:328|427:379,1,120,0|0,0:0|0:0,0:0:0:0:
489,303,37289,2,0,P|495:270|491:243,1,60,8|0,0:0|0:0,0:0:0:0:
433,177,37612,2,0,L|313:171,1,120,2|8,0:0|0:0,0:0:0:0:
256,248,38095,2,0,L|136:254,1,120,0|2,0:0|0:0,0:0:0:0:
84,182,38579,1,8,0:0:0:0:
84,182,38741,6,0,P|60:127|72:69,1,120,0|0,0:0|0:0,0:0:0:0:
156,116,39225,1,8,0:0:0:0:
156,116,39386,2,0,P|189:118|215:111,1,60,0|0,0:0|0:0,0:0:0:0:
286,46,39708,2,0,P|319:43|345:50,1,60,2|8,0:0|0:0,0:0:0:0:
416,116,40031,2,0,L|410:236,1,120,0|2,0:0|0:0,0:0:0:0:
328,287,40515,1,8,0:0:0:0:
328,287,40676,2,0,L|208:281,1,120,0|2,0:0|0:0,0:0:0:0:
126,332,41160,1,8,0:0:0:0:
126,332,41321,6,0,P|112:274|134:219,1,120,0|2,0:0|0:0,0:0:0:0:
225,186,41805,2,0,P|246:131|233:73,1,120,8|0,0:0|0:0,0:0:0:0:
159,11,42289,1,2,0:0:0:0:
159,11,42450,1,8,0:0:0:0:
327,88,42773,2,0,L|447:94,1,120,0|8,0:0|0:0,0:0:0:0:
479,183,43257,1,2,0:0:0:0:
479,183,43418,2,0,L|476:243,1,60,2|8,0:0|0:0,0:0:0:0:
302,344,43902,6,0,P|215:323|124:332,1,180,6|0,0:0|0:0,0:0:0:0:
93,242,44547,1,2,0:0:0:0:
93,242,44708,2,0,L|96:182,1,60,8|0,0:0|0:0,0:0:0:0:
63,92,45031,2,0,P|94:86|135:95,1,60,2|2,0:0|0:0,0:0:0:0:
189,159,45354,2,0,P|247:171|301:148,1,120,0|0,0:0|0:0,0:0:0:0:
371,79,45837,1,2,0:0:0:0:
371,79,45999,2,0,L|431:82,2,60,8|0|0,0:0|0:0|0:0,0:0:0:0:
301,147,46483,2,0,P|289:205|312:259,1,120,2|0,0:0|0:0,0:0:0:0:
360,345,46966,6,0,L|240:339,1,120,0|8,0:0|0:0,0:0:0:0:
63,225,47612,2,0,L|60:165,1,60,0|2,0:0|0:0,0:0:0:0:
34,73,47934,2,0,P|63:69|92:75,1,60,0|2,0:0|0:0,0:0:0:0:
154,148,48257,1,8,0:0:0:0:
154,148,48418,2,0,P|212:160|266:137,1,120,2|2,0:0|0:0,0:0:0:0:
327,63,48902,1,8,0:0:0:0:
327,63,49063,6,0,L|447:69,1,120,4|0,0:0|0:0,0:0:0:0:
472,162,49547,2,0,L|466:282,1,120,2|2,0:0|0:0,0:0:0:0:
295,370,50192,2,0,P|237:356|176:362,1,120,2|2,0:0|0:0,0:0:0:0:
89,190,50837,1,2,0:0:0:0:
89,190,50999,2,0,P|102:132|96:71,1,120,0|0,0:0|0:0,0:0:0:0:
185,39,51483,2,0,P|218:45|245:41,1,60,2|0,0:0|0:0,0:0:0:0:
315,101,51805,6,0,L|375:104,1,60,2|2,0:0|0:0,0:0:0:0:
445,163,52128,2,0,L|505:166,1,60,2|2,0:0|0:0,0:0:0:0:
486,255,52450,2,0,B|485:254|471:254|426:252|426:252|373:280|373:280|312:278,1,180,2|2,0:0|0:0,0:0:0:0:
182,134,53257,2,0,P|185:163|179:192,1,60,0|0,0:0|0:0,0:0:0:0:
59,357,53741,2,0,P|55:327|61:298,1,60,0|0,0:0|0:0,0:0:0:0:
182,134,54225,6,0,P|241:128|299:141,1,120,12|2,0:0|0:0,0:0:0:0:
370,201,54708,2,0,L|430:204,1,60,8|0,0:0|0:0,0:0:0:0:
499,143,55031,2,0,L|502:83,2,60,2|2|8,0:0|0:0|0:0,0:0:0:0:
430,204,55515,6,0,P|416:262|422:321,1,120,2|2,0:0|0:0,0:0:0:0:
353,382,55999,2,0,L|293:379,1,60,8|2,0:0|0:0,0:0:0:0:
223,318,56321,1,2,0:0:0:0:
223,318,56483,2,0,L|163:321,1,60,2|8,0:0|0:0,0:0:0:0:
93,259,56805,6,0,P|107:200|100:141,1,120,2|2,0:0|0:0,0:0:0:0:
76,48,57289,2,0,P|105:45|134:51,1,60,8|0,0:0|0:0,0:0:0:0:
192,124,57612,2,0,P|221:130|251:126,2,60,2|2|8,0:0|0:0|0:0,0:0:0:0:
228,35,58095,6,0,P|290:40|336:82,1,120,4|4,0:0|0:0,0:0:0:0:
267,237,58741,2,0,P|241:185|251:126,1,120,4|4,0:0|0:0,0:0:0:0:
426,102,59386,2,0,P|390:153|331:172,1,120,4|0,0:0|0:0,0:0:0:0:
251,126,59870,5,8,0:0:0:0:
201,307,60192,2,0,L|198:367,1,60,2|2,0:0|0:0,0:0:0:0:
106,342,60515,2,0,L|109:282,1,60,8|0,0:0|0:0,0:0:0:0:
83,191,60837,6,0,P|76:131|90:73,1,120,0|8,0:0|0:0,0:0:0:0:
157,7,61321,2,0,P|216:1|274:14,1,120,0|2,0:0|0:0,0:0:0:0:
341,81,61805,2,0,P|340:106|334:135,1,60,8|2,0:0|0:0,0:0:0:0:
266,203,62128,6,0,L|263:263,1,60,2|2,0:0|0:0,0:0:0:0:
351,288,62450,2,0,L|354:228,1,60,2|2,0:0|0:0,0:0:0:0:
441,254,62773,2,0,L|438:314,2,60,2|2|2,0:0|0:0|0:0,0:0:0:0:
419,164,63257,6,0,L|422:104,1,60,4|0,0:0|0:0,0:0:0:0:
399,14,63579,2,0,P|430:10|467:20,2,60,2|8|0,0:0|0:0|0:0,0:0:0:0:
332,78,64063,2,0,P|301:82|264:72,1,60,2|8,0:0|0:0,0:0:0:0:
206,12,64386,1,0,0:0:0:0:
206,12,64547,6,0,L|86:18,1,120,4|2,0:0|0:0,0:0:0:0:
19,82,65031,2,0,P|13:111|17:140,1,60,8|0,0:0|0:0,0:0:0:0:
105,175,65354,2,0,P|110:145|106:116,2,60,2|2|8,0:0|0:0|0:0,0:0:0:0:
64,261,65837,6,0,L|184:255,1,120,2|2,0:0|0:0,0:0:0:0:
271,289,66321,2,0,P|276:259|272:230,1,60,8|0,0:0|0:0,0:0:0:0:
205,166,66644,1,2,0:0:0:0:
205,166,66805,2,0,P|200:136|205:106,1,60,2|8,0:0|0:0,0:0:0:0:
270,35,67128,6,0,L|390:41,1,120,6|2,0:0|0:0,0:0:0:0:
454,112,67612,2,0,P|458:141|453:171,1,60,8|0,0:0|0:0,0:0:0:0:
382,235,67934,1,2,0:0:0:0:
382,235,68095,2,0,P|377:264|381:294,1,60,2|8,0:0|0:0,0:0:0:0:
317,365,68418,6,0,L|197:359,1,120,4|4,0:0|0:0,0:0:0:0:
233,168,69063,2,0,L|287:274,1,120,4|4,0:0|0:0,0:0:0:0:
105,340,69708,2,0,L|170:239,1,120,4|0,0:0|0:0,0:0:0:0:
233,168,70192,6,0,P|238:138|234:108,1,60,0|2,0:0|0:0,0:0:0:0:
163,44,70515,1,8,0:0:0:0:
326,126,70837,2,0,P|384:136|444:128,1,120,0|0,0:0|0:0,0:0:0:0:
455,310,71483,6,0,P|426:305|396:309,1,60,0|2,0:0|0:0,0:0:0:0:
331,380,71805,1,8,0:0:0:0:
331,380,71966,2,0,P|301:383|271:378,1,60,0|0,0:0|0:0,0:0:0:0:
207,310,72289,1,6,0:0:0:0:
207,310,72450,6,0,L|147:307,1,60,2|2,0:0|0:0,0:0:0:0:
83,239,72773,1,2,0:0:0:0:
83,239,72934,1,2,0:0:0:0:
173,217,73095,1,2,0:0:0:0:
173,217,73257,2,0,L|233:220,1,60,2|0,0:0|0:0,0:0:0:0:
297,288,73579,1,2,0:0:0:0:
417,150,73902,6,0,P|412:120|417:90,2,60,8|8|2,0:0|0:0|0:0,0:0:0:0:
488,215,74386,2,0,P|491:245|486:275,2,60,8|0|2,0:0|0:0|0:0,0:0:0:0:
417,150,74870,6,0,P|362:126|304:138,1,120,4|2,0:0|0:0,0:0:0:0:
233,73,75354,2,0,P|178:96|120:84,1,120,8|2,0:0|0:0,0:0:0:0:
55,155,75837,1,2,0:0:0:0:
55,155,75999,1,8,0:0:0:0:
55,155,76160,6,0,L|49:275,1,120,4|2,0:0|0:0,0:0:0:0:
120,339,76644,2,0,L|240:345,1,120,8|2,0:0|0:0,0:0:0:0:
304,273,77128,1,2,0:0:0:0:
304,273,77289,1,8,0:0:0:0:
304,273,77450,6,0,P|291:215|315:160,1,120,4|2,0:0|0:0,0:0:0:0:
403,114,77934,1,8,0:0:0:0:
403,114,78095,2,0,P|414:172|391:226,1,120,0|2,0:0|0:0,0:0:0:0:
304,273,78579,1,8,0:0:0:0:
304,273,78741,6,0,L|184:267,1,120,4|2,0:0|0:0,0:0:0:0:
137,181,79225,1,8,0:0:0:0:
137,181,79386,2,0,L|143:61,1,120,0|2,0:0|0:0,0:0:0:0:
229,14,79870,1,8,0:0:0:0:
229,14,80031,6,0,L|349:20,1,120,4|0,0:0|0:0,0:0:0:0:
353,208,80676,1,2,0:0:0:0:
353,208,80837,2,0,P|348:237|353:266,1,60,8|0,0:0|0:0,0:0:0:0:
427,313,81160,2,0,P|430:342|425:372,1,60,0|2,0:0|0:0,0:0:0:0:
261,314,81644,2,0,P|257:343|262:373,2,60,0|0|2,0:0|0:0|0:0,0:0:0:0:
285,224,82128,2,0,L|165:218,1,120,8|0,0:0|0:0,0:0:0:0:
82,266,82612,1,2,0:0:0:0:
82,266,82773,6,0,P|71:237|69:208,1,60,2|2,0:0|0:0,0:0:0:0:
125,130,83095,2,0,P|154:122|184:123,1,60,2|2,0:0|0:0,0:0:0:0:
274,91,83418,2,0,P|270:61|274:32,2,60,2|2|2,0:0|0:0|0:0,0:0:0:0:
305,182,83902,2,0,P|363:171|417:194,1,120,6|0,0:0|0:0,0:0:0:0:
409,290,84386,2,0,P|351:301|297:278,1,120,8|2,0:0|0:0,0:0:0:0:
218,221,84870,1,2,0:0:0:0:
218,221,85031,1,0,0:0:0:0:
218,221,85192,6,0,B|217:220|208:220|178:219|178:219|142:237|142:237|102:236,1,120,4|2,0:0|0:0,0:0:0:0:
24,179,85676,2,0,L|27:119,1,60,8|0,0:0|0:0,0:0:0:0:
83,41,85999,1,2,0:0:0:0:
83,41,86160,1,2,0:0:0:0:
274,142,86483,2,0,B|314:143|314:143|349:124|349:124|379:126|389:126|389:126,1,120,4|2,0:0|0:0,0:0:0:0:
468,184,86966,2,0,L|465:244,1,60,8|2,0:0|0:0,0:0:0:0:
409,322,87289,1,8,0:0:0:0:
409,322,87450,2,0,L|349:319,1,60,2|2,0:0|0:0,0:0:0:0:
270,263,87773,6,0,B|216:241|216:241|205:186|205:186|166:229|166:229|110:223|110:223|138:271|138:271|117:322|117:322|169:311|169:311|213:349|213:349|219:293|219:293|247:277,1,540,4|0,0:0|0:0,0:0:0:0:
