osu file format v14

[General]
AudioFilename: audio.mp3
AudioLeadIn: 0
PreviewTime: 54144
Countdown: 0
SampleSet: Normal
StackLeniency: 0.7
Mode: 0
LetterboxInBreaks: 0
WidescreenStoryboard: 0

[Editor]
DistanceSpacing: 1.2
BeatDivisor: 4
GridSize: 4
TimelineZoom: 1.9

[Metadata]
Title:ONLY YOUR STARS!
TitleUnicode:ONLY YOUR STARS!
Artist:Morikubo Syoutarou, Kakihara Tetsuya
ArtistUnicode:森久保祥太郎、柿原徹也
Creator:Ryuusei Aika
Version:1112's Insane
Source:あんさんぶるスターズ!
Tags:あんスタ Ensemble Stars op opening theme 明星スバル Akehoshi Subaru 遊木真 Yuuki Makoto 松井洋平 Matsui Youhei Dir 中士智博 Tomohiro Nakatsuchi Sandrew kanor Amamiya Kanade Zhongren Suzuki_1112 1112deng
BeatmapID:1440984
BeatmapSetID:675185

[Difficulty]
HPDrainRate:6
CircleSize:4
OverallDifficulty:8
ApproachRate:9
SliderMultiplier:1.6
SliderTickRate:1

[Events]
//Background and Video events
0,0,"BGIN.jpg",0,0
Video,100,"OP1.avi"
//Break Periods
//Storyboard Layer 0 (Background)
//Storyboard Layer 1 (Fail)
//Storyboard Layer 2 (Pass)
//Storyboard Layer 3 (Foreground)
//Storyboard Sound Samples

[TimingPoints]
346,333.333333333333,4,1,1,20,1,0
679,-100,4,1,1,30,0,0
1012,-100,4,1,1,40,0,0
1308,323.450134770889,4,1,2,50,1,0
1550,-100,4,1,1,50,0,0
5189,-100,4,1,1,60,0,0
5512,-100,4,1,1,50,0,0
5836,-100,4,1,1,40,0,0
6159,-100,4,1,1,50,0,0
6483,-100,4,1,1,60,0,0
6644,323.450134770889,4,1,1,50,1,0
6968,-100,4,1,1,50,0,0
9151,-100,4,1,2,50,0,0
9394,-100,4,1,1,50,0,0
9555,-100,4,1,2,50,0,0
9717,-100,4,1,1,50,0,0
9879,-100,4,1,2,50,0,0
10041,-100,4,1,1,50,0,0
10363,-133.333333333333,4,1,1,50,0,0
10444,-133.333333333333,4,1,1,5,0,0
12290,322.58064516129,4,1,1,50,1,0
12290,-100,4,1,1,50,0,0
12935,-83.3333333333333,4,1,2,70,0,0
13015,-83.3333333333333,4,1,1,70,0,0
13096,322.58064516129,4,1,1,70,1,0
13096,-83.3333333333333,4,1,1,70,0,0
18095,-133.333333333333,4,1,1,60,0,0
20676,-100,4,1,1,70,0,0
21160,-83.3333333333333,4,1,2,70,0,0
21966,-66.6666666666667,4,1,2,70,0,0
22128,-66.6666666666667,4,1,2,5,0,0
22289,-100,4,1,1,40,0,0
23257,-100,4,1,1,50,0,0
32289,-133.333333333333,4,1,1,50,0,0
32531,-100,4,1,1,5,0,0
32612,-100,4,1,1,5,0,0
32854,-100,4,1,1,5,0,0
32934,-100,4,1,1,40,0,0
33176,-100,4,1,1,5,0,0
33257,-100,4,1,1,35,0,0
33499,-100,4,1,1,5,0,0
33579,-83.3333333333333,4,1,1,55,0,0
43579,-100,4,1,2,55,0,0
43902,-100,4,1,1,60,0,0
49063,-133.333333333333,4,1,1,60,0,0
49547,-133.333333333333,4,1,1,50,0,0
51805,-100,4,1,1,52,0,0
51966,-100,4,1,1,54,0,0
52128,-100,4,1,1,56,0,0
52289,-100,4,1,1,58,0,0
52450,-100,4,1,2,60,0,0
52531,-100,4,1,2,62,0,0
52612,-100,4,1,2,64,0,0
52692,-100,4,1,2,66,0,0
52773,-100,4,1,2,68,0,0
52854,-100,4,1,2,70,0,0
52934,-100,4,1,2,72,0,0
53257,-100,4,1,1,50,0,0
53741,-133.333333333333,4,1,1,50,0,0
54225,-76.9230769230769,4,1,3,80,0,1
54305,-76.9230769230769,4,1,1,80,0,1
62128,-76.9230769230769,4,1,2,90,0,1
62289,-76.9230769230769,4,1,1,80,0,1
62450,-76.9230769230769,4,1,2,90,0,1
62612,-76.9230769230769,4,1,1,80,0,1
62773,-76.9230769230769,4,1,2,90,0,1
62934,-76.9230769230769,4,1,1,80,0,1
63095,-76.9230769230769,4,1,2,80,0,1
63257,-76.9230769230769,4,1,1,95,0,1
63579,-76.9230769230769,4,1,1,75,0,1
64547,-76.9230769230769,4,1,2,80,0,1
64628,-76.9230769230769,4,1,1,80,0,1
72450,-76.9230769230769,4,1,2,90,0,1
72612,-76.9230769230769,4,1,1,80,0,1
72773,-76.9230769230769,4,1,2,87,0,1
72934,-76.9230769230769,4,1,1,77,0,1
73095,-76.9230769230769,4,1,2,84,0,1
73257,-76.9230769230769,4,1,1,74,0,1
73579,-76.9230769230769,4,1,2,100,0,1
73902,-76.9230769230769,4,1,1,65,0,1
74870,-76.9230769230769,4,1,2,75,0,1
74950,-76.9230769230769,4,1,1,75,0,1
80031,-100,4,1,1,75,0,0
82773,-100,4,1,2,90,0,0
82934,-100,4,1,1,75,0,0
83095,-100,4,1,2,90,0,0
83257,-100,4,1,1,75,0,0
83418,-100,4,1,2,90,0,0
83579,-100,4,1,1,75,0,0
83902,-100,4,1,2,100,0,0
84225,-100,4,1,1,70,0,0
85192,-100,4,1,1,80,0,0
87773,-133.333333333333,4,1,1,100,0,0
87854,-133.333333333333,4,1,1,10,0,0

[Colours]
Combo1 : 3,42,160
Combo2 : 253,223,184
Combo3 : 85,115,234
Combo4 : 91,196,185

[HitObjects]
52,57,346,5,0,0:0:0:0:
56,184,679,2,0,L|152:175,1,80
207,284,1012,2,0,P|161:258|93:271,1,120,0|0,0:0|2:0,0:0:0:0:
97,268,1308,5,0,0:0:0:0:
383,356,2440,1,0,0:0:0:0:
367,264,2601,5,4,0:0:0:0:
246,33,3733,1,0,0:0:0:0:
226,126,3895,5,4,0:0:0:0:
188,311,4865,1,0,0:0:0:0:
177,217,5027,1,0,0:0:0:0:
36,270,5189,6,0,P|77:281|123:264,1,80,4|0,0:0|0:0,0:0:0:0:
221,155,5512,2,0,P|188:182|176:229,1,80,4|0,0:0|0:0,0:0:0:0:
213,384,5836,2,0,P|209:341|177:304,1,80,4|0,0:0|0:0,0:0:0:0:
101,77,6159,2,0,L|79:223,1,120,4|0,0:0|2:0,0:0:0:0:
83,195,6483,5,4,0:0:0:0:
221,155,6805,1,0,0:0:0:0:
300,207,6967,2,0,P|315:161|309:120,1,80,2|0,0:0|0:0,0:0:0:0:
217,246,7290,2,0,L|226:342,1,80,2|0,0:0|0:0,0:0:0:0:
359,263,7614,2,0,P|399:231|412:191,1,80,2|0,0:0|0:0,0:0:0:0:
444,62,7937,6,0,L|339:79,1,80,2|0,0:0|0:0,0:0:0:0:
272,55,8261,1,2,0:0:0:0:
228,148,8422,1,0,0:0:0:0:
359,263,8584,2,0,P|376:209|367:170,1,80,2|0,0:0|0:0,0:0:0:0:
228,148,8908,1,2,0:0:0:0:
0,268,9069,6,0,B|56:261|56:261|99:278|99:278|173:268,1,160,4|2,0:0|0:0,0:0:0:0:
241,370,9555,2,0,P|249:325|238:281,1,80,2|2,0:0|0:0,0:0:0:0:
112,152,9878,2,0,P|108:127|96:88,1,40,2|0,0:0|0:0,0:0:0:0:
193,193,10040,1,2,0:0:0:0:
251,83,10201,2,0,P|256:57|267:25,1,40
320,156,10363,6,0,B|236:146|210:64|287:-23|371:40|371:40|451:-39|562:75|544:204|357:121|400:283,1,660.000025177003,8|0,0:0|0:0,0:0:0:0:
356,340,12290,5,2,0:0:0:0:
225,384,12451,2,0,P|215:333|228:299,2,80,0|2|0,0:0|0:0|0:0,0:0:0:0:
345,196,12935,6,0,B|317:237|277:241|277:241|233:212|164:235,1,191.999994140625,4|2,0:0|0:0,0:0:0:0:
54,267,13418,2,0,P|80:210|73:158,1,95.9999970703126,8|0,0:0|0:0,0:0:0:0:
66,44,13741,1,2,0:0:0:0:
66,44,13902,1,2,0:0:0:0:
164,87,14063,1,8,0:0:0:0:
0,145,14225,6,0,B|26:99|26:99|175:87,1,191.999994140625,4|0,0:0|0:0,0:0:0:0:
271,138,14708,2,0,L|267:240,1,95.9999970703126,8|0,0:0|0:0,0:0:0:0:
266,330,15031,5,2,0:0:0:0:
196,278,15192,1,2,0:0:0:0:
378,304,15354,1,8,0:0:0:0:
196,278,15515,6,0,B|122:286|122:286|96:310|96:310|-5:320,1,191.999994140625,4|2,0:0|0:0,0:0:0:0:
28,120,15999,2,0,P|21:168|35:222,1,95.9999970703126,8|0,0:0|0:0,0:0:0:0:
164,150,16321,1,0,0:0:0:0:
108,80,16483,1,2,0:0:0:0:
28,120,16644,1,8,0:0:0:0:
164,150,16805,6,0,B|239:143|239:143|272:107|272:107|377:97,1,191.999994140625,4|2,0:0|0:0,0:0:0:0:
424,133,17289,1,8,0:0:0:0:
476,255,17450,6,0,B|401:248|401:248|368:212|368:212|263:202,1,191.999994140625,4|2,0:0|0:0,0:0:0:0:
222,259,17934,1,8,0:0:0:0:
297,318,18095,6,0,P|315:274|293:195,1,120.000004577637,4|0,0:0|0:0,0:0:0:0:
223,168,18579,1,2,0:0:0:0:
90,215,18741,2,0,L|163:208,2,60.0000022888184,2|2|0,0:0|0:0|0:0,0:0:0:0:
222,259,19225,1,0,0:0:0:0:
35,270,19386,6,0,P|13:218|50:149,1,120.000004577637,2|2,0:0|0:0,0:0:0:0:
131,83,19870,1,2,0:0:0:0:
223,168,20031,1,2,0:0:0:0:
154,71,20192,2,0,L|76:61,1,60.0000022888184,8|0,0:0|0:0,0:0:0:0:
34,161,20515,1,0,0:0:0:0:
234,85,20676,6,0,B|303:79|303:79|337:95|337:95|420:84,1,160,4|0,0:0|0:0,0:0:0:0:
389,180,21160,2,0,P|380:114|406:63,1,95.9999970703126,2|0,0:0|0:0,0:0:0:0:
495,204,21483,2,0,L|487:311,1,95.9999970703126,2|0,0:0|0:0,0:0:0:0:
409,343,21805,1,0,0:0:0:0:
194,198,21966,6,0,B|245:190|245:190|258:176|258:176|335:166,1,120.000004577637,8|0,0:0|0:0,0:0:0:0:
307,170,22612,1,2,0:0:0:0:
317,153,22692,1,2,0:0:0:0:
329,134,22773,2,0,L|320:42,1,80,2|2,0:0|0:0,0:0:0:0:
322,55,23257,6,0,L|139:69,1,160,6|0,0:0|0:0,0:0:0:0:
77,33,23741,2,0,P|72:89|91:124,1,80,2|0,0:0|0:0,0:0:0:0:
153,181,24063,1,2,0:0:0:0:
153,181,24225,1,0,0:0:0:0:
85,231,24386,2,0,L|3:225,1,80,2|0,0:0|0:0,0:0:0:0:
118,313,24708,6,0,L|201:306,2,80,2|0|2,0:0|0:0|0:0,0:0:0:0:
48,365,25192,1,0,0:0:0:0:
256,366,25354,2,0,P|277:322|269:271,1,80,2|0,0:0|0:0,0:0:0:0:
206,215,25676,1,2,0:0:0:0:
276,291,25837,6,0,B|337:283|337:283|368:256|368:256|450:245,1,160,0|0,0:0|0:0,0:0:0:0:
483,165,26321,2,0,P|425:145|385:155,1,80,2|0,0:0|0:0,0:0:0:0:
302,170,26644,2,0,L|310:69,1,80,2|0,0:0|0:0,0:0:0:0:
238,19,26966,1,2,0:0:0:0:
238,19,27128,1,0,0:0:0:0:
204,163,27289,6,0,P|214:220|228:240,2,80,2|0|2,0:0|0:0|0:0,0:0:0:0:
177,86,27773,1,0,0:0:0:0:
48,152,27934,2,0,L|135:149,1,80,2|0,0:0|0:0,0:0:0:0:
177,86,28257,1,2,0:0:0:0:
48,152,28418,6,0,B|41:204|41:204|51:246|51:246|36:338,1,160
107,370,28902,2,0,L|191:363,1,80,2|0,0:0|0:0,0:0:0:0:
266,307,29225,1,2,0:0:0:0:
266,307,29386,1,0,0:0:0:0:
186,363,29547,1,2,0:0:0:0:
217,230,29708,6,0,P|265:284|362:256,1,160,0|0,0:0|0:0,0:0:0:0:
413,202,30192,2,0,P|421:147|407:101,1,80,2|0,0:0|0:0,0:0:0:0:
345,43,30515,2,0,P|337:98|351:144,2,80,2|0|2,0:0|0:0|0:0,0:0:0:0:
417,124,30999,1,0,0:0:0:0:
286,191,31160,6,0,P|262:154|263:100,1,80,2|0,0:0|0:0,0:0:0:0:
174,31,31483,2,0,L|176:123,1,80,2|0,0:0|0:0,0:0:0:0:
131,181,31805,1,2,0:0:0:0:
131,181,31966,1,0,0:0:0:0:
142,279,32128,1,8,0:0:0:0:
92,349,32289,6,0,P|64:280|149:297,1,180.000006866455,2|0,0:0|0:0,0:0:0:0:
391,352,33579,6,0,B|383:290|383:290|397:233|397:233|382:136,1,191.999994140625,4|0,0:0|0:0,0:0:0:0:
312,80,34063,1,8,0:0:0:0:
312,80,34225,1,0,0:0:0:0:
209,155,34386,2,0,P|278:167|313:154,2,95.9999970703126,0|2|8,0:0|0:0|0:0,0:0:0:0:
153,93,34870,1,0,0:0:0:0:
54,189,35031,6,0,P|93:138|214:162,1,191.999994140625,2|8,0:0|0:0,0:0:0:0:
225,243,35515,2,0,P|186:294|65:270,1,191.999994140625,0|2,0:0|0:0,0:0:0:0:
54,189,35999,1,8,0:0:0:0:
225,243,36160,6,0,B|298:239|298:239|336:261|336:261|421:256,1,191.999994140625,0|0,0:0|0:0,0:0:0:0:
486,175,36644,2,0,P|489:121|473:75,1,95.9999970703126,8|0,0:0|0:0,0:0:0:0:
399,53,36966,1,0,0:0:0:0:
399,53,37128,1,2,0:0:0:0:
271,122,37289,2,0,P|321:132|375:121,1,95.9999970703126,8|0,0:0|0:0,0:0:0:0:
203,62,37612,6,0,B|139:71|139:71|108:111|108:111|11:129,1,191.999994140625,2|8,0:0|0:0,0:0:0:0:
20,46,38095,1,0,0:0:0:0:
44,202,38257,2,0,P|49:259|36:304,2,95.9999970703126,0|2|8,0:0|0:0|0:0,0:0:0:0:
144,172,38741,6,0,P|157:256|99:352,1,191.999994140625,0|2,0:0|0:0,0:0:0:0:
44,202,39225,1,8,0:0:0:0:
144,172,39386,2,0,L|265:180,1,95.9999970703126,0|0,0:0|0:0,0:0:0:0:
389,91,39708,1,2,0:0:0:0:
289,61,39870,1,8,0:0:0:0:
317,156,40031,6,0,B|354:215|354:215|323:356,1,191.999994140625,0|2,0:0|0:0,0:0:0:0:
217,373,40515,2,0,L|214:267,1,95.9999970703126,8|0,0:0|0:0,0:0:0:0:
239,178,40837,1,0,0:0:0:0:
239,178,40999,1,2,0:0:0:0:
96,227,41160,1,8,0:0:0:0:
101,58,41321,6,0,P|63:116|105:234,1,191.999994140625,0|2,0:0|0:0,0:0:0:0:
239,178,41805,2,0,L|230:78,1,95.9999970703126,8|0,0:0|0:0,0:0:0:0:
307,32,42128,1,0,0:0:0:0:
337,178,42289,2,0,L|324:297,1,95.9999970703126,2|8,0:0|0:0,0:0:0:0:
258,317,42612,1,0,0:0:0:0:
349,367,42773,6,0,B|339:297|339:297|349:260|349:260|334:159,1,191.999994140625,0|8,0:0|0:0,0:0:0:0:
307,32,43257,1,2,0:0:0:0:
321,50,43337,1,2,0:0:0:0:
334,64,43418,2,0,L|211:57,1,95.9999970703126,2|8,0:0|0:0,0:0:0:0:
157,16,43741,1,0,0:0:0:0:
88,59,43902,6,0,P|150:35|245:63,1,160,6|0,0:0|0:0,0:0:0:0:
271,135,44386,2,0,L|265:232,1,80,0|2,0:0|0:0,0:0:0:0:
206,290,44708,2,0,B|175:251|175:251|189:105,1,160,8|2,0:0|0:0,0:0:0:0:
185,141,45192,1,2,0:0:0:0:
0,200,45354,6,0,B|52:204|52:204|79:219|79:219|108:208|108:208|169:216,2,160,0|0|8,0:0|0:0|0:0,0:0:0:0:
32,120,46160,1,0,0:0:0:0:
32,120,46321,1,0,0:0:0:0:
150,58,46483,6,0,B|179:148|115:116|158:225,1,160,2|0,0:0|0:0,0:0:0:0:
219,273,46966,2,0,L|304:263,1,80,0|2,0:0|0:0,0:0:0:0:
374,307,47289,2,0,P|339:239|384:160,1,160,8|0,0:0|0:0,0:0:0:0:
444,119,47773,5,2,0:0:0:0:
361,79,47934,2,0,L|196:92,1,160,0|8,0:0|0:0,0:0:0:0:
141,35,48418,1,2,0:0:0:0:
89,141,48579,2,0,L|95:236,1,80,0|2,0:0|0:0,0:0:0:0:
169,298,48902,1,8,0:0:0:0:
32,340,49063,6,0,B|137:330|95:396|211:379,1,180.000006866455,4|2,0:0|0:0,0:0:0:0:
324,343,49870,2,0,L|324:268,1,60.0000022888184,2|0,0:0|0:0,0:0:0:0:
391,244,50192,2,0,P|397:196|384:168,1,60.0000022888184,2|0,0:0|0:0,0:0:0:0:
303,27,50515,6,0,L|301:149,1,120.000004577637,2|2,0:0|0:0,0:0:0:0:
217,194,50999,1,0,0:0:0:0:
116,146,51160,2,0,P|160:119|178:118,2,60.0000022888184,2|0|2,0:0|0:0|0:0,0:0:0:0:
61,252,51644,1,0,0:0:0:0:
68,244,51725,1,0,0:0:0:0:
75,236,51805,5,2,0:0:0:0:
66,331,51966,1,2,0:0:0:0:
181,384,52128,5,2,0:0:0:0:
217,194,52289,1,2,0:0:0:0:
116,146,52450,5,2,0:0:0:0:
297,268,52612,1,2,0:0:0:0:
322,228,52692,1,2,0:0:0:0:
319,185,52773,1,2,0:0:0:0:
217,77,52934,6,0,B|222:130|222:130|212:148|212:148|219:222,1,120,2|0,0:0|0:0,0:0:0:0:
219,304,53257,5,0,0:0:0:0:
246,292,53418,5,0,0:0:0:0:
272,281,53579,5,2,0:0:0:0:
297,268,53741,6,0,L|292:344,1,60.0000022888184,0|2,0:0|0:0,0:0:0:0:
487,135,54225,6,0,B|417:129|417:129|368:166|368:166|267:157,1,207.999990478516,12|2,0:0|0:0,0:0:0:0:
181,127,54708,1,8,0:0:0:0:
251,51,54870,1,0,0:0:0:0:
219,224,55031,1,2,0:0:0:0:
219,224,55192,1,2,0:0:0:0:
181,127,55354,1,8,0:0:0:0:
180,338,55515,6,0,B|306:353|246:273|413:297,1,207.999990478516,2|2,0:0|0:0,0:0:0:0:
484,350,55999,2,0,L|489:236,1,103.999995239258,8|2,0:0|0:0,0:0:0:0:
416,119,56321,2,0,P|406:199|433:244,2,103.999995239258,2|2|8,0:0|0:0|0:0,0:0:0:0:
304,25,56805,6,0,B|318:107|318:107|304:158|304:158|320:273,1,207.999990478516,2|2,0:0|0:0,0:0:0:0:
180,338,57289,2,0,P|168:264|188:222,1,103.999995239258,8|0,0:0|0:0,0:0:0:0:
192,116,57612,5,2,0:0:0:0:
248,258,57773,1,2,0:0:0:0:
89,236,57934,1,8,0:0:0:0:
207,100,58095,6,0,L|326:89,1,103.999995239258,4|0,0:0|0:0,0:0:0:0:
103,250,58418,2,0,L|0:240,1,103.999995239258,4|0,0:0|0:0,0:0:0:0:
231,118,58741,6,0,L|350:107,1,103.999995239258,4|0,0:0|0:0,0:0:0:0:
127,268,59063,2,0,L|23:258,1,103.999995239258,4|0,0:0|0:0,0:0:0:0:
231,118,59386,6,0,B|261:218|261:218|224:324,1,207.999990478516,4|0,0:0|0:0,0:0:0:0:
28,361,59870,2,0,L|21:227,1,103.999995239258,8|0,0:0|0:0,0:0:0:0:
94,218,60112,1,0,0:0:0:0:
94,218,60192,2,0,P|103:167|93:117,2,103.999995239258,2|2|8,0:0|0:0|0:0,0:0:0:0:
19,61,60676,1,0,0:0:0:0:
185,34,60837,6,0,L|182:171,1,103.999995239258,0|2,0:0|0:0,0:0:0:0:
312,225,61160,2,0,L|314:121,1,103.999995239258,8|0,0:0|0:0,0:0:0:0:
210,230,61483,1,2,0:0:0:0:
318,322,61644,1,2,0:0:0:0:
422,221,61805,1,8,0:0:0:0:
210,230,61966,5,2,0:0:0:0:
76,328,62128,2,0,P|41:261|60:193,1,103.999995239258,2|2,0:0|0:0,0:0:0:0:
152,63,62450,2,0,L|143:205,1,103.999995239258,2|2,0:0|0:0,0:0:0:0:
220,364,62773,5,2,0:0:0:0:
265,171,62934,1,2,0:0:0:0:
155,299,63095,1,2,0:0:0:0:
336,232,63257,2,0,P|356:163|313:32,1,207.999990478516,4|2,0:0|0:0,0:0:0:0:
152,63,63741,2,0,L|44:65,1,103.999995239258,8|0,0:0|0:0,0:0:0:0:
48,64,64063,1,2,0:0:0:0:
42,251,64225,1,8,0:0:0:0:
42,251,64386,1,0,0:0:0:0:
97,346,64547,6,0,B|62:254|62:254|109:127,1,207.999990478516,4|2,0:0|0:0,0:0:0:0:
212,35,65031,2,0,L|201:179,1,103.999995239258,8|0,0:0|0:0,0:0:0:0:
286,279,65354,2,0,P|297:216|271:153,2,103.999995239258,2|2|8,0:0|0:0|0:0,0:0:0:0:
157,308,65837,6,0,B|234:297|234:297|287:318|287:318|396:302,1,207.999990478516,2|2,0:0|0:0,0:0:0:0:
439,216,66321,1,8,0:0:0:0:
420,368,66483,1,0,0:0:0:0:
367,182,66644,2,0,P|416:139|467:145,1,103.999995239258,2|2,0:0|0:0,0:0:0:0:
451,139,66966,1,8,0:0:0:0:
310,78,67128,6,0,B|233:65|233:65|180:86|180:86|71:70,1,207.999990478516,6|2,0:0|0:0,0:0:0:0:
17,163,67612,2,0,P|0:107|18:54,1,103.999995239258,8|0,0:0|0:0,0:0:0:0:
107,75,67934,5,2,0:0:0:0:
217,219,68095,1,2,0:0:0:0:
25,246,68257,1,8,0:0:0:0:
233,201,68418,6,0,P|240:269|226:321,1,103.999995239258,4|0,0:0|0:0,0:0:0:0:
183,91,68741,2,0,L|335:80,1,103.999995239258,4|0,0:0|0:0,0:0:0:0:
78,128,69063,2,0,P|71:60|85:8,1,103.999995239258,4|0,0:0|0:0,0:0:0:0:
128,238,69386,2,0,L|-24:249,1,103.999995239258,4|0,0:0|0:0,0:0:0:0:
82,353,69708,6,0,B|184:314|184:314|283:347,1,207.999990478516,4|0,0:0|0:0,0:0:0:0:
277,345,70192,2,0,P|276:273|284:214,1,103.999995239258,0|2,0:0|0:0,0:0:0:0:
198,109,70515,2,0,P|201:160|199:212,2,103.999995239258,8|0|0,0:0|0:0|0:0,0:0:0:0:
146,35,70999,1,2,0:0:0:0:
289,87,71160,6,0,L|428:80,1,103.999995239258,0|2,0:0|0:0,0:0:0:0:
472,232,71483,2,0,L|368:237,1,103.999995239258,0|2,0:0|0:0,0:0:0:0:
319,172,71805,1,8,0:0:0:0:
438,322,71966,2,0,L|334:327,1,103.999995239258,0|0,0:0|0:0,0:0:0:0:
243,286,72289,6,0,B|371:252|317:361|467:314,1,207.999990478516,6|2,0:0|0:0,0:0:0:0:
473,150,72773,1,2,0:0:0:0:
319,172,72934,1,2,0:0:0:0:
473,150,73095,5,2,0:0:0:0:
449,156,73176,1,0,0:0:0:0:
424,159,73257,2,0,L|436:226,1,51.999997619629,2|0,0:0|0:0,0:0:0:0:
437,321,73418,1,0,0:0:0:0:
415,22,73579,6,0,P|461:107|407:235,1,207.999990478516,10|8,0:0|0:0,0:0:0:0:
280,264,74063,1,8,0:0:0:0:
233,162,74225,1,2,0:0:0:0:
424,159,74386,1,8,0:0:0:0:
330,89,74547,1,0,0:0:0:0:
378,262,74708,1,2,0:0:0:0:
197,244,74870,6,0,B|123:237|123:237|77:203|77:203|-26:195,1,207.999990478516,4|2,0:0|0:0,0:0:0:0:
39,303,75354,1,8,0:0:0:0:
154,138,75515,1,0,0:0:0:0:
68,19,75676,2,0,P|51:75|66:129,2,103.999995239258,2|2|8,0:0|0:0|0:0,0:0:0:0:
350,91,76160,6,0,B|276:98|276:98|230:132|230:132|127:140,1,207.999990478516,4|2,0:0|0:0,0:0:0:0:
192,32,76644,1,8,0:0:0:0:
307,197,76805,1,0,0:0:0:0:
221,316,76966,2,0,P|204:260|219:206,2,103.999995239258,2|2|8,0:0|0:0|0:0,0:0:0:0:
394,363,77450,6,0,L|405:148,1,207.999990478516,4|2,0:0|0:0,0:0:0:0:
386,65,77934,2,0,L|521:89,1,103.999995239258,8|0,0:0|0:0,0:0:0:0:
273,128,78257,2,0,P|266:55|279:13,1,103.999995239258,2|2,0:0|0:0,0:0:0:0:
386,65,78579,1,8,0:0:0:0:
298,216,78741,6,0,B|182:228|240:147|90:167,1,207.999990478516,4|2,0:0|0:0,0:0:0:0:
102,304,79225,2,0,L|105:243,1,51.999997619629,8|0,0:0|0:0,0:0:0:0:
154,80,79386,2,0,P|52:80|10:200,1,207.999990478516,0|2,0:0|0:0,0:0:0:0:
19,249,79870,1,8,0:0:0:0:
200,325,80031,6,0,B|246:342|246:342|377:330,1,160,4|0,0:0|0:0,0:0:0:0:
420,267,80515,1,0,0:0:0:0:
342,100,80676,2,0,P|314:175|341:264,1,160,2|0,0:0|0:0,0:0:0:0:
420,267,81160,1,0,0:0:0:0:
481,208,81321,6,0,L|487:47,1,160,2|0,0:0|0:0,0:0:0:0:
396,26,81805,1,0,0:0:0:0:
342,100,81966,1,2,0:0:0:0:
197,48,82128,2,0,P|237:41|296:55,2,80,8|0|0,0:0|0:0|0:0,0:0:0:0:
117,23,82612,1,2,0:0:0:0:
86,232,82773,5,2,0:0:0:0:
117,23,82934,1,2,0:0:0:0:
241,153,83095,5,2,0:0:0:0:
24,164,83257,1,2,0:0:0:0:
191,54,83418,5,2,0:0:0:0:
207,226,83579,1,2,0:0:0:0:
58,72,83741,1,2,0:0:0:0:
241,153,83902,6,0,L|401:149,1,160,6|0,0:0|0:0,0:0:0:0:
470,252,84386,2,0,L|310:256,1,160,8|2,0:0|0:0,0:0:0:0:
269,326,84870,1,2,0:0:0:0:
269,326,85031,1,0,0:0:0:0:
162,251,85192,6,0,P|263:230|329:278,1,160,4|2,0:0|0:0,0:0:0:0:
167,364,85676,2,0,L|87:369,1,80,8|0,0:0|0:0,0:0:0:0:
82,255,85999,2,0,L|162:250,1,80,2|2,0:0|0:0,0:0:0:0:
269,326,86321,1,0,0:0:0:0:
161,250,86483,6,0,B|153:202|153:202|166:151|166:151|152:80,1,160,4|2,0:0|0:0,0:0:0:0:
56,18,86966,1,8,0:0:0:0:
36,143,87128,1,2,0:0:0:0:
154,93,87289,2,0,L|254:105,2,80,8|2|2,0:0|0:0|0:0,0:0:0:0:
309,174,87773,6,0,B|335:129|383:130|425:125|460:52|348:-29|270:79|362:144|362:144|394:166|426:246|356:303,1,480.000018310548,4|0,0:0|0:0,0:0:0:0:
