osu file format v14

[General]
AudioFilename: audio.mp3
AudioLeadIn: 1000
PreviewTime: 13485
Countdown: 0
SampleSet: Soft
StackLeniency: 0.7
Mode: 0
LetterboxInBreaks: 0
WidescreenStoryboard: 0

[Editor]
DistanceSpacing: 0.1
BeatDivisor: 4
GridSize: 32
TimelineZoom: 2.4

[Metadata]
Title:Idolm@ster cgss bgm music studio day
TitleUnicode:Idolm@ster cgss bgm music studio day
Artist:Moriko Hazuno
ArtistUnicode:Moriko Hazuno
Creator:Stone Gaze
Version:Welcome to the cgss
Source:
Tags:
BeatmapID:1605711
BeatmapSetID:763665

[Difficulty]
HPDrainRate:5
CircleSize:4
OverallDifficulty:7.5
ApproachRate:9
SliderMultiplier:1.7
SliderTickRate:2

[Events]
//Background and Video events
0,0,"145943714177f1405f48c64f1c8f5f257f44eeb9d8__mn264846__w1920__h1080__f200216__Ym2.jpg",0,0
//Break Periods
//Storyboard Layer 0 (Background)
//Storyboard Layer 1 (Fail)
//Storyboard Layer 2 (Pass)
//Storyboard Layer 3 (Foreground)
//Storyboard Sound Samples

[TimingPoints]
1380,384.615384615385,4,2,0,55,1,0
56764,-83.3333333333333,4,2,0,55,0,1
75226,-83.3333333333333,4,2,0,55,0,0
75995,-100,4,2,0,55,0,0

[HitObjects]
88,99,33,5,0,0:0:0:0:
117,181,226,1,0,0:0:0:0:
184,99,418,1,0,0:0:0:0:
190,224,610,1,0,0:0:0:0:
276,100,803,1,0,0:0:0:0:
311,250,995,1,0,0:0:0:0:
387,103,1187,1,0,0:0:0:0:
391,303,1380,2,0,P|317:338|226:295,1,170
209,91,1956,6,0,P|208:140|194:180,1,85
46,220,2341,1,0,0:0:0:0:
159,290,2533,2,0,P|201:300|249:288,1,85
344,197,2918,2,0,P|382:268|360:359,1,170
424,176,3495,2,0,P|390:134|361:118,1,85
181,60,3880,2,0,P|223:104|251:116,1,85
388,48,4264,1,0,0:0:0:0:
292,178,4456,2,0,P|304:261|380:318,1,170
367,314,5033,5,0,0:0:0:0:
223,273,5226,2,0,P|165:264|122:273,1,85
43,337,5610,2,0,P|65:290|66:250,1,85
34,135,5995,1,0,0:0:0:0:
191,97,6187,1,0,0:0:0:0:
24,55,6380,1,0,0:0:0:0:
111,190,6572,1,0,0:0:0:0:
188,26,6764,1,0,0:0:0:0:
206,180,6956,2,0,P|243:215|296:233,1,85
407,249,7341,1,0,0:0:0:0:
293,328,7533,6,0,P|208:349|129:330,1,170
115,212,8110,2,0,P|123:160|110:119,1,85
43,48,8495,1,0,0:0:0:0:
197,198,8687,2,0,P|193:244|163:287,1,85
120,152,9072,2,0,P|196:118|276:159,1,170
197,198,9649,2,0,P|190:245|204:293,1,85
324,266,10033,1,0,0:0:0:0:
390,148,10226,2,0,P|397:106|390:64,1,85
259,53,10610,2,0,P|183:86|101:46,1,170
107,53,11187,1,0,0:0:0:0:
188,164,11380,6,0,P|206:206|210:251,1,85
109,350,11764,2,0,P|88:301|87:254,1,85
118,129,12149,1,0,0:0:0:0:
163,280,12341,1,0,0:0:0:0:
44,173,12533,1,0,0:0:0:0:
218,224,12726,2,0,P|238:300|157:363,1,170
238,146,13303,2,0,P|287:184|301:217,1,85
320,325,13687,6,0,P|401:354|484:321,1,170
399,253,14264,1,0,0:0:0:0:
246,220,14456,2,0,L|159:246,1,85
92,344,14841,2,0,L|179:320,1,85
307,281,15226,2,0,P|320:195|252:137,1,170
87,127,15803,2,0,P|71:177|80:237,1,85
172,344,16187,2,0,P|186:295|181:250,1,85
148,186,16572,1,0,0:0:0:0:
257,336,16764,2,0,P|346:358|435:328,1,170
486,242,17341,5,0,0:0:0:0:
485,130,17533,2,0,L|485:32,1,85
383,103,17918,2,0,L|383:188,1,85
335,298,18303,2,0,P|254:326|162:291,1,170
222,101,18880,2,0,P|229:149|213:201,1,85
137,250,19264,1,0,0:0:0:0:
74,92,19456,1,0,0:0:0:0:
57,285,19649,5,0,0:0:0:0:
61,292,19745,1,0,0:0:0:0:
65,298,19841,2,0,P|144:328|222:280,1,170
279,135,20418,1,0,0:0:0:0:
297,288,20610,2,0,P|275:334|230:371,1,85
158,249,20995,2,0,P|146:198|149:150,1,85
169,34,21380,2,0,P|143:75|26:94,1,170
223,206,21956,2,0,P|233:253|216:306,1,85
70,186,22341,2,0,P|61:139|82:83,1,85
174,27,22726,1,0,0:0:0:0:
269,110,22918,2,0,P|347:137|432:105,1,170
468,211,23495,6,0,P|477:266|471:310,1,85
336,353,23880,2,0,P|322:295|326:262,1,85
388,157,24264,1,0,0:0:0:0:
237,159,24456,2,0,P|204:237|237:322,1,170
148,157,25033,2,0,P|95:131|63:129,1,85
87,288,25418,1,0,0:0:0:0:
91,295,25514,1,0,0:0:0:0:
95,302,25610,2,0,P|149:313|193:304,1,85
288,177,25995,6,0,P|374:151|464:190,1,170
369,242,26572,2,0,P|320:271|199:236,1,170
164,70,27149,2,0,P|148:111|146:155,1,85
172,309,27533,2,0,B|260:347|343:340|343:340|361:262|361:262|422:336|422:336|453:178,1,510
470,58,28880,1,0,0:0:0:0:
383,150,29072,2,0,P|337:178|211:160,1,170
143,53,29649,2,0,P|91:117|97:224,1,170
208,267,30226,2,0,P|204:321|169:362,1,85
303,207,30610,6,0,P|363:237|457:207,1,170
466,296,31187,2,0,P|417:315|374:318,1,85
261,292,31572,1,0,0:0:0:0:
324,189,31764,2,0,P|334:147|334:105,1,85
138,49,32149,6,0,P|143:117|159:154,1,85
198,286,32533,2,0,P|204:229|194:193,1,85
86,111,32918,2,0,P|120:177|139:193,1,85
292,268,33303,2,0,P|254:218|222:196,1,85
90,188,33687,1,0,0:0:0:0:
199,302,33880,1,0,0:0:0:0:
214,123,34072,1,0,0:0:0:0:
86,270,34264,1,0,0:0:0:0:
282,222,34456,1,0,0:0:0:0:
138,122,34649,1,0,0:0:0:0:
250,308,34841,2,0,P|322:294|364:190,1,170
299,48,35418,5,0,0:0:0:0:
183,105,35610,1,0,0:0:0:0:
289,175,35803,2,0,L|212:225,1,85
66,298,36187,5,0,0:0:0:0:
87,143,36379,1,0,0:0:0:0:
159,259,36572,2,0,L|209:336,1,85
414,235,36956,6,0,L|331:287,1,85
274,313,37341,1,0,0:0:0:0:
349,168,37533,1,0,0:0:0:0:
172,225,37726,1,0,0:0:0:0:
370,251,37918,1,0,0:0:0:0:
266,93,38110,1,0,0:0:0:0:
246,282,38303,2,0,P|170:311|77:265,1,170
258,57,38880,6,0,P|270:110|267:155,1,85
106,115,39264,1,0,0:0:0:0:
223,242,39456,2,0,P|274:249|328:237,1,85
428,40,39841,2,0,P|443:102|408:209,1,170
362,262,40418,2,0,P|365:319|395:359,1,85
462,282,40803,1,0,0:0:0:0:
295,342,40995,2,0,P|250:356|206:356,1,85
81,274,41380,6,0,P|51:197|87:105,1,170
196,58,41956,2,0,P|277:87|364:52,1,170
246,157,42533,2,0,P|219:211|213:250,1,85
230,332,42918,1,0,0:0:0:0:
390,283,43110,1,0,0:0:0:0:
283,266,43303,1,0,0:0:0:0:
455,195,43495,1,0,0:0:0:0:
464,333,43687,5,0,0:0:0:0:
337,210,43880,1,0,0:0:0:0:
388,343,44072,1,0,0:0:0:0:
388,140,44264,1,0,0:0:0:0:
321,306,44456,2,0,P|275:333|155:303,1,170
297,104,45033,6,0,P|350:98|398:113,1,85
240,174,45418,1,0,0:0:0:0:
386,233,45610,1,0,0:0:0:0:
283,85,45803,1,0,0:0:0:0:
312,275,45995,2,0,P|386:310|471:259,1,170
240,174,46572,6,0,P|192:182|153:204,1,85
82,351,46956,2,0,P|119:319|137:282,1,85
158,106,47341,1,0,0:0:0:0:
38,194,47533,2,0,P|93:256|184:261,1,170
257,133,48110,2,0,P|303:117|346:113,1,85
463,184,48495,2,0,P|482:236|482:276,1,85
377,356,48880,2,0,P|328:373|284:373,1,85
180,296,49264,5,0,0:0:0:0:
325,254,49456,1,0,0:0:0:0:
174,211,49649,1,0,0:0:0:0:
319,336,49841,1,0,0:0:0:0:
403,175,50033,2,0,L|426:127,2,42.5
248,193,50418,1,0,0:0:0:0:
480,138,50610,2,0,P|469:219|382:253,1,170
248,193,51187,6,0,P|196:183|152:196,1,85
281,336,51572,2,0,P|332:341|377:333,1,85
477,284,51956,1,0,0:0:0:0:
365,211,52149,2,0,P|346:131|417:64,1,170
405,282,52726,2,0,P|336:331|232:326,1,170
110,158,53303,2,0,P|126:216|150:251,1,85
192,293,53687,5,0,0:0:0:0:
294,196,53880,1,0,0:0:0:0:
114,277,54072,1,0,0:0:0:0:
331,261,54264,1,0,0:0:0:0:
69,218,54456,1,0,0:0:0:0:
365,331,54649,1,0,0:0:0:0:
51,137,54841,2,0,P|-5:195|19:286,1,170
113,354,55418,5,0,0:0:0:0:
244,252,55610,1,0,0:0:0:0:
69,218,55803,1,0,0:0:0:0:
310,189,55995,1,0,0:0:0:0:
152,280,56187,1,0,0:0:0:0:
329,106,56380,1,0,0:0:0:0:
256,340,56572,1,0,0:0:0:0:
389,48,56764,2,0,P|390:152|276:178,1,203.999993774414
146,128,57341,6,0,P|92:150|50:201,1,101.999996887207
243,130,57726,1,0,0:0:0:0:
39,301,57918,2,0,P|122:348|215:298,1,203.999993774414
341,88,58495,2,0,P|344:153|332:192,1,101.999996887207
194,128,58880,1,0,0:0:0:0:
297,273,59072,1,0,0:0:0:0:
406,131,59264,1,0,0:0:0:0:
299,280,59456,1,0,0:0:0:0:
133,163,59649,1,0,0:0:0:0:
236,339,59841,2,0,P|334:347|377:243,1,203.999993774414
183,175,60418,6,0,P|173:226|196:288,1,101.999996887207
274,67,60803,1,0,0:0:0:0:
464,205,60995,2,0,P|374:246|280:209,1,203.999993774414
241,148,61572,1,0,0:0:0:0:
284,307,61764,1,0,0:0:0:0:
372,167,61956,1,0,0:0:0:0:
413,313,62149,1,0,0:0:0:0:
503,127,62341,1,0,0:0:0:0:
336,280,62533,5,0,0:0:0:0:
461,53,62726,1,0,0:0:0:0:
413,313,62918,2,0,P|326:355|252:287,1,203.999993774414
177,152,63495,1,0,0:0:0:0:
174,157,63687,2,0,P|131:205|113:266,1,101.999996887207
288,204,64072,2,0,P|330:158|346:115,1,101.999996887207
182,207,64456,5,0,0:0:0:0:
277,118,64649,1,0,0:0:0:0:
240,276,64841,1,0,0:0:0:0:
186,119,65033,1,0,0:0:0:0:
317,292,65226,1,0,0:0:0:0:
108,115,65418,1,0,0:0:0:0:
374,236,65610,2,0,P|378:340|278:372,1,203.999993774414
77,213,66187,5,0,0:0:0:0:
73,219,66380,2,0,P|60:278|67:324,1,101.999996887207
205,151,66764,1,0,0:0:0:0:
208,160,66956,2,0,P|217:223|205:264,1,101.999996887207
155,323,67341,1,0,0:0:0:0:
299,248,67533,5,0,0:0:0:0:
145,211,67726,1,0,0:0:0:0:
319,173,67918,1,0,0:0:0:0:
147,132,68110,1,0,0:0:0:0:
346,97,68303,1,0,0:0:0:0:
284,280,68495,1,0,0:0:0:0:
299,35,68687,1,0,0:0:0:0:
40,38,68880,1,0,0:0:0:0:
346,97,69072,6,0,P|368:195|302:279,1,203.999993774414
167,40,69649,2,0,P|152:91|165:143,1,101.999996887207
346,97,70033,1,0,0:0:0:0:
263,238,70226,2,0,P|167:267|65:241,1,203.999993774414
321,35,70803,2,0,P|327:98|316:142,1,101.999996887207
71,306,71187,2,0,P|137:310|180:293,1,101.999996887207
347,186,71572,5,0,0:0:0:0:
119,235,71764,1,0,0:0:0:0:
397,249,71956,1,0,0:0:0:0:
172,48,72149,2,0,P|171:112|201:163,1,101.999996887207
144,311,72533,2,0,P|77:344|35:345,1,101.999996887207
277,113,72918,2,0,P|271:173|243:221,1,101.999996887207
368,335,73303,2,0,P|435:348|490:334,1,101.999996887207
425,80,73687,5,0,0:0:0:0:
426,260,73880,1,0,0:0:0:0:
248,93,74072,1,0,0:0:0:0:
465,170,74264,1,0,0:0:0:0:
277,282,74456,1,0,0:0:0:0:
448,99,74649,1,0,0:0:0:0:
183,45,74841,1,0,0:0:0:0:
465,170,75033,1,0,0:0:0:0:
324,308,75226,6,0,B|274:352|274:352|232:285|144:297,1,203.999993774414
148,300,75803,1,0,0:0:0:0:
39,145,75995,2,0,P|68:224|6:299,1,170
172,197,76572,1,0,0:0:0:0:
299,73,76764,2,0,P|319:126|309:164,1,85
264,343,77149,2,0,P|253:288|264:232,1,85
344,285,77533,1,0,0:0:0:0:
190,180,77726,1,0,0:0:0:0:
414,237,77918,2,0,P|416:318|337:373,1,170
189,337,78495,5,0,0:0:0:0:
127,128,78687,2,0,P|112:186|122:235,1,85
120,226,79072,1,0,0:0:0:0:
239,89,79264,1,0,0:0:0:0:
334,228,79456,2,0,P|345:277|329:341,1,85
241,183,79841,5,0,0:0:0:0:
386,129,80033,1,0,0:0:0:0:
239,89,80226,1,0,0:0:0:0:
274,263,80418,1,0,0:0:0:0:
357,54,80610,1,0,0:0:0:0:
153,81,80803,1,0,0:0:0:0:
354,242,80995,1,0,0:0:0:0:
282,33,81187,1,0,0:0:0:0:
314,316,81380,2,0,P|407:300|425:204,1,170
354,242,81956,5,0,0:0:0:0:
234,337,82149,1,0,0:0:0:0:
122,233,82341,2,0,P|110:180|123:128,1,85
154,69,82726,1,0,0:0:0:0:
194,269,82918,2,0,P|121:312|40:254,1,170
123,232,83495,5,0,0:0:0:0:
263,322,83687,1,0,0:0:0:0:
352,181,83880,2,0,P|341:124|302:84,1,85
203,43,84264,1,0,0:0:0:0:
99,148,84456,2,0,P|185:175|193:275,1,170
296,86,85033,6,0,P|289:141|306:192,1,85
361,281,85418,1,0,0:0:0:0:
399,158,85610,1,0,0:0:0:0:
214,110,85803,1,0,0:0:0:0:
356,35,85995,1,0,0:0:0:0:
219,202,86187,1,0,0:0:0:0:
442,78,86380,1,0,0:0:0:0:
131,55,86572,1,0,0:0:0:0:
280,152,86764,5,0,0:0:0:0:
146,222,86956,1,0,0:0:0:0:
251,291,87149,1,0,0:0:0:0:
152,348,87341,1,0,0:0:0:0:
321,353,87533,2,0,P|392:284|379:184,1,170
264,43,88110,6,0,P|283:96|265:146,1,85
217,326,88495,2,0,P|203:274|217:225,1,85
268,134,88880,1,0,0:0:0:0:
144,210,89072,2,0,B|101:233|46:231|46:231|74:269|82:301,1,170
199,308,89649,2,0,P|251:297|303:310,1,85
377,330,90033,2,0,P|410:293|422:235,1,85
455,145,90418,1,0,0:0:0:0:
458,135,90610,1,0,0:0:0:0:
293,43,90995,5,0,0:0:0:0:
212,98,91187,1,0,0:0:0:0:
301,148,91380,1,0,0:0:0:0:
194,198,91572,1,0,0:0:0:0:
308,254,91764,1,0,0:0:0:0:
159,303,91956,1,0,0:0:0:0:
328,353,92149,1,0,0:0:0:0:
337,356,92341,1,0,0:0:0:0:
346,359,92533,1,0,0:0:0:0:
357,364,92726,1,0,0:0:0:0:
450,182,93303,1,0,0:0:0:0:
